999
DXF file: st-htxp.dxf
999
Pro/ENGINEER 2004300 by Parametric Technology Corporation
0
SECTION
2
HEADER
9
$ACADVER
1
AC1014
9
$EXTMAX
10
210.0000000000
20
297.0000000000
30
0.0000000000
9
$EXTMIN
10
0.0000000000
20
0.0000000000
30
0.0000000000
9
$LIMMIN
10
0.0000000000
20
0.0000000000
9
$LIMMAX
10
210.0000000000
20
297.0000000000
9
$VIEWCTR
10
105.0000000000
20
148.5000000000
9
$VIEWSIZE
40
297.0000000000
9
$CLAYER
8
0
9
$LTSCALE
40
19.3600000000
9
$CELTYPE
6
BYLAYER
9
$DIMSCALE
40
1
9
$DIMASZ
40
3.5000000000
9
$DIMEXO
40
2.2000000000
9
$DIMDLI
40
13.3760000000
9
$DIMEXE
40
6.3360000000
9
$DIMCEN
40
3.1680000000
9
$DIMLFAC
40
1.0000000000
9
$DIMBLK
1
_FILLED
9
$DIMTXT
40
3.5000000000
9
$DIMTOL
70
1
9
$DIMLIM
70
0
9
$DIMTFAC
40
1.0000000000
9
$DIMTP
40
0.0050000000
9
$DIMTM
40
0.0050000000
9
$PDMODE
70
3
9
$PDSIZE
40
0.3125000000
9
$HANDSEED
5
4C5
9
$MEASUREMENT
70
1
0
ENDSEC
0
SECTION
2
CLASSES
0
ENDSEC
0
SECTION
2
TABLES
0
TABLE
2
VPORT
5
8
100
AcDbSymbolTable
70
2
0
VPORT
5
1F4
100
AcDbSymbolTableRecord
100
AcDbViewportTableRecord
2
*ACTIVE
70
0
10
0.0
20
0.0
11
1.0
21
1.0
12
105.0000000000
22
148.5000000000
13
0.0
23
0.0
14
1.0
24
1.0
15
0.0
25
0.0
16
0.0
26
0.0
36
1.0
17
0.0
27
0.0
37
0.0
40
297.0000000000
41
0.7070707071
42
50.0
43
0.0
44
0.0
50
0.0
51
0.0
71
0
72
100
73
1
74
1
75
0
76
0
77
0
78
0
0
ENDTAB
0
TABLE
2
LTYPE
5
5
100
AcDbSymbolTable
70
6
0
LTYPE
5
14
100
AcDbSymbolTableRecord
100
AcDbLinetypeTableRecord
2
BYBLOCK
70
0
3

72
65
73
0
40
0.0
0
LTYPE
5
15
100
AcDbSymbolTableRecord
100
AcDbLinetypeTableRecord
2
BYLAYER
70
0
3

72
65
73
0
40
0.0
0
LTYPE
5
16
100
AcDbSymbolTableRecord
100
AcDbLinetypeTableRecord
2
CONTINUOUS
70
64
3
Solid line
72
65
73
0
40
0
0
LTYPE
5
1F5
100
AcDbSymbolTableRecord
100
AcDbLinetypeTableRecord
2
CENTER
70
64
3
____ _ ____ _ ____ _ ____ _ ____ _ ____ _ ____
72
65
73
4
40
0.6
49
0.375
74
0
49
-0.075
74
0
49
0.075
74
0
49
-0.075
74
0
0
LTYPE
5
1F6
100
AcDbSymbolTableRecord
100
AcDbLinetypeTableRecord
2
HIDDEN
70
64
3
- - - - - - - - - - - - - - - - - - - -
72
65
73
2
40
0.2
49
0.1
74
0
49
-0.1
74
0
0
LTYPE
5
1F7
100
AcDbSymbolTableRecord
100
AcDbLinetypeTableRecord
2
PHANTOM
70
64
3
_____ _ _ _____ _ _ _____ _ _ _____
72
65
73
6
40
0.8
49
0.45
74
0
49
-0.05
74
0
49
0.1
74
0
49
-0.05
74
0
49
0.1
74
0
49
-0.05
74
0
0
LTYPE
5
1F8
100
AcDbSymbolTableRecord
100
AcDbLinetypeTableRecord
2
DOT
70
64
3
. . . . . . . . . . . . . . . . . . . .
72
65
73
2
40
0.2
49
0.1
74
0
49
-0.1
74
0
0
LTYPE
5
1F9
100
AcDbSymbolTableRecord
100
AcDbLinetypeTableRecord
2
DASHED
70
64
3
- - - - - - - - - - - - - - - - - - - -
72
65
73
2
40
0.2
49
0.1
74
0
49
-0.1
74
0
0
ENDTAB
0
TABLE
2
LAYER
5
2
100
AcDbSymbolTable
70
36
0
LAYER
5
10
100
AcDbSymbolTableRecord
100
AcDbLayerTableRecord
2
0
70
0
62
7
6
CONTINUOUS
0
LAYER
5
1FA
100
AcDbSymbolTableRecord
100
AcDbLayerTableRecord
2
DEFAULT_1
70
0
62
7
6
CENTER
0
LAYER
5
1FB
100
AcDbSymbolTableRecord
100
AcDbLayerTableRecord
2
DEFAULT_2
70
0
62
8
6
HIDDEN
0
LAYER
5
1FC
100
AcDbSymbolTableRecord
100
AcDbLayerTableRecord
2
DEFAULT_3
70
0
62
7
6
PHANTOM
0
LAYER
5
1FD
100
AcDbSymbolTableRecord
100
AcDbLayerTableRecord
2
_BLACK_HOLE
70
0
62
7
6
CONTINUOUS
0
LAYER
5
1FE
100
AcDbSymbolTableRecord
100
AcDbLayerTableRecord
2
BEZUGSACHSEN
70
0
62
7
6
CONTINUOUS
0
LAYER
5
1FF
100
AcDbSymbolTableRecord
100
AcDbLayerTableRecord
2
BEZUGSEBENEN
70
0
62
7
6
CONTINUOUS
0
LAYER
5
200
100
AcDbSymbolTableRecord
100
AcDbLayerTableRecord
2
BOHRUNGEN
70
0
62
7
6
CONTINUOUS
0
LAYER
5
201
100
AcDbSymbolTableRecord
100
AcDbLayerTableRecord
2
FASEN
70
0
62
7
6
CONTINUOUS
0
LAYER
5
202
100
AcDbSymbolTableRecord
100
AcDbLayerTableRecord
2
GEWINDE
70
0
62
7
6
CONTINUOUS
0
LAYER
5
203
100
AcDbSymbolTableRecord
100
AcDbLayerTableRecord
2
HILFEN
70
0
62
7
6
CONTINUOUS
0
LAYER
5
204
100
AcDbSymbolTableRecord
100
AcDbLayerTableRecord
2
KURVEN
70
0
62
7
6
CONTINUOUS
0
LAYER
5
205
100
AcDbSymbolTableRecord
100
AcDbLayerTableRecord
2
PLAZIERUNG
70
0
62
7
6
CONTINUOUS
0
LAYER
5
206
100
AcDbSymbolTableRecord
100
AcDbLayerTableRecord
2
RUNDUNGEN
70
0
62
7
6
CONTINUOUS
0
LAYER
5
207
100
AcDbSymbolTableRecord
100
AcDbLayerTableRecord
2
TEIL_STARTBEZUEGE
70
0
62
7
6
CONTINUOUS
0
LAYER
5
208
100
AcDbSymbolTableRecord
100
AcDbLayerTableRecord
2
XSEC_DATUMS
70
0
62
7
6
CONTINUOUS
0
LAYER
5
209
100
AcDbSymbolTableRecord
100
AcDbLayerTableRecord
2
ZEICHNUNGSBEMASSUNGEN
70
0
62
7
6
CONTINUOUS
0
ENDTAB
0
TABLE
2
STYLE
5
3
100
AcDbSymbolTable
70
1
0
STYLE
5
11
100
AcDbSymbolTableRecord
100
AcDbTextStyleTableRecord
2
STANDARD
70
0
40
0.0
41
0.7000000000
50
0.0
71
0
42
0.2
3
txt
4

0
STYLE
5
20A
100
AcDbSymbolTableRecord
100
AcDbTextStyleTableRecord
2
TEXTSTYLE_1
70
0
40
0.0
41
1.0000000000
50
0.0
71
0
42
0.2
3
trium.ttf
4

0
ENDTAB
0
TABLE
2
VIEW
5
6
100
AcDbSymbolTable
70
0
0
ENDTAB
0
TABLE
2
UCS
5
7
100
AcDbSymbolTable
70
0
0
ENDTAB
0
TABLE
2
APPID
5
9
100
AcDbSymbolTable
70
1
0
APPID
5
20B
100
AcDbSymbolTableRecord
100
AcDbRegAppTableRecord
2
ACAD
70
0
0
ENDTAB
0
TABLE
2
DIMSTYLE
5
A
100
AcDbSymbolTable
70
1
0
DIMSTYLE
105
20C
100
AcDbSymbolTableRecord
100
AcDbDimStyleTableRecord
2
STANDARD
70
0
3

4

5
_FILLED
6
_FILLED
7
_FILLED
40
1.0
41
3.5000000000
42
0.0625
43
0.38
44
0.18
45
0.0
46
0.0
47
0.0050000000
48
0.0050000000
140
3.5000000000
141
0.09
142
0.0
143
25.4
144
1.0000000000
145
0.0
146
1.0000000000
147
0.09
71
1
72
0
73
0
74
0
75
0
76
0
77
1
78
8
170
0
171
2
172
0
173
0
174
0
175
0
176
0
177
0
178
5
270
2
271
3
272
3
273
2
274
2
340
11
275
0
280
0
281
0
282
0
283
1
284
8
285
0
286
0
287
3
288
0
0
DIMSTYLE
105
20D
100
AcDbSymbolTableRecord
100
AcDbDimStyleTableRecord
2
DIMSTYLE_1
70
0
3

4

5
_FILLED
6
_FILLED
7
_FILLED
40
1.0
41
3.5000000000
42
0.0625
43
0.38
44
0.18
45
0.0
46
0.0
47
0.3000000000
48
0.3000000000
140
3.5000000000
141
0.09
142
0.0
143
25.4
144
1.0000000000
145
0.0
146
1.0000000000
147
0.09
71
0
72
0
73
0
74
0
75
0
76
0
77
1
78
8
170
0
171
2
172
0
173
0
174
0
175
0
176
0
177
0
178
5
270
2
271
3
272
3
273
2
274
2
340
11
275
0
280
0
281
0
282
0
283
1
284
8
285
0
286
0
287
3
288
0
0
ENDTAB
0
TABLE
2
BLOCK_RECORD
5
1
100
AcDbSymbolTable
70
0
0
BLOCK_RECORD
5
1B
100
AcDbSymbolTableRecord
100
AcDbBlockTableRecord
2
*MODEL_SPACE
0
BLOCK_RECORD
5
1C
100
AcDbSymbolTableRecord
100
AcDbBlockTableRecord
2
*PAPER_SPACE
0
BLOCK_RECORD
5
20E
100
AcDbSymbolTableRecord
100
AcDbBlockTableRecord
2
_FILLED
0
BLOCK_RECORD
5
20F
100
AcDbSymbolTableRecord
100
AcDbBlockTableRecord
2
NEUTRIK_LOGO_BL0
0
BLOCK_RECORD
5
210
100
AcDbSymbolTableRecord
100
AcDbBlockTableRecord
2
*D0
0
BLOCK_RECORD
5
211
100
AcDbSymbolTableRecord
100
AcDbBlockTableRecord
2
*D1
0
ENDTAB
0
ENDSEC
0
SECTION
2
BLOCKS
0
BLOCK
5
1E
100
AcDbEntity
8
0
100
AcDbBlockBegin
2
*MODEL_SPACE
70
0
10
0.0
20
0.0
30
0.0
3
*MODEL_SPACE
1

0
ENDBLK
5
1F
100
AcDbEntity
8
0
100
AcDbBlockEnd
0
BLOCK
5
20
100
AcDbEntity
8
0
100
AcDbBlockBegin
2
*PAPER_SPACE
70
0
10
0.0
20
0.0
30
0.0
3
*PAPER_SPACE
1

0
ENDBLK
5
21
100
AcDbEntity
8
0
100
AcDbBlockEnd
0
BLOCK
5
212
100
AcDbEntity
8
0
100
AcDbBlockBegin
62
2
6
CONTINUOUS
2
NEUTRIK_LOGO_BL0
70
64
10
98.0245925022
20
9.2066660654
3
NEUTRIK_LOGO_BL0
1

0
LINE
5
213
100
AcDbEntity
8
0
100
AcDbLine
62
2
6
CONTINUOUS
10
77.5544360471
20
8.0329859648
11
75.0539855722
21
9.5420032339
0
LINE
5
214
100
AcDbEntity
8
0
100
AcDbLine
62
2
6
CONTINUOUS
10
75.2018073047
20
10.3803457168
11
77.7022587796
21
8.8713284476
0
LINE
5
215
100
AcDbEntity
8
0
100
AcDbLine
62
2
6
CONTINUOUS
10
107.6509415813
20
8.0329859648
11
106.0530264731
21
8.9551632959
0
LINE
5
216
100
AcDbEntity
8
0
100
AcDbLine
62
2
6
CONTINUOUS
10
97.3194792782
20
8.8713284476
11
98.5968389666
21
8.0329859648
0
LINE
5
217
100
AcDbEntity
8
0
100
AcDbLine
62
2
6
CONTINUOUS
10
100.5250274771
20
8.0329859648
11
99.2476677888
21
8.8713284476
0
LINE
5
218
100
AcDbEntity
8
0
100
AcDbLine
62
2
6
CONTINUOUS
10
107.8554912111
20
9.2904996891
11
109.7467977884
21
8.0329859648
0
LINE
5
219
100
AcDbEntity
8
0
100
AcDbLine
62
2
6
CONTINUOUS
10
115.1413990258
20
10.1843850714
11
115.4712004290
21
8.8651804588
0
LINE
5
21A
100
AcDbEntity
8
0
100
AcDbLine
62
2
6
CONTINUOUS
10
115.5621982643
20
8.5011891175
11
115.6792490525
21
8.0329859648
0
LINE
5
21B
100
AcDbEntity
8
0
100
AcDbLine
62
2
6
CONTINUOUS
10
116.6116883650
20
10.3803457168
11
117.1985283030
21
8.0329859648
0
LINE
5
21C
100
AcDbEntity
8
0
100
AcDbLine
62
2
6
CONTINUOUS
10
73.1950539363
20
8.0329859648
11
73.6089561873
21
10.3803457168
0
LINE
5
21D
100
AcDbEntity
8
0
100
AcDbLine
62
2
6
CONTINUOUS
10
75.0539855722
20
9.5420032339
11
74.7879050537
21
8.0329859648
0
LINE
5
21E
100
AcDbEntity
8
0
100
AcDbLine
62
2
6
CONTINUOUS
10
77.7022587796
20
8.8713284476
11
77.9683382981
21
10.3803457168
0
LINE
5
21F
100
AcDbEntity
8
0
100
AcDbLine
62
2
6
CONTINUOUS
10
79.5611904155
20
10.3803457168
11
79.1472871645
21
8.0329859648
0
LINE
5
220
100
AcDbEntity
8
0
100
AcDbLine
62
2
6
CONTINUOUS
10
80.4048008888
20
8.0329859648
11
80.8187041397
21
10.3803457168
0
LINE
5
221
100
AcDbEntity
8
0
100
AcDbLine
62
2
6
CONTINUOUS
10
82.2390275694
20
9.8773396271
11
82.1651167031
21
9.4581683856
0
LINE
5
222
100
AcDbEntity
8
0
100
AcDbLine
62
2
6
CONTINUOUS
10
82.0764228636
20
8.9551632959
11
82.0025119974
21
8.5359920545
0
LINE
5
223
100
AcDbEntity
8
0
100
AcDbLine
62
2
6
CONTINUOUS
10
84.3448077585
20
9.4581683856
11
84.2561139190
21
8.9551632959
0
LINE
5
224
100
AcDbEntity
8
0
100
AcDbLine
62
2
6
CONTINUOUS
10
85.0104175540
20
10.3803457168
11
84.9217247145
21
9.8773396271
0
LINE
5
225
100
AcDbEntity
8
0
100
AcDbLine
62
2
6
CONTINUOUS
10
84.6852081425
20
8.5359920545
11
84.5965153030
21
8.0329859648
0
LINE
5
226
100
AcDbEntity
8
0
100
AcDbLine
62
2
6
CONTINUOUS
10
85.5789415251
20
8.8501264860
11
85.8487610368
21
10.3803457168
0
LINE
5
227
100
AcDbEntity
8
0
100
AcDbLine
62
2
6
CONTINUOUS
10
87.3577773060
20
10.3803457168
11
87.1119527508
21
8.9862012398
0
LINE
5
228
100
AcDbEntity
8
0
100
AcDbLine
62
2
6
CONTINUOUS
10
88.9423444384
20
8.9070203830
11
89.2021319682
21
10.3803457168
0
LINE
5
229
100
AcDbEntity
8
0
100
AcDbLine
62
2
6
CONTINUOUS
10
90.7111492373
20
10.3803457168
11
90.4145627741
21
8.6983237607
0
LINE
5
22A
100
AcDbEntity
8
0
100
AcDbLine
62
2
6
CONTINUOUS
10
91.1945133626
20
9.7935057788
11
91.2979891753
21
10.3803457168
0
LINE
5
22B
100
AcDbEntity
8
0
100
AcDbLine
62
2
6
CONTINUOUS
10
92.0577658004
20
8.0329859648
11
92.3681932386
21
9.7935057788
0
LINE
5
22C
100
AcDbEntity
8
0
100
AcDbLine
62
2
6
CONTINUOUS
10
94.0448782043
20
9.7935057788
11
93.7344517661
21
8.0329859648
0
LINE
5
22D
100
AcDbEntity
8
0
100
AcDbLine
62
2
6
CONTINUOUS
10
95.3220338930
20
10.3803457168
11
95.2185580803
21
9.7935057788
0
LINE
5
22E
100
AcDbEntity
8
0
100
AcDbLine
62
2
6
CONTINUOUS
10
95.9088738310
20
10.3803457168
11
95.4949715800
21
8.0329859648
0
LINE
5
22F
100
AcDbEntity
8
0
100
AcDbLine
62
2
6
CONTINUOUS
10
97.1716565457
20
8.0329859648
11
97.3194792782
21
8.8713284476
0
LINE
5
230
100
AcDbEntity
8
0
100
AcDbLine
62
2
6
CONTINUOUS
10
97.4081721177
20
9.3743345373
11
97.5116479304
21
9.9611744753
0
LINE
5
231
100
AcDbEntity
8
0
100
AcDbLine
62
2
6
CONTINUOUS
10
101.1957022634
20
8.0329859648
11
101.6096045144
21
10.3803457168
0
LINE
5
232
100
AcDbEntity
8
0
100
AcDbLine
62
2
6
CONTINUOUS
10
103.2862904800
20
10.3803457168
11
102.8723872291
21
8.0329859648
0
LINE
5
233
100
AcDbEntity
8
0
100
AcDbLine
62
2
6
CONTINUOUS
10
104.2137358016
20
8.0329859648
11
104.6276390526
21
10.3803457168
0
LINE
5
234
100
AcDbEntity
8
0
100
AcDbLine
62
2
6
CONTINUOUS
10
106.3043240183
20
10.3803457168
11
106.1121553661
21
9.2904996891
0
LINE
5
235
100
AcDbEntity
8
0
100
AcDbLine
62
2
6
CONTINUOUS
10
106.0530264731
20
8.9551632959
11
105.8904217673
21
8.0329859648
0
LINE
5
236
100
AcDbEntity
8
0
100
AcDbLine
62
2
6
CONTINUOUS
10
117.8923160475
20
8.5313940628
11
118.1405795982
21
9.9393685148
0
LINE
5
237
100
AcDbEntity
8
0
100
AcDbLine
62
2
6
CONTINUOUS
10
119.4637212037
20
8.8526434815
11
119.6196779214
21
9.7371138808
0
LINE
5
238
100
AcDbEntity
8
0
100
AcDbLine
62
2
6
CONTINUOUS
10
120.5561772267
20
8.8812524297
11
120.5944831573
21
9.0984910365
0
LINE
5
239
100
AcDbEntity
8
0
100
AcDbLine
62
2
6
CONTINUOUS
10
121.0125094008
20
8.0329859648
11
121.0173913920
21
8.0606719147
0
LINE
5
23A
100
AcDbEntity
8
0
100
AcDbLine
62
2
6
CONTINUOUS
10
121.1430231646
20
8.7731656253
11
121.1620821301
21
8.8812524297
0
LINE
5
23B
100
AcDbEntity
8
0
100
AcDbLine
62
2
6
CONTINUOUS
10
122.5272706596
20
8.0329859648
11
122.7151483196
21
9.0984910365
0
LINE
5
23C
100
AcDbEntity
8
0
100
AcDbLine
62
2
6
CONTINUOUS
10
122.8291061133
20
9.7447798669
11
122.8541310680
21
9.8867056101
0
LINE
5
23D
100
AcDbEntity
8
0
100
AcDbLine
62
2
6
CONTINUOUS
10
109.7467977884
20
8.0329859648
11
107.6509415813
21
8.0329859648
0
LINE
5
23E
100
AcDbEntity
8
0
100
AcDbLine
62
2
6
CONTINUOUS
10
73.1950539363
20
8.0329859648
11
74.7879050537
21
8.0329859648
0
LINE
5
23F
100
AcDbEntity
8
0
100
AcDbLine
62
2
6
CONTINUOUS
10
105.8904217673
20
8.0329859648
11
104.2137358016
21
8.0329859648
0
LINE
5
240
100
AcDbEntity
8
0
100
AcDbLine
62
2
6
CONTINUOUS
10
102.8723872291
20
8.0329859648
11
101.1957022634
21
8.0329859648
0
LINE
5
241
100
AcDbEntity
8
0
100
AcDbLine
62
2
6
CONTINUOUS
10
93.7344517661
20
8.0329859648
11
92.0577658004
21
8.0329859648
0
LINE
5
242
100
AcDbEntity
8
0
100
AcDbLine
62
2
6
CONTINUOUS
10
95.4949715800
20
8.0329859648
11
97.1716565457
21
8.0329859648
0
LINE
5
243
100
AcDbEntity
8
0
100
AcDbLine
62
2
6
CONTINUOUS
10
84.5965153030
20
8.0329859648
11
80.4048008888
21
8.0329859648
0
LINE
5
244
100
AcDbEntity
8
0
100
AcDbLine
62
2
6
CONTINUOUS
10
98.5968389666
20
8.0329859648
11
100.5250274771
21
8.0329859648
0
LINE
5
245
100
AcDbEntity
8
0
100
AcDbLine
62
2
6
CONTINUOUS
10
79.1472871645
20
8.0329859648
11
77.5544360471
21
8.0329859648
0
LINE
5
246
100
AcDbEntity
8
0
100
AcDbLine
62
2
6
CONTINUOUS
10
111.8930159044
20
8.0329859648
11
113.5278499458
21
8.0329859648
0
LINE
5
247
100
AcDbEntity
8
0
100
AcDbLine
62
2
6
CONTINUOUS
10
115.6792490525
20
8.0329859648
11
117.1985283030
21
8.0329859648
0
LINE
5
248
100
AcDbEntity
8
0
100
AcDbLine
62
2
6
CONTINUOUS
10
121.0125094008
20
8.0329859648
11
122.5272706596
21
8.0329859648
0
LINE
5
249
100
AcDbEntity
8
0
100
AcDbLine
62
2
6
CONTINUOUS
10
113.8790013104
20
8.5011891175
11
115.5621982643
21
8.5011891175
0
LINE
5
24A
100
AcDbEntity
8
0
100
AcDbLine
62
2
6
CONTINUOUS
10
82.0025119974
20
8.5359920545
11
84.6852081425
21
8.5359920545
0
LINE
5
24B
100
AcDbEntity
8
0
100
AcDbLine
62
2
6
CONTINUOUS
10
114.1519948163
20
8.8651804588
11
115.4712004290
21
8.8651804588
0
LINE
5
24C
100
AcDbEntity
8
0
100
AcDbLine
62
2
6
CONTINUOUS
10
120.5561772267
20
8.8812524297
11
121.1620821301
21
8.8812524297
0
LINE
5
24D
100
AcDbEntity
8
0
100
AcDbLine
62
2
6
CONTINUOUS
10
84.2561139190
20
8.9551632959
11
82.0764228636
21
8.9551632959
0
LINE
5
24E
100
AcDbEntity
8
0
100
AcDbLine
62
2
6
CONTINUOUS
10
120.5944831573
20
9.0984910365
11
122.7151483196
21
9.0984910365
0
LINE
5
24F
100
AcDbEntity
8
0
100
AcDbLine
62
2
6
CONTINUOUS
10
98.4693321973
20
9.3743345373
11
97.4081721177
21
9.3743345373
0
LINE
5
250
100
AcDbEntity
8
0
100
AcDbLine
62
2
6
CONTINUOUS
10
82.1651167031
20
9.4581683856
11
84.3448077585
21
9.4581683856
0
LINE
5
251
100
AcDbEntity
8
0
100
AcDbLine
62
2
6
CONTINUOUS
10
121.2929528933
20
9.7447798669
11
122.8291061133
21
9.7447798669
0
LINE
5
252
100
AcDbEntity
8
0
100
AcDbLine
62
2
6
CONTINUOUS
10
95.2185580803
20
9.7935057788
11
94.0448782043
21
9.7935057788
0
LINE
5
253
100
AcDbEntity
8
0
100
AcDbLine
62
2
6
CONTINUOUS
10
92.3681932386
20
9.7935057788
11
91.1945133626
21
9.7935057788
0
LINE
5
254
100
AcDbEntity
8
0
100
AcDbLine
62
2
6
CONTINUOUS
10
84.9217247145
20
9.8773396271
11
82.2390275694
21
9.8773396271
0
LINE
5
255
100
AcDbEntity
8
0
100
AcDbLine
62
2
6
CONTINUOUS
10
97.5116479304
20
9.9611744753
11
98.7657596609
21
9.9611744753
0
LINE
5
256
100
AcDbEntity
8
0
100
AcDbLine
62
2
6
CONTINUOUS
10
73.6089561873
20
10.3803457168
11
75.2018073047
21
10.3803457168
0
LINE
5
257
100
AcDbEntity
8
0
100
AcDbLine
62
2
6
CONTINUOUS
10
77.9683382981
20
10.3803457168
11
79.5611904155
21
10.3803457168
0
LINE
5
258
100
AcDbEntity
8
0
100
AcDbLine
62
2
6
CONTINUOUS
10
80.8187041397
20
10.3803457168
11
85.0104175540
21
10.3803457168
0
LINE
5
259
100
AcDbEntity
8
0
100
AcDbLine
62
2
6
CONTINUOUS
10
99.0107422175
20
10.3803457168
11
95.9088738310
21
10.3803457168
0
LINE
5
25A
100
AcDbEntity
8
0
100
AcDbLine
62
2
6
CONTINUOUS
10
85.8487610368
20
10.3803457168
11
87.3577773060
21
10.3803457168
0
LINE
5
25B
100
AcDbEntity
8
0
100
AcDbLine
62
2
6
CONTINUOUS
10
89.2021319682
20
10.3803457168
11
90.7111492373
21
10.3803457168
0
LINE
5
25C
100
AcDbEntity
8
0
100
AcDbLine
62
2
6
CONTINUOUS
10
91.2979891753
20
10.3803457168
11
95.3220338930
21
10.3803457168
0
LINE
5
25D
100
AcDbEntity
8
0
100
AcDbLine
62
2
6
CONTINUOUS
10
101.6096045144
20
10.3803457168
11
103.2862904800
21
10.3803457168
0
LINE
5
25E
100
AcDbEntity
8
0
100
AcDbLine
62
2
6
CONTINUOUS
10
104.6276390526
20
10.3803457168
11
106.3043240183
21
10.3803457168
0
LINE
5
25F
100
AcDbEntity
8
0
100
AcDbLine
62
2
6
CONTINUOUS
10
108.0476608634
20
10.3803457168
11
110.1607010394
21
10.3803457168
0
LINE
5
260
100
AcDbEntity
8
0
100
AcDbLine
62
2
6
CONTINUOUS
10
113.6535357184
20
10.3803457168
11
116.6116883650
21
10.3803457168
0
LINE
5
261
100
AcDbEntity
8
0
100
AcDbLine
62
2
6
CONTINUOUS
10
111.8930159044
20
8.0329859648
11
113.6535357184
21
10.3803457168
0
LINE
5
262
100
AcDbEntity
8
0
100
AcDbLine
62
2
6
CONTINUOUS
10
113.5278499458
20
8.0329859648
11
113.8790013104
21
8.5011891175
0
LINE
5
263
100
AcDbEntity
8
0
100
AcDbLine
62
2
6
CONTINUOUS
10
114.1519948163
20
8.8651804588
11
115.1413990258
21
10.1843850714
0
LINE
5
264
100
AcDbEntity
8
0
100
AcDbLine
62
2
6
CONTINUOUS
10
106.1121553661
20
9.2904996891
11
108.0476608634
21
10.3803457168
0
LINE
5
265
100
AcDbEntity
8
0
100
AcDbLine
62
2
6
CONTINUOUS
10
110.1607010394
20
10.3803457168
11
107.8554912111
21
9.2904996891
0
ARC
5
266
100
AcDbEntity
8
0
100
AcDbCircle
62
2
6
CONTINUOUS
10
87.4421951532
20
8.9279703451
40
0.3353369670
100
AcDbArc
50
169.9999581174
51
257.3876854477
0
ARC
5
267
100
AcDbEntity
8
0
100
AcDbCircle
62
2
6
CONTINUOUS
10
87.9547452256
20
11.2186881996
40
2.6826964808
100
AcDbArc
50
257.3877479741
51
286.2626659460
0
ARC
5
268
100
AcDbEntity
8
0
100
AcDbCircle
62
2
6
CONTINUOUS
10
88.6121020360
20
8.9652512777
40
0.3353371135
100
AcDbArc
50
286.2627744417
51
349.9999581174
0
ARC
5
269
100
AcDbEntity
8
0
100
AcDbCircle
62
2
6
CONTINUOUS
10
89.9191986705
20
8.7856696027
40
0.5030061094
100
AcDbArc
50
284.4613069912
51
350.0000240953
0
ARC
5
26A
100
AcDbEntity
8
0
100
AcDbCircle
62
2
6
CONTINUOUS
10
87.9512572319
20
16.4164137933
40
8.3834278607
100
AcDbArc
50
256.2209051549
51
284.4612653568
0
ARC
5
26B
100
AcDbEntity
8
0
100
AcDbCircle
62
2
6
CONTINUOUS
10
86.0743056287
20
8.7627806441
40
0.5030058560
100
AcDbArc
50
170.0000240953
51
256.2208762229
0
ARC
5
26C
100
AcDbEntity
8
0
100
AcDbCircle
62
2
6
CONTINUOUS
10
99.5460702487
20
10.1920990574
40
1.3167024847
100
AcDbArc
50
270.8139664646
51
287.3320455010
0
ARC
5
26D
100
AcDbEntity
8
0
100
AcDbCircle
62
2
6
CONTINUOUS
10
99.6328970916
20
9.9138785609
40
1.0252482950
100
AcDbArc
50
287.3320415540
51
306.9952583027
0
ARC
5
26E
100
AcDbEntity
8
0
100
AcDbCircle
62
2
6
CONTINUOUS
10
99.7658758510
20
9.7373788803
40
0.8042604703
100
AcDbArc
50
306.9952804959
51
331.1991469186
0
ARC
5
26F
100
AcDbEntity
8
0
100
AcDbCircle
62
2
6
CONTINUOUS
10
99.9698034819
20
9.6252650832
40
0.5715468569
100
AcDbArc
50
331.1991187457
51
28.8007934081
0
ARC
5
270
100
AcDbEntity
8
0
100
AcDbCircle
62
2
6
CONTINUOUS
10
99.7658758510
20
9.5131502861
40
0.8042612359
100
AcDbArc
50
28.8008530814
51
53.0047195041
0
ARC
5
271
100
AcDbEntity
8
0
100
AcDbCircle
62
2
6
CONTINUOUS
10
99.6328970916
20
9.3366506055
40
1.0252479986
100
AcDbArc
50
53.0047416973
51
72.6679584460
0
ARC
5
272
100
AcDbEntity
8
0
100
AcDbCircle
62
2
6
CONTINUOUS
10
99.5460702487
20
9.0584301090
40
1.3167024858
100
AcDbArc
50
72.6679544990
51
88.2637233921
0
ARC
5
273
100
AcDbEntity
8
0
100
AcDbCircle
62
2
6
CONTINUOUS
10
99.1751869199
20
-1.8011792383
40
12.1826353158
100
AcDbArc
50
88.0677150838
51
90.7734183662
0
ARC
5
274
100
AcDbEntity
8
0
100
AcDbCircle
62
2
6
CONTINUOUS
10
97.8450613271
20
126.7276131626
40
117.8646306221
100
AcDbArc
50
270.6818443076
51
270.8360085966
0
ARC
5
275
100
AcDbEntity
8
0
100
AcDbCircle
62
2
6
CONTINUOUS
10
98.7233307377
20
9.4400284185
40
0.5228699142
100
AcDbArc
50
74.2117758502
51
85.3455498836
0
ARC
5
276
100
AcDbEntity
8
0
100
AcDbCircle
62
2
6
CONTINUOUS
10
98.7726766484
20
9.6145531026
40
0.3415029724
100
AcDbArc
50
49.8059564200
51
74.2116374161
0
ARC
5
277
100
AcDbEntity
8
0
100
AcDbCircle
62
2
6
CONTINUOUS
10
98.8829964487
20
9.7451268663
40
0.1705654939
100
AcDbArc
50
340.1939680670
51
49.8058745946
0
ARC
5
278
100
AcDbEntity
8
0
100
AcDbCircle
62
2
6
CONTINUOUS
10
98.7221697398
20
9.8030467615
40
0.3415041793
100
AcDbArc
50
315.7883508031
51
340.1940327095
0
ARC
5
279
100
AcDbEntity
8
0
100
AcDbCircle
62
2
6
CONTINUOUS
10
98.5921729750
20
9.9295155326
40
0.5228695114
100
AcDbArc
50
298.8638229053
51
315.7882717965
0
ARC
5
27A
100
AcDbEntity
8
0
100
AcDbCircle
62
2
6
CONTINUOUS
10
98.4693321973
20
10.1523731293
40
0.7773408920
100
AcDbArc
50
285.0000006491
51
298.8638426666
0
ARC
5
27B
100
AcDbEntity
8
0
100
AcDbCircle
62
2
6
CONTINUOUS
10
98.4666332022
20
10.1523751293
40
0.7780452733
100
AcDbArc
50
270.1987562222
51
285.1919461560
0
ARC
5
27C
100
AcDbEntity
8
0
100
AcDbCircle
62
2
6
CONTINUOUS
10
120.6619260353
20
-2.9792851063
40
13.3596308353
100
AcDbArc
50
81.6598945895
51
99.8027888696
0
ARC
5
27D
100
AcDbEntity
8
0
100
AcDbCircle
62
2
6
CONTINUOUS
10
120.1292479993
20
21.3907487912
40
13.3596309136
100
AcDbArc
50
261.4614728694
51
273.8118136955
0
ARC
5
27E
100
AcDbEntity
8
0
100
AcDbCircle
62
2
6
CONTINUOUS
10
118.4389290582
20
9.8867606100
40
0.3029526780
100
AcDbArc
50
99.8027796749
51
169.9998425607
0
ARC
5
27F
100
AcDbEntity
8
0
100
AcDbCircle
62
2
6
CONTINUOUS
10
118.1906655075
20
8.4787871580
40
0.3029519545
100
AcDbArc
50
170.0000288120
51
261.4614258049
0
ARC
5
280
100
AcDbEntity
8
0
100
AcDbCircle
62
2
6
CONTINUOUS
10
122.5557816080
20
9.9393125149
40
0.3029519545
100
AcDbArc
50
350.0000288120
51
81.6598857953
0
ARC
5
281
100
AcDbEntity
8
0
100
AcDbCircle
62
2
6
CONTINUOUS
10
120.4567834065
20
6.5595326313
40
3.4740280808
100
AcDbArc
50
80.2083456985
51
99.7818280968
0
ARC
5
282
100
AcDbEntity
8
0
100
AcDbCircle
62
2
6
CONTINUOUS
10
120.2291178185
20
11.9365299005
40
3.4740282835
100
AcDbArc
50
261.5304821195
51
281.1930777907
0
ARC
5
283
100
AcDbEntity
8
0
100
AcDbCircle
62
2
6
CONTINUOUS
10
119.9180273815
20
9.6845069760
40
0.3029528628
100
AcDbArc
50
99.7818543358
51
170.0000288120
0
ARC
5
284
100
AcDbEntity
8
0
100
AcDbCircle
62
2
6
CONTINUOUS
10
120.9960754306
20
9.6844149762
40
0.3029523856
100
AcDbArc
50
11.4934186918
51
80.2083192078
0
ARC
5
285
100
AcDbEntity
8
0
100
AcDbCircle
62
2
6
CONTINUOUS
10
119.7620716637
20
8.8000365767
40
0.3029529393
100
AcDbArc
50
170.0000616530
51
261.5304593161
0
ARC
5
286
100
AcDbEntity
8
0
100
AcDbCircle
62
2
6
CONTINUOUS
10
120.8446737046
20
8.8257725301
40
0.3029520503
100
AcDbArc
50
281.1930976978
51
350.0000288120
0
ENDBLK
5
287
100
AcDbEntity
8
0
6
BYBLOCK
62
0
100
AcDbBlockEnd
0
BLOCK
5
288
100
AcDbEntity
8
ZEICHNUNGSBEMASSUNGEN
100
AcDbBlockBegin
62
2
6
CONTINUOUS
2
*D0
70
65
10
0.0000000000
20
0.0000000000
3
*D0
1

0
TEXT
5
289
100
AcDbEntity
8
ZEICHNUNGSBEMASSUNGEN
100
AcDbText
62
5
6
CONTINUOUS
10
27.2506459533
20
165.7148477752
7
STANDARD
40
3.5000000000
1
80
50
90.0000000000
41
0.7857142857
51
15.0000000000
72
0
100
AcDbText
0
TEXT
5
28A
100
AcDbEntity
8
ZEICHNUNGSBEMASSUNGEN
100
AcDbText
62
5
6
CONTINUOUS
10
27.2506459533
20
176.2148477752
7
STANDARD
40
3.5000000000
1
3.15
50
90.0000000000
41
0.6428571429
51
15.0000000000
72
0
100
AcDbText
0
TEXT
5
28B
100
AcDbEntity
8
ZEICHNUNGSBEMASSUNGEN
100
AcDbText
62
5
6
CONTINUOUS
10
27.2506459533
20
174.7148477752
7
STANDARD
40
3.5000000000
1
[
50
90.0000000000
41
0.4285714286
51
15.0000000000
72
0
100
AcDbText
0
TEXT
5
28C
100
AcDbEntity
8
ZEICHNUNGSBEMASSUNGEN
100
AcDbText
62
5
6
CONTINUOUS
10
27.2506459533
20
185.2148477752
7
STANDARD
40
3.5000000000
1
]
50
90.0000000000
41
0.4285714286
51
15.0000000000
72
0
100
AcDbText
0
LINE
5
28D
100
AcDbEntity
8
ZEICHNUNGSBEMASSUNGEN
100
AcDbLine
62
2
6
CONTINUOUS
10
43.1352514484
20
134.7117396338
11
26.6565126111
21
134.7117396338
0
LINE
5
28E
100
AcDbEntity
8
ZEICHNUNGSBEMASSUNGEN
100
AcDbLine
62
2
6
CONTINUOUS
10
43.1352514484
20
214.7117396338
11
26.6565126111
21
214.7117396338
0
LINE
5
28F
100
AcDbEntity
8
ZEICHNUNGSBEMASSUNGEN
100
AcDbLine
62
2
6
CONTINUOUS
10
28.1565126111
20
134.7117396338
11
28.1565126111
21
174.7117396338
0
LINE
5
290
100
AcDbEntity
8
ZEICHNUNGSBEMASSUNGEN
100
AcDbLine
62
2
6
CONTINUOUS
10
28.1565126111
20
214.7117396338
11
28.1565126111
21
174.7117396338
0
INSERT
5
291
100
AcDbEntity
8
ZEICHNUNGSBEMASSUNGEN
100
AcDbBlockReference
62
2
6
CONTINUOUS
2
_FILLED
10
28.1565126111
20
134.7117396338
41
  3.500000
42
  3.500000
43
  3.500000
50
270.000000
0
INSERT
5
292
100
AcDbEntity
8
ZEICHNUNGSBEMASSUNGEN
100
AcDbBlockReference
62
2
6
CONTINUOUS
2
_FILLED
10
28.1565126111
20
214.7117396338
41
  3.500000
42
  3.500000
43
  3.500000
50
 90.000000
0
ENDBLK
5
293
100
AcDbEntity
8
0
6
BYBLOCK
62
0
100
AcDbBlockEnd
0
BLOCK
5
294
100
AcDbEntity
8
ZEICHNUNGSBEMASSUNGEN
100
AcDbBlockBegin
62
2
6
CONTINUOUS
2
*D1
70
65
10
0.0000000000
20
0.0000000000
3
*D1
1

0
TEXT
5
295
100
AcDbEntity
8
ZEICHNUNGSBEMASSUNGEN
100
AcDbText
62
5
6
CONTINUOUS
10
48.6997382580
20
227.6177293464
7
STANDARD
40
3.5000000000
1
%%c
41
1.3333333333
51
15.0000000000
72
0
100
AcDbText
0
TEXT
5
296
100
AcDbEntity
8
ZEICHNUNGSBEMASSUNGEN
100
AcDbText
62
5
6
CONTINUOUS
10
53.3664049247
20
227.6177293464
7
STANDARD
40
3.5000000000
1
40
41
0.7857142857
51
15.0000000000
72
0
100
AcDbText
0
TEXT
5
297
100
AcDbEntity
8
ZEICHNUNGSBEMASSUNGEN
100
AcDbText
62
5
6
CONTINUOUS
10
63.8664049247
20
227.6177293464
7
STANDARD
40
3.5000000000
1
1.57
41
0.6607142857
51
15.0000000000
72
0
100
AcDbText
0
TEXT
5
298
100
AcDbEntity
8
ZEICHNUNGSBEMASSUNGEN
100
AcDbText
62
5
6
CONTINUOUS
10
62.3664049247
20
227.6177293464
7
STANDARD
40
3.5000000000
1
[
41
0.4285714286
51
15.0000000000
72
0
100
AcDbText
0
TEXT
5
299
100
AcDbEntity
8
ZEICHNUNGSBEMASSUNGEN
100
AcDbText
62
5
6
CONTINUOUS
10
73.1164049247
20
227.6177293464
7
STANDARD
40
3.5000000000
1
]
41
0.4285714286
51
15.0000000000
72
0
100
AcDbText
0
LINE
5
29A
100
AcDbEntity
8
ZEICHNUNGSBEMASSUNGEN
100
AcDbLine
62
2
6
CONTINUOUS
10
40.1352514484
20
211.7117396338
11
40.1352514484
21
228.2118626885
0
LINE
5
29B
100
AcDbEntity
8
ZEICHNUNGSBEMASSUNGEN
100
AcDbLine
62
2
6
CONTINUOUS
10
80.1352514484
20
211.7117396338
11
80.1352514484
21
228.2118626885
0
LINE
5
29C
100
AcDbEntity
8
ZEICHNUNGSBEMASSUNGEN
100
AcDbLine
62
2
6
CONTINUOUS
10
40.1352514484
20
226.7118626885
11
60.1352514484
21
226.7118626885
0
LINE
5
29D
100
AcDbEntity
8
ZEICHNUNGSBEMASSUNGEN
100
AcDbLine
62
2
6
CONTINUOUS
10
80.1352514484
20
226.7118626885
11
60.1352514484
21
226.7118626885
0
INSERT
5
29E
100
AcDbEntity
8
ZEICHNUNGSBEMASSUNGEN
100
AcDbBlockReference
62
2
6
CONTINUOUS
2
_FILLED
10
40.1352514484
20
226.7118626885
41
  3.500000
42
  3.500000
43
  3.500000
50
180.000000
0
INSERT
5
29F
100
AcDbEntity
8
ZEICHNUNGSBEMASSUNGEN
100
AcDbBlockReference
62
2
6
CONTINUOUS
2
_FILLED
10
80.1352514484
20
226.7118626885
41
  3.500000
42
  3.500000
43
  3.500000
0
ENDBLK
5
2A0
100
AcDbEntity
8
0
6
BYBLOCK
62
0
100
AcDbBlockEnd
0
BLOCK
5
2A1
100
AcDbEntity
8
0
100
AcDbBlockBegin
2
_FILLED
70
64
10
0.0000000000
20
0.0000000000
3
_FILLED
1

0
SOLID
5
2A2
100
AcDbEntity
8
0
6
BYBLOCK
62
0
100
AcDbTrace
10
0.0000000000
20
0.0000000000
11
-1.0000000000
21
0.1250000000
12
-1.0000000000
22
-0.1250000000
13
-1.0000000000
23
-0.1250000000
0
ENDBLK
5
2A3
100
AcDbEntity
8
0
6
BYBLOCK
62
0
100
AcDbBlockEnd
0
ENDSEC
0
SECTION
2
ENTITIES
0
TEXT
5
2A4
100
AcDbEntity
8
0
100
AcDbText
62
4
6
CONTINUOUS
10
126.0467415329
20
8.0442136272
7
STANDARD
40
2.4300000000
1
FL-9494 SCHAAN
41
0.7789115646
51
15.0000000000
72
0
100
AcDbText
0
INSERT
5
2A5
100
AcDbEntity
8
0
100
AcDbBlockReference
62
2
6
CONTINUOUS
2
NEUTRIK_LOGO_BL0
10
98.0245925022
20
9.2066660654
0
DIMENSION
5
2A6
100
AcDbEntity
8
ZEICHNUNGSBEMASSUNGEN
100
AcDbDimension
62
2
6
CONTINUOUS
2
*D0
10
28.1565126111
20
214.7117396338
11
25.5006459533
21
176.2148477752
70
160
3
DIMSTYLE_1
100
AcDbAlignedDimension
13
43.1352514484
23
134.7117396338
14
43.1352514484
24
214.7117396338
50
90.000000
100
AcDbRotatedDimension
0
DIMENSION
5
2A7
100
AcDbEntity
8
ZEICHNUNGSBEMASSUNGEN
100
AcDbDimension
62
2
6
CONTINUOUS
2
*D1
10
80.1352514484
20
226.7118626885
11
61.6580715913
21
229.3677293464
70
160
1
%%c<>
3
DIMSTYLE_1
100
AcDbAlignedDimension
13
40.1352514484
23
211.7117396338
14
80.1352514484
24
211.7117396338
100
AcDbRotatedDimension
0
LINE
5
2A8
100
AcDbEntity
8
0
100
AcDbLine
62
7
6
CONTINUOUS
10
72.0000000000
20
51.0000000000
11
205.0000000000
21
51.0000000000
0
LINE
5
2A9
100
AcDbEntity
8
0
100
AcDbLine
62
7
6
CONTINUOUS
10
72.0000000000
20
51.0000000000
11
72.0000000000
21
5.0000000000
0
LINE
5
2AA
100
AcDbEntity
8
0
100
AcDbLine
62
7
6
CONTINUOUS
10
154.0000000000
20
46.0000000000
11
205.0000000000
21
46.0000000000
0
LINE
5
2AB
100
AcDbEntity
8
0
100
AcDbLine
62
7
6
CONTINUOUS
10
72.0000000000
20
41.0000000000
11
113.0000000000
21
41.0000000000
0
LINE
5
2AC
100
AcDbEntity
8
0
100
AcDbLine
62
7
6
CONTINUOUS
10
154.0000000000
20
41.0000000000
11
205.0000000000
21
41.0000000000
0
LINE
5
2AD
100
AcDbEntity
8
0
100
AcDbLine
62
7
6
CONTINUOUS
10
154.0000000000
20
36.0000000000
11
205.0000000000
21
36.0000000000
0
LINE
5
2AE
100
AcDbEntity
8
0
100
AcDbLine
62
7
6
CONTINUOUS
10
72.0000000000
20
31.0000000000
11
205.0000000000
21
31.0000000000
0
LINE
5
2AF
100
AcDbEntity
8
0
100
AcDbLine
62
7
6
CONTINUOUS
10
154.0000000000
20
23.0000000000
11
205.0000000000
21
23.0000000000
0
LINE
5
2B0
100
AcDbEntity
8
0
100
AcDbLine
62
7
6
CONTINUOUS
10
72.0000000000
20
14.0000000000
11
205.0000000000
21
14.0000000000
0
LINE
5
2B1
100
AcDbEntity
8
0
100
AcDbLine
62
7
6
CONTINUOUS
10
72.0000000000
20
5.0000000000
11
205.0000000000
21
5.0000000000
0
LINE
5
2B2
100
AcDbEntity
8
0
100
AcDbLine
62
7
6
CONTINUOUS
10
113.0000000000
20
51.0000000000
11
113.0000000000
21
31.0000000000
0
LINE
5
2B3
100
AcDbEntity
8
0
100
AcDbLine
62
7
6
CONTINUOUS
10
136.0000000000
20
51.0000000000
11
136.0000000000
21
31.0000000000
0
LINE
5
2B4
100
AcDbEntity
8
0
100
AcDbLine
62
7
6
CONTINUOUS
10
154.0000000000
20
51.0000000000
11
154.0000000000
21
5.0000000000
0
LINE
5
2B5
100
AcDbEntity
8
0
100
AcDbLine
62
7
6
CONTINUOUS
10
173.0000000000
20
51.0000000000
11
173.0000000000
21
31.0000000000
0
LINE
5
2B6
100
AcDbEntity
8
0
100
AcDbLine
62
7
6
CONTINUOUS
10
188.0000000000
20
51.0000000000
11
188.0000000000
21
14.0000000000
0
LINE
5
2B7
100
AcDbEntity
8
0
100
AcDbLine
62
7
6
CONTINUOUS
10
205.0000000000
20
51.0000000000
11
205.0000000000
21
5.0000000000
0
TEXT
5
2B8
100
AcDbEntity
8
0
100
AcDbText
62
5
6
CONTINUOUS
10
72.0625000000
20
46.4658742812
7
STANDARD
40
1.8000000000
1
 Allgemeintoleranzen
41
0.6833333333
51
15.0000000000
72
0
100
AcDbText
0
TEXT
5
2B9
100
AcDbEntity
8
0
100
AcDbText
62
5
6
CONTINUOUS
10
72.0625000000
20
43.6706285941
7
STANDARD
40
1.8000000000
1
 ISO 2768-m
41
0.7792207792
51
15.0000000000
72
0
100
AcDbText
0
TEXT
5
2BA
100
AcDbEntity
8
0
100
AcDbText
62
5
6
CONTINUOUS
10
117.9285714286
20
47.4647238196
7
STANDARD
40
2.0000000000
1
Werkstoff
41
0.7301587302
51
15.0000000000
72
1
11
124.5000000000
21
47.4647238196
100
AcDbText
0
TEXT
5
2BB
100
AcDbEntity
8
0
100
AcDbText
62
5
6
CONTINUOUS
10
138.9285714286
20
47.4647238196
7
STANDARD
40
2.0000000000
1
Massstab:
41
0.6746031746
51
15.0000000000
72
1
11
145.0000000000
21
47.4647238196
100
AcDbText
0
TEXT
5
2BC
100
AcDbEntity
8
0
100
AcDbText
62
5
6
CONTINUOUS
10
176.6666666667
20
47.4647238196
7
STANDARD
40
2.0000000000
1
Datum
41
0.7666666667
51
15.0000000000
72
1
11
180.5000000000
21
47.4647238196
100
AcDbText
0
TEXT
5
2BD
100
AcDbEntity
8
0
100
AcDbText
62
5
6
CONTINUOUS
10
193.3571428571
20
47.4647238196
7
STANDARD
40
2.0000000000
1
Name
41
0.7857142857
51
15.0000000000
72
1
11
196.5000000000
21
47.4647238196
100
AcDbText
0
TEXT
5
2BE
100
AcDbEntity
8
0
100
AcDbText
62
5
6
CONTINUOUS
10
154.0625000000
20
42.4647238196
7
STANDARD
40
2.0000000000
1
 Gezeichnet
41
0.6904761905
51
15.0000000000
72
0
100
AcDbText
0
TEXT
5
2BF
100
AcDbEntity
8
0
100
AcDbText
62
5
6
CONTINUOUS
10
175.3571428571
20
42.4647238196
7
STANDARD
40
2.0000000000
1
15.11.06
41
0.6428571429
51
15.0000000000
72
1
11
180.5000000000
21
42.4647238196
100
AcDbText
0
TEXT
5
2C0
100
AcDbEntity
8
0
100
AcDbText
62
5
6
CONTINUOUS
10
192.5000000000
20
42.4647238196
7
STANDARD
40
2.0000000000
1
jutz b
41
0.6666666667
51
15.0000000000
72
1
11
196.5000000000
21
42.4647238196
100
AcDbText
0
TEXT
5
2C1
100
AcDbEntity
8
0
100
AcDbText
62
5
6
CONTINUOUS
10
72.0625000000
20
36.4658742812
7
STANDARD
40
1.8000000000
1
 Zeichnung urheberrechtlich
41
0.6790123457
51
15.0000000000
72
0
100
AcDbText
0
TEXT
5
2C2
100
AcDbEntity
8
0
100
AcDbText
62
5
6
CONTINUOUS
10
72.0625000000
20
33.6706285941
7
STANDARD
40
1.8000000000
1
 geschuetzt (DIN 34) (C)
41
0.6795634921
51
15.0000000000
72
0
100
AcDbText
0
TEXT
5
2C3
100
AcDbEntity
8
0
100
AcDbText
62
5
6
CONTINUOUS
10
122.4285714286
20
37.4647238196
7
STANDARD
40
2.0000000000
1
Alu
41
0.6904761905
51
15.0000000000
72
1
11
124.5000000000
21
37.4647238196
100
AcDbText
0
TEXT
5
2C4
100
AcDbEntity
8
0
100
AcDbText
62
5
6
CONTINUOUS
10
142.3750000000
20
37.2984083686
7
STANDARD
40
3.5000000000
1
1:1
41
0.5000000000
51
15.0000000000
72
1
11
145.0000000000
21
37.2984083686
100
AcDbText
0
TEXT
5
2C5
100
AcDbEntity
8
0
100
AcDbText
62
5
6
CONTINUOUS
10
154.0625000000
20
37.4647238196
7
STANDARD
40
2.0000000000
1
 Freigegeben
41
0.6984126984
51
15.0000000000
72
0
100
AcDbText
0
TEXT
5
2C6
100
AcDbEntity
8
0
100
AcDbText
62
5
6
CONTINUOUS
10
179.7857142857
20
37.4647238196
7
STANDARD
40
2.0000000000
1
-
41
0.7142857143
51
15.0000000000
72
1
11
180.5000000000
21
37.4647238196
100
AcDbText
0
TEXT
5
2C7
100
AcDbEntity
8
0
100
AcDbText
62
5
6
CONTINUOUS
10
195.7857142857
20
37.4647238196
7
STANDARD
40
2.0000000000
1
-
41
0.7142857143
51
15.0000000000
72
1
11
196.5000000000
21
37.4647238196
100
AcDbText
0
TEXT
5
2C8
100
AcDbEntity
8
0
100
AcDbText
62
5
6
CONTINUOUS
10
113.7428571429
20
32.5682514376
7
STANDARD
40
1.8000000000
1
nextel beschichtet
41
0.6640211640
51
15.0000000000
72
1
11
124.5000000000
21
32.5682514376
100
AcDbText
0
TEXT
5
2C9
100
AcDbEntity
8
0
100
AcDbText
62
5
6
CONTINUOUS
10
142.5000000000
20
32.4647238196
7
STANDARD
40
2.0000000000
1
(
41
0.4285714286
72
1
11
142.9285714286
21
32.4647238196
100
AcDbText
0
TEXT
5
2CA
100
AcDbEntity
8
0
100
AcDbText
62
5
6
CONTINUOUS
10
143.3571428571
20
32.4647238196
7
STANDARD
40
2.0000000000
1
A4
41
0.8214285714
51
15.0000000000
72
1
11
145.0000000000
21
32.4647238196
100
AcDbText
0
TEXT
5
2CB
100
AcDbEntity
8
0
100
AcDbText
62
5
6
CONTINUOUS
10
146.6428571429
20
32.4647238196
7
STANDARD
40
2.0000000000
1
)
41
0.4285714286
72
1
11
147.0714285714
21
32.4647238196
100
AcDbText
0
TEXT
5
2CC
100
AcDbEntity
8
0
100
AcDbText
62
5
6
CONTINUOUS
10
154.0625000000
20
32.4647238196
7
STANDARD
40
2.0000000000
1
 Geaendert
41
0.7071428571
51
15.0000000000
72
0
100
AcDbText
0
TEXT
5
2CD
100
AcDbEntity
8
0
100
AcDbText
62
5
6
CONTINUOUS
10
179.7857142857
20
32.4647238196
7
STANDARD
40
2.0000000000
1
-
41
0.7142857143
51
15.0000000000
72
1
11
180.5000000000
21
32.4647238196
100
AcDbText
0
TEXT
5
2CE
100
AcDbEntity
8
0
100
AcDbText
62
5
6
CONTINUOUS
10
195.7857142857
20
32.4647238196
7
STANDARD
40
2.0000000000
1
-
41
0.7142857143
51
15.0000000000
72
1
11
196.5000000000
21
32.4647238196
100
AcDbText
0
TEXT
5
2CF
100
AcDbEntity
8
0
100
AcDbText
62
5
6
CONTINUOUS
10
72.0625000000
20
28.0781250000
7
STANDARD
40
2.0000000000
1
 Benennung
41
0.7285714286
51
15.0000000000
72
0
100
AcDbText
0
TEXT
5
2D0
100
AcDbEntity
8
0
100
AcDbText
62
5
6
CONTINUOUS
10
154.0625000000
20
28.0352761804
7
STANDARD
40
2.0000000000
1
 Aend.-Nr.
41
0.7071428571
51
15.0000000000
72
0
100
AcDbText
0
TEXT
5
2D1
100
AcDbEntity
8
0
100
AcDbText
62
5
6
CONTINUOUS
10
154.0625000000
20
23.8941714588
7
STANDARD
40
2.0000000000
1
 
41
0.7857142857
51
15.0000000000
72
0
100
AcDbText
0
TEXT
5
2D2
100
AcDbEntity
8
0
100
AcDbText
62
5
6
CONTINUOUS
10
155.6339285714
20
23.8941714588
7
STANDARD
40
2.0000000000
1
-
41
0.7142857143
51
15.0000000000
72
0
100
AcDbText
0
TEXT
5
2D3
100
AcDbEntity
8
0
100
AcDbText
62
5
6
CONTINUOUS
10
188.7142857143
20
26.2235428647
7
STANDARD
40
2.0000000000
1
Aend.-Index
41
0.7077922078
51
15.0000000000
72
1
11
196.5000000000
21
26.2235428647
100
AcDbText
0
TEXT
5
2D4
100
AcDbEntity
8
0
100
AcDbText
62
5
6
CONTINUOUS
10
96.3750000000
20
23.6882666843
7
STANDARD
40
3.5000000000
1
Handtool HTXP
41
0.7307692308
51
15.0000000000
72
1
11
113.0000000000
21
23.6882666843
100
AcDbText
0
TEXT
5
2D5
100
AcDbEntity
8
0
100
AcDbText
62
5
6
CONTINUOUS
10
104.0357142857
20
15.9118095490
7
STANDARD
40
5.0000000000
1
HTXP
41
0.8214285714
51
15.0000000000
72
1
11
112.2500000000
21
15.9118095490
100
AcDbText
0
TEXT
5
2D6
100
AcDbEntity
8
0
100
AcDbText
62
5
6
CONTINUOUS
10
154.0625000000
20
17.4647238196
7
STANDARD
40
2.0000000000
1
 Ersatz fuer:
41
0.6648351648
51
15.0000000000
72
0
100
AcDbText
0
TEXT
5
2D7
100
AcDbEntity
8
0
100
AcDbText
62
5
6
CONTINUOUS
10
192.0000000000
20
19.5352761804
7
STANDARD
40
2.0000000000
1
Blatt 
41
0.6547619048
51
15.0000000000
72
1
11
195.9285714286
21
19.5352761804
100
AcDbText
0
TEXT
5
2D8
100
AcDbEntity
8
0
100
AcDbText
62
5
6
CONTINUOUS
10
199.8571428571
20
19.5352761804
7
STANDARD
40
2.0000000000
1
1
41
0.5714285714
51
15.0000000000
72
1
11
200.4285714286
21
19.5352761804
100
AcDbText
0
TEXT
5
2D9
100
AcDbEntity
8
0
100
AcDbText
62
5
6
CONTINUOUS
10
190.3571428571
20
15.3941714588
7
STANDARD
40
2.0000000000
1
von 
41
0.7321428571
51
15.0000000000
72
1
11
193.2857142857
21
15.3941714588
100
AcDbText
0
TEXT
5
2DA
100
AcDbEntity
8
0
100
AcDbText
62
5
6
CONTINUOUS
10
196.2142857143
20
15.3941714588
7
STANDARD
40
2.0000000000
1
1
41
0.5714285714
51
15.0000000000
72
1
11
196.7857142857
21
15.3941714588
100
AcDbText
0
TEXT
5
2DB
100
AcDbEntity
8
0
100
AcDbText
62
5
6
CONTINUOUS
10
197.3571428571
20
15.3941714588
7
STANDARD
40
2.0000000000
1
 Bl.
41
0.6607142857
51
15.0000000000
72
1
11
200.0000000000
21
15.3941714588
100
AcDbText
0
TEXT
5
2DC
100
AcDbEntity
8
0
100
AcDbText
62
5
6
CONTINUOUS
10
154.0625000000
20
11.4647238196
7
STANDARD
40
2.0000000000
1
 Zeichn. Nr.
41
0.6865079365
51
15.0000000000
72
0
100
AcDbText
0
TEXT
5
2DD
100
AcDbEntity
8
0
100
AcDbText
62
5
6
CONTINUOUS
10
170.6250000000
20
6.1882666843
7
STANDARD
40
3.5000000000
1
ST-HTXP
41
0.8061224490
51
15.0000000000
72
1
11
180.5000000000
21
6.1882666843
100
AcDbText
0
TEXT
5
2DE
100
AcDbEntity
8
0
100
AcDbText
62
5
6
CONTINUOUS
10
156.2171125347
20
168.4230269980
7
TEXTSTYLE_1
40
5.0000000000
1
BXX
41
1.0000000000
51
15.0000000000
72
0
100
AcDbText
0
TEXT
5
2DF
100
AcDbEntity
8
0
100
AcDbText
62
5
6
CONTINUOUS
10
157.4379004898
20
259.1553101128
7
TEXTSTYLE_1
40
5.0000000000
1
BPX
41
1.0000000000
51
15.0000000000
72
0
100
AcDbText
0
LINE
5
2E0
100
AcDbEntity
8
0
100
AcDbLine
62
7
6
CONTINUOUS
10
0.0000000000
20
0.0000000000
11
210.0000000000
21
0.0000000000
0
LINE
5
2E1
100
AcDbEntity
8
0
100
AcDbLine
62
7
6
CONTINUOUS
10
5.0000000000
20
5.0000000000
11
205.0000000000
21
5.0000000000
0
LINE
5
2E2
100
AcDbEntity
8
0
100
AcDbLine
62
7
6
CONTINUOUS
10
0.0000000000
20
0.0000000000
11
0.0000000000
21
297.0000000000
0
LINE
5
2E3
100
AcDbEntity
8
0
100
AcDbLine
62
7
6
CONTINUOUS
10
5.0000000000
20
5.0000000000
11
5.0000000000
21
292.0000000000
0
LINE
5
2E4
100
AcDbEntity
8
0
100
AcDbLine
62
7
6
CONTINUOUS
10
205.0000000000
20
5.0000000000
11
205.0000000000
21
292.0000000000
0
LINE
5
2E5
100
AcDbEntity
8
0
100
AcDbLine
62
7
6
CONTINUOUS
10
210.0000000000
20
0.0000000000
11
210.0000000000
21
297.0000000000
0
LINE
5
2E6
100
AcDbEntity
8
0
100
AcDbLine
62
7
6
CONTINUOUS
10
5.0000000000
20
292.0000000000
11
205.0000000000
21
292.0000000000
0
LINE
5
2E7
100
AcDbEntity
8
0
100
AcDbLine
62
7
6
CONTINUOUS
10
0.0000000000
20
297.0000000000
11
210.0000000000
21
297.0000000000
0
LWPOLYLINE
5
2E8
100
AcDbEntity
8
0
100
AcDbPolyline
62
9
6
CONTINUOUS
90
33
70
0
10
148.9528312052
20
150.8885458212
10
148.1390297376
20
149.9254413619
10
147.4065691396
20
148.9306577870
10
146.7608835136
20
147.9102358446
10
146.2051966336
20
146.8707886780
10
145.7438656056
20
145.8186996568
10
145.3789245366
20
144.7606988501
10
145.1136095214
20
143.7034168176
10
144.9486717024
20
142.6535354571
10
144.8861330355
20
141.6178147767
10
144.9254171756
20
140.6026510053
10
145.0672401977
20
139.6147161411
10
145.3097467967
20
138.6599428853
10
145.6523528618
20
137.7446892427
10
146.0919608855
20
136.8743513007
10
146.6266970883
20
136.0548872799
10
147.2523061748
20
135.2909687857
10
147.9656799106
20
134.5879695786
10
148.7615033327
20
133.9497414139
10
149.6354993816
20
133.3809538616
10
150.5814461134
20
132.8845272368
10
151.5940385216
20
132.4642933912
10
152.6662487352
20
132.1221872840
10
153.7917722910
20
131.8611311103
10
154.9631339591
20
131.6819950144
10
156.1735150147
20
131.5866892664
10
157.4146414783
20
131.5750156844
10
158.6784582504
20
131.6477970164
10
159.9574899662
20
131.8038807425
10
161.2453653849
20
132.0435192862
10
162.5307170355
20
132.3633205650
10
163.7983672977
20
132.7595631449
10
165.0533753784
20
133.2334875039
0
LINE
5
2E9
100
AcDbEntity
8
0
100
AcDbLine
62
7
6
CONTINUOUS
10
144.0354810691
20
134.2103135515
11
149.5609591652
21
122.9505730380
0
LWPOLYLINE
5
2EA
100
AcDbEntity
8
0
100
AcDbPolyline
62
7
6
CONTINUOUS
90
41
70
0
10
144.0354810691
20
134.2103135515
10
143.5718973398
20
135.2863761140
10
143.2123457440
20
136.4172156932
10
142.9621375069
20
137.5966538001
10
142.8260275604
20
138.8160551058
10
142.8073035616
20
140.0665682571
10
142.9080888733
20
141.3408369805
10
143.1303250610
20
142.6337935133
10
143.4730012357
20
143.9301030236
10
143.9309561655
20
145.2128754006
10
144.5038890320
20
146.4833449822
10
145.1940110333
20
147.7425040028
10
145.9938830463
20
148.9735189234
10
146.8943003724
20
150.1629077167
10
147.8896725192
20
151.3048828853
10
148.9720383242
20
152.3916961112
10
150.1346728505
20
153.4178618503
10
151.3704707462
20
154.3779703465
10
152.6702151865
20
155.2656556898
10
154.0236363971
20
156.0749499139
10
155.4238811384
20
156.8026450375
10
156.8631784151
20
157.4451321387
10
158.3336471775
20
157.9990089014
10
159.8286022048
20
158.4614555782
10
161.3364092123
20
158.8285254844
10
162.8454906654
20
159.0974692743
10
164.3487462803
20
159.2670592018
10
165.8393466612
20
159.3360795318
10
167.3056698258
20
159.3035276092
10
168.7388404723
20
159.1693633194
10
170.1256412594
20
158.9350932372
10
171.4507542725
20
158.6050396442
10
172.7163602125
20
158.1802788985
10
173.9236361171
20
157.6597309878
10
175.0572933032
20
157.0491906631
10
176.1052493417
20
156.3566684673
10
177.0656385020
20
155.5855702110
10
177.9345171098
20
154.7405463338
10
178.7066047294
20
153.8283731876
10
179.3776733288
20
152.8564001566
10
179.9447472075
20
151.8320219079
0
LINE
5
2EB
100
AcDbEntity
8
0
100
AcDbLine
62
7
6
CONTINUOUS
10
176.8670724216
20
117.8208602560
11
176.9237518248
21
117.8235291534
0
LINE
5
2EC
100
AcDbEntity
8
0
100
AcDbLine
62
7
6
CONTINUOUS
10
176.9237518248
20
117.8235291534
11
177.3306704142
21
117.8038099609
0
LINE
5
2ED
100
AcDbEntity
8
0
100
AcDbLine
62
2
6
CONTINUOUS
10
167.9369756480
20
119.3721425729
11
177.2432298467
21
117.7555164667
0
LINE
5
2EE
100
AcDbEntity
8
0
100
AcDbLine
62
2
6
CONTINUOUS
10
158.2691657918
20
122.9723429201
11
167.9369756480
21
119.3721425729
0
LINE
5
2EF
100
AcDbEntity
8
0
100
AcDbLine
62
2
6
CONTINUOUS
10
149.5609591652
20
122.9505730380
11
158.2691657918
21
122.9723429201
0
LWPOLYLINE
5
2F0
100
AcDbEntity
8
0
100
AcDbPolyline
62
7
6
CONTINUOUS
90
43
70
0
10
154.7656867663
20
144.7279345921
10
154.7527279178
20
144.6772056696
10
154.7414428285
20
144.6250794063
10
154.7318003930
20
144.5717516862
10
154.7238721539
20
144.5166733402
10
154.7176895519
20
144.4595926541
10
154.7133983997
20
144.3998206550
10
154.7110942273
20
144.3367442584
10
154.7110464713
20
144.2699011697
10
154.7134434203
20
144.1987749048
10
154.7186748208
20
144.1229356107
10
154.7270924497
20
144.0418564732
10
154.7390083285
20
143.9553339417
10
154.7548192785
20
143.8628160707
10
154.7745981724
20
143.7648373434
10
154.7985389254
20
143.6616320561
10
154.8265641689
20
143.5535358185
10
154.8586798031
20
143.4407960919
10
154.8947553868
20
143.3238932476
10
154.9347664809
20
143.2031356364
10
154.9783209466
20
143.0792575232
10
155.0250662765
20
142.9531025117
10
155.0748006653
20
142.8246138807
10
155.1272395138
20
142.6939947900
10
155.1823231286
20
142.5613089818
10
155.2398735553
20
142.4268078348
10
155.2999738788
20
142.2901280568
10
155.3625563127
20
142.1512584163
10
155.4279417477
20
142.0094113863
10
155.4963649746
20
141.8640014897
10
155.5680922873
20
141.7144538068
10
155.6433986125
20
141.5601677440
10
155.7225620977
20
141.4006810939
10
155.8059247620
20
141.2353951245
10
155.8936190154
20
141.0641614530
10
155.9858654339
20
140.8866676444
10
156.0827694591
20
140.7028390139
10
156.1844683295
20
140.5125524798
10
156.2911041944
20
140.3156675235
10
156.4028178494
20
140.1120585387
10
156.5197718988
20
139.9015902415
10
156.6421823111
20
139.6840364059
10
156.8295526015
20
139.3560291437
0
LWPOLYLINE
5
2F1
100
AcDbEntity
8
0
100
AcDbPolyline
62
7
6
CONTINUOUS
90
5
70
0
10
154.7656867663
20
144.7279345921
10
154.7879603608
20
144.8067059985
10
154.8116666171
20
144.8856508148
10
154.8368055352
20
144.9647690410
10
154.8633771152
20
145.0440606770
0
LWPOLYLINE
5
2F2
100
AcDbEntity
8
0
100
AcDbPolyline
62
9
6
CONTINUOUS
90
27
70
0
10
161.5496773517
20
151.3463751388
10
161.4403203485
20
151.2637828789
10
161.3366146840
20
151.1654083223
10
161.2429475501
20
151.0529696241
10
161.1614124010
20
150.9293180399
10
161.0926620268
20
150.7973565644
10
161.0351097198
20
150.6587150408
10
160.9870049467
20
150.5140436896
10
160.9467727666
20
150.3642148906
10
160.9135537663
20
150.2096329359
10
160.8864787766
20
150.0499400939
10
160.8643787737
20
149.8847956287
10
160.8463255059
20
149.7144285314
10
160.8320764912
20
149.5388334229
10
160.8213247224
20
149.3577037614
10
160.8137480808
20
149.1708603133
10
160.8090856251
20
148.9779570229
10
160.8070052506
20
148.7786543994
10
160.8073147828
20
148.5727754276
10
160.8099250817
20
148.3601497473
10
160.8147180775
20
148.1404412523
10
160.8216450855
20
147.9133822200
10
160.8306547004
20
147.6786851387
10
160.8416615277
20
147.4360694824
10
160.8546481651
20
147.1852251336
10
160.8696444168
20
146.9257181764
10
160.8866223475
20
146.6576949672
0
LWPOLYLINE
5
2F3
100
AcDbEntity
8
0
100
AcDbPolyline
62
9
6
CONTINUOUS
90
28
70
0
10
153.0787420241
20
143.5918343632
10
152.6659907787
20
143.2887199802
10
152.2887339977
20
142.9592696261
10
151.9442506259
20
142.6006707963
10
151.6407038295
20
142.2213610043
10
151.3848461375
20
141.8273189394
10
151.1781884060
20
141.4231085704
10
151.0241540274
20
141.0135352627
10
150.9237579217
20
140.6038535161
10
150.8793177435
20
140.1992392946
10
150.8903486812
20
139.8047335707
10
150.9577689534
20
139.4256404354
10
151.0796871249
20
139.0663464973
10
151.2555859728
20
138.7317569050
10
151.4822610787
20
138.4256201304
10
151.7577905466
20
138.1523851162
10
152.0778095865
20
137.9148555988
10
152.4390572183
20
137.7167419579
10
152.8363001159
20
137.5597732056
10
153.2652337155
20
137.4467107904
10
153.7198107498
20
137.3781677841
10
154.1946406993
20
137.3558813307
10
154.6834487571
20
137.3792406621
10
155.1802165251
20
137.4487635761
10
155.6787842582
20
137.5628015192
10
156.1737590868
20
137.7212690346
10
156.6568219873
20
137.9199946303
10
157.1165917319
20
138.1542533317
0
LINE
5
2F4
100
AcDbEntity
8
0
100
AcDbLine
62
9
6
CONTINUOUS
10
153.0787420241
20
143.5918343632
11
154.7656867663
21
144.7279345921
0
LINE
5
2F5
100
AcDbEntity
8
0
100
AcDbLine
62
9
6
CONTINUOUS
10
162.9061702713
20
150.2102749098
11
164.5931150135
21
151.3463751388
0
LWPOLYLINE
5
2F6
100
AcDbEntity
8
0
100
AcDbPolyline
62
9
6
CONTINUOUS
90
29
70
0
10
164.5931150135
20
151.3463751388
10
165.0395951259
20
151.6207787594
10
165.5027410807
20
151.8564066583
10
165.9856125797
20
152.0543711857
10
166.4790305175
20
152.2113352909
10
166.9769309880
20
152.3245324014
10
167.4730280949
20
152.3933634327
10
167.9609907282
20
152.4161169505
10
168.4348906239
20
152.3933634327
10
168.8884469359
20
152.3245324014
10
169.3163863007
20
152.2113352909
10
169.7127930842
20
152.0543711857
10
170.0733132515
20
151.8564066583
10
170.3926930150
20
151.6191803151
10
170.6677159981
20
151.3463751388
10
170.8940537068
20
151.0407820768
10
171.0697887050
20
150.7068158422
10
171.1917348409
20
150.3481797737
10
171.2593697676
20
149.9697989425
10
171.2708094424
20
149.5761033774
10
171.2269527998
20
149.1722815443
10
171.1273123804
20
148.7632680223
10
170.9741633239
20
148.3542545003
10
170.7684391969
20
147.9504326673
10
170.5136772596
20
147.5567371022
10
170.2121852918
20
147.1783562710
10
169.8685853010
20
146.8197202024
10
169.4889424631
20
146.4877583538
10
169.0712350527
20
146.1801609059
0
LINE
5
2F7
100
AcDbEntity
8
0
100
AcDbLine
62
9
6
CONTINUOUS
10
153.9622982298
20
142.2953993183
11
154.1659296357
21
141.9598877559
0
LINE
5
2F8
100
AcDbEntity
8
0
100
AcDbLine
62
9
6
CONTINUOUS
10
154.1659296357
20
141.9598877559
11
154.3790681599
21
141.6031629859
0
LINE
5
2F9
100
AcDbEntity
8
0
100
AcDbLine
62
9
6
CONTINUOUS
10
154.3790681599
20
141.6031629859
11
154.7200433234
21
141.0241136239
0
LINE
5
2FA
100
AcDbEntity
8
0
100
AcDbLine
62
7
6
CONTINUOUS
10
157.0240666446
20
139.0209324822
11
157.2819459603
21
138.5826471327
0
LINE
5
2FB
100
AcDbEntity
8
0
100
AcDbLine
62
9
6
CONTINUOUS
10
154.7200433234
20
141.0241136239
11
155.2227015340
21
140.1588414444
0
LINE
5
2FC
100
AcDbEntity
8
0
100
AcDbLine
62
7
6
CONTINUOUS
10
156.8295526015
20
139.3560291437
11
157.0240666446
21
139.0209324822
0
LINE
5
2FD
100
AcDbEntity
8
0
100
AcDbLine
62
9
6
CONTINUOUS
10
155.2227015340
20
140.1588414444
11
156.3959820752
21
138.1130044869
0
LINE
5
2FE
100
AcDbEntity
8
0
100
AcDbLine
62
9
6
CONTINUOUS
10
160.8866223475
20
146.6576949672
11
160.9154729507
21
146.2285710793
0
LWPOLYLINE
5
2FF
100
AcDbEntity
8
0
100
AcDbPolyline
62
9
6
CONTINUOUS
90
18
70
0
10
160.9154729507
20
146.2285710793
10
160.9284297434
20
146.0131816489
10
160.9393518280
20
145.8055787691
10
160.9480499894
20
145.6052466174
10
160.9541780594
20
145.4117546711
10
160.9573738447
20
145.2247312372
10
160.9571572110
20
145.0436952184
10
160.9527488019
20
144.8683768291
10
160.9431015579
20
144.6982032210
10
160.9270255142
20
144.5333742833
10
160.9032606249
20
144.3744320157
10
160.8692749015
20
144.2207855163
10
160.8229987786
20
144.0730091701
10
160.7612113209
20
143.9302394372
10
160.6816474098
20
143.7942233124
10
160.5820642473
20
143.6659232592
10
160.4615420664
20
143.5470793852
10
160.3249613866
20
143.4429660477
0
LWPOLYLINE
5
300
100
AcDbEntity
8
0
100
AcDbPolyline
62
9
6
CONTINUOUS
90
6
70
0
10
156.0615496335
20
138.6970897177
10
155.8319860723
20
138.5208339518
10
155.6300773067
20
138.3237737477
10
155.4606727554
20
138.1107948281
10
155.3281101775
20
137.8868206138
10
155.2849176577
20
137.7792597088
0
LWPOLYLINE
5
301
100
AcDbEntity
8
0
100
AcDbPolyline
62
9
6
CONTINUOUS
90
7
70
0
10
155.9438366361
20
138.9031541917
10
155.7038700178
20
138.7204309239
10
155.4929237710
20
138.5155440554
10
155.3161920922
20
138.2935385808
10
155.1780267021
20
138.0598810118
10
155.0818296909
20
137.8203247732
10
155.0658920864
20
137.7467043174
0
LINE
5
302
100
AcDbEntity
8
0
100
AcDbLine
62
9
6
CONTINUOUS
10
167.5759226228
20
146.4516304933
11
166.7498944062
21
145.8930835826
0
LINE
5
303
100
AcDbEntity
8
0
100
AcDbLine
62
9
6
CONTINUOUS
10
167.4582096254
20
146.6576949672
11
166.6319992950
21
146.1012702533
0
LINE
5
304
100
AcDbEntity
8
0
100
AcDbLine
62
9
6
CONTINUOUS
10
156.7700469665
20
139.4595789056
11
155.9438366361
21
138.9031541917
0
LINE
5
305
100
AcDbEntity
8
0
100
AcDbLine
62
9
6
CONTINUOUS
10
156.8894292001
20
139.2523937615
11
156.0615496335
21
138.6970897177
0
LWPOLYLINE
5
306
100
AcDbEntity
8
0
100
AcDbPolyline
62
9
6
CONTINUOUS
90
20
70
0
10
160.3249613866
20
143.4429660477
10
160.1931342192
20
143.3641377955
10
160.0600031005
20
143.3049707398
10
159.9303625942
20
143.2671164910
10
159.8040887113
20
143.2488014286
10
159.6805685440
20
143.2484537704
10
159.5605478234
20
143.2639974895
10
159.4427349934
20
143.2932403337
10
159.3264422442
20
143.3342514175
10
159.2101390043
20
143.3857538594
10
159.0935396029
20
143.4457707157
10
158.9761077633
20
143.5134424031
10
158.8574771282
20
143.5878555536
10
158.7374633422
20
143.6681290739
10
158.6153078950
20
143.7538420133
10
158.4906092767
20
143.8447629481
10
158.3629431473
20
143.9407473390
10
158.2319666463
20
144.0417131411
10
158.0973014826
20
144.1475752799
10
157.9586051073
20
144.2584493706
0
LWPOLYLINE
5
307
100
AcDbEntity
8
0
100
AcDbPolyline
62
9
6
CONTINUOUS
90
11
70
0
10
153.0787420241
20
143.5918343632
10
153.1478055803
20
143.5092421033
10
153.2250124874
20
143.4108675468
10
153.3085239291
20
143.2984288485
10
153.3962758382
20
143.1747772643
10
153.4864481746
20
143.0428157888
10
153.5783909244
20
142.9041742652
10
153.6720575024
20
142.7595029141
10
153.7672381238
20
142.6096741150
10
153.8638602243
20
142.4550921604
10
153.9622982298
20
142.2953993183
0
LINE
5
308
100
AcDbEntity
8
0
100
AcDbLine
62
7
6
CONTINUOUS
10
161.3724296443
20
146.0493873231
11
161.3993395719
21
145.6689081401
0
LWPOLYLINE
5
309
100
AcDbEntity
8
0
100
AcDbPolyline
62
7
6
CONTINUOUS
90
35
70
0
10
161.3993395719
20
145.6689081401
10
161.4134300145
20
145.4517121470
10
161.4258313531
20
145.2416226850
10
161.4360437488
20
145.0383049795
10
161.4438506120
20
144.8415028673
10
161.4485780312
20
144.6510453179
10
161.4499390906
20
144.4667157191
10
161.4466475686
20
144.2882949869
10
161.4380835760
20
144.1155640053
10
161.4221244383
20
143.9481167306
10
161.3976865303
20
143.7850274162
10
161.3613384937
20
143.6272591679
10
161.3103190498
20
143.4746465905
10
161.2419942883
20
143.3289467455
10
161.1509892304
20
143.1899701865
10
161.0432585619
20
143.0625045280
10
160.9213535234
20
142.9520432339
10
160.7889725867
20
142.8574576918
10
160.6492009866
20
142.7784515199
10
160.5055349411
20
142.7192399622
10
160.3611255358
20
142.6853979794
10
160.2186532615
20
142.6740462530
10
160.0827471666
20
142.6858672401
10
159.9504041570
20
142.7163473671
10
159.8210132943
20
142.7615669397
10
159.6928982878
20
142.8196926494
10
159.5646336224
20
142.8875625689
10
159.4354192616
20
142.9646971505
10
159.3041569921
20
143.0496636891
10
159.1705721862
20
143.1418790622
10
159.0341624411
20
143.2402845749
10
158.8946462450
20
143.3447280041
10
158.7516676139
20
143.4547118569
10
158.6050211038
20
143.5701247768
10
158.4543577824
20
143.6906506849
0
LINE
5
30A
100
AcDbEntity
8
0
100
AcDbLine
62
9
6
CONTINUOUS
10
157.3162672955
20
138.6074837165
11
157.3163049347
21
138.6075091066
0
LINE
5
30B
100
AcDbEntity
8
0
100
AcDbLine
62
7
6
CONTINUOUS
10
168.8306779240
20
146.3620498822
11
167.5988808871
21
145.5324762390
0
LINE
5
30C
100
AcDbEntity
8
0
100
AcDbLine
62
7
6
CONTINUOUS
10
158.5481019716
20
139.4370827498
11
157.3163049347
21
138.6075091066
0
LINE
5
30D
100
AcDbEntity
8
0
100
AcDbLine
62
9
6
CONTINUOUS
10
157.5568620633
20
138.4256201304
11
159.2438068055
21
139.5617203593
0
LINE
5
30E
100
AcDbEntity
8
0
100
AcDbLine
62
9
6
CONTINUOUS
10
167.3842903105
20
145.0440606770
11
169.0712350527
21
146.1801609059
0
LWPOLYLINE
5
30F
100
AcDbEntity
8
0
100
AcDbPolyline
62
7
6
CONTINUOUS
90
18
70
0
10
157.3162672955
20
138.6074837165
10
157.1950949581
20
138.5282578663
10
156.8806905646
20
138.3433324260
10
156.5570545840
20
138.1809870305
10
156.2311566551
20
138.0434379831
10
155.9089709188
20
137.9313230028
10
155.5965256865
20
137.8443931850
10
155.2994911561
20
137.7814258757
10
155.0219331805
20
137.7401703800
10
154.7680015919
20
137.7178870012
10
154.5389266407
20
137.7112585605
10
154.3368385333
20
137.7169521743
10
154.1604474253
20
137.7317977460
10
154.0085682628
20
137.7530278757
10
153.8813020326
20
137.7778656855
10
153.7752982532
20
137.8045306970
10
153.7001592618
20
137.8277140536
10
153.6667232861
20
137.8396530205
0
LINE
5
310
100
AcDbEntity
8
0
100
AcDbLine
62
9
6
CONTINUOUS
10
157.1165917319
20
138.1542533317
11
157.5568620633
21
138.4256201304
0
LWPOLYLINE
5
311
100
AcDbEntity
8
0
100
AcDbPolyline
62
7
6
CONTINUOUS
90
9
70
0
10
158.5481593706
20
139.4370493864
10
158.5926083106
20
139.4640894870
10
158.6556639951
20
139.4932191959
10
158.7300313695
20
139.5178696375
10
158.8149247334
20
139.5374740276
10
158.9111698727
20
139.5511998211
10
159.0160288171
20
139.5597316103
10
159.1266179653
20
139.5632147776
10
159.2438068055
20
139.5617203593
0
LWPOLYLINE
5
312
100
AcDbEntity
8
0
100
AcDbPolyline
62
9
6
CONTINUOUS
90
10
70
0
10
157.3163049347
20
138.6075091066
10
157.3256213839
20
138.6116722154
10
157.3395524729
20
138.6124014944
10
157.3569528620
20
138.6077377816
10
157.3786616109
20
138.5966488124
10
157.4050114981
20
138.5783026738
10
157.4362580600
20
138.5520422989
10
157.4723767251
20
138.5174699060
10
157.5128065939
20
138.4750478350
10
157.5568620633
20
138.4256201304
0
LINE
5
313
100
AcDbEntity
8
0
100
AcDbLine
62
9
6
CONTINUOUS
10
175.2915784237
20
134.9570954234
11
174.3990613670
21
134.8666801308
0
LINE
5
314
100
AcDbEntity
8
0
100
AcDbLine
62
7
6
CONTINUOUS
10
165.0533804981
20
133.2334815975
11
165.7298787462
21
133.1928530784
0
LINE
5
315
100
AcDbEntity
8
0
100
AcDbLine
62
7
6
CONTINUOUS
10
165.0533753784
20
133.2334875039
11
159.5688944537
21
139.5606969501
0
LINE
5
316
100
AcDbEntity
8
0
100
AcDbLine
62
9
6
CONTINUOUS
10
153.8785954216
20
146.1801609059
11
154.8633771152
21
145.0440606770
0
LINE
5
317
100
AcDbEntity
8
0
100
AcDbLine
62
7
6
CONTINUOUS
10
165.7298787462
20
133.1928530784
11
160.4557254487
21
139.2774165991
0
LWPOLYLINE
5
318
100
AcDbEntity
8
0
100
AcDbPolyline
62
7
6
CONTINUOUS
90
15
70
0
10
167.3213938802
20
129.5894456966
10
167.2138563957
20
129.8026014962
10
167.0903770608
20
130.0359151133
10
166.9522333905
20
130.2871676487
10
166.8010084989
20
130.5532794777
10
166.6383766264
20
130.8309697056
10
166.4666381893
20
131.1165798048
10
166.2881106983
20
131.4060963525
10
166.1052088778
20
131.6959164261
10
165.9202926837
20
131.9821885935
10
165.7359808662
20
132.2612061225
10
165.5546312086
20
132.5292034702
10
165.3788869942
20
132.7827692015
10
165.2113858483
20
133.0186372880
10
165.0533804981
20
133.2334815975
0
LINE
5
319
100
AcDbEntity
8
0
100
AcDbLine
62
7
6
CONTINUOUS
10
172.7452021045
20
118.5368865990
11
167.3213938802
21
129.5894456966
0
LWPOLYLINE
5
31A
100
AcDbEntity
8
0
100
AcDbPolyline
62
7
6
CONTINUOUS
90
7
70
0
10
167.3648566360
20
144.9750726508
10
167.4219660338
20
145.1767522240
10
167.4592284020
20
145.2901752875
10
167.4968959010
20
145.3848370607
10
167.5340559103
20
145.4585154697
10
167.5706010134
20
145.5076834402
10
167.5989184580
20
145.5320986969
0
LWPOLYLINE
5
31B
100
AcDbEntity
8
0
100
AcDbPolyline
62
7
6
CONTINUOUS
90
4
70
0
10
167.3648566360
20
144.9750726508
10
167.3443259362
20
144.9059527268
10
167.3226982111
20
144.8367009049
10
167.2999734608
20
144.7673171851
0
LINE
5
31C
100
AcDbEntity
8
0
100
AcDbLine
62
9
6
CONTINUOUS
10
158.2997978433
20
143.8163484963
11
157.8159106798
21
144.3742041441
0
LINE
5
31D
100
AcDbEntity
8
0
100
AcDbLine
62
9
6
CONTINUOUS
10
158.1532456285
20
143.9356114164
11
157.6709317814
21
144.4920361303
0
LWPOLYLINE
5
31E
100
AcDbEntity
8
0
100
AcDbPolyline
62
7
6
CONTINUOUS
90
15
70
0
10
167.6549286161
20
130.3247348194
10
167.5679324105
20
130.4958083098
10
167.4680322234
20
130.6806128769
10
167.3545537270
20
130.8804033773
10
167.2295199045
20
131.0914152409
10
167.0940511164
20
131.3113765887
10
166.9501809036
20
131.5370642038
10
166.7996299812
20
131.7655037868
10
166.6444571878
20
131.9936767050
10
166.4865887939
20
132.2185404360
10
166.3281432193
20
132.4371923497
10
166.1711982225
20
132.6465746359
10
166.0178020579
20
132.8441103122
10
165.8710381708
20
133.0257535949
10
165.7298787462
20
133.1928530784
0
LINE
5
31F
100
AcDbEntity
8
0
100
AcDbLine
62
7
6
CONTINUOUS
10
173.5042723559
20
118.4050255131
11
167.6549286161
21
130.3247348194
0
LWPOLYLINE
5
320
100
AcDbEntity
8
0
100
AcDbPolyline
62
7
6
CONTINUOUS
90
5
70
0
10
167.1998581996
20
143.8193619105
10
167.2310014057
20
144.0632027422
10
167.2580683512
20
144.3024755652
10
167.2810590363
20
144.5371803795
10
167.2999734608
20
144.7673171851
0
LWPOLYLINE
5
321
100
AcDbEntity
8
0
100
AcDbPolyline
62
7
6
CONTINUOUS
90
5
70
0
10
159.5688944537
20
139.5606969501
10
159.7856349158
20
139.4874544052
10
160.0056869023
20
139.4158268318
10
160.2290504133
20
139.3458142298
10
160.4557254487
20
139.2774165991
0
LWPOLYLINE
5
322
100
AcDbEntity
8
0
100
AcDbPolyline
62
7
6
CONTINUOUS
90
32
70
0
10
157.9755869475
20
144.0784039510
10
157.8044824622
20
144.2137554544
10
157.6400604233
20
144.3416981128
10
157.4819372818
20
144.4625441657
10
157.3298545390
20
144.5765484143
10
157.1835679300
20
144.6838561781
10
157.0428298056
20
144.7846232315
10
156.9074046145
20
144.8790186004
10
156.7770522179
20
144.9672147233
10
156.6515536046
20
145.0493112550
10
156.5307003864
20
145.1254666055
10
156.4142416535
20
145.1956364446
10
156.3019512887
20
145.2598241071
10
156.1935883279
20
145.3180011966
10
156.0888263471
20
145.3701705326
10
155.9877466557
20
145.4162025056
10
155.8902712041
20
145.4561033206
10
155.7965772699
20
145.4894586907
10
155.7068324541
20
145.5159816097
10
155.6210208012
20
145.5352964815
10
155.5393062679
20
145.5469031314
10
155.4613835478
20
145.5508790648
10
155.3873170327
20
145.5474754028
10
155.3162496273
20
145.5356512304
10
155.2474776606
20
145.5150128432
10
155.1809822238
20
145.4837906923
10
155.1161225121
20
145.4400261715
10
155.0546110355
20
145.3838604478
10
154.9975566497
20
145.3139681004
10
154.9460622969
20
145.2329389126
10
154.9014213927
20
145.1432033562
10
154.8633771152
20
145.0440606770
0
LWPOLYLINE
5
323
100
AcDbEntity
8
0
100
AcDbPolyline
62
9
6
CONTINUOUS
90
38
70
0
10
157.5149467197
20
144.6175688172
10
157.3638375694
20
144.7378220904
10
157.2177110880
20
144.8527276174
10
157.0763041528
20
144.9625302152
10
156.9394486286
20
145.0674102999
10
156.8069793124
20
145.1675068292
10
156.6787044425
20
145.2629409470
10
156.5544502513
20
145.3538444312
10
156.4340511051
20
145.4403653122
10
156.3173409968
20
145.5226382806
10
156.2041174621
20
145.6007858169
10
156.0942439921
20
145.6749069364
10
155.9875794201
20
145.7451211742
10
155.8839487690
20
145.8114815174
10
155.7831652530
20
145.8740111210
10
155.6850442719
20
145.9327791768
10
155.5894066667
20
145.9878777748
10
155.4960809517
20
146.0393493453
10
155.4048184364
20
146.0872885471
10
155.3156753979
20
146.1316734577
10
155.2286933708
20
146.1725361950
10
155.1437575084
20
146.2098088673
10
155.0607394144
20
146.2432533510
10
154.9795169813
20
146.2727411031
10
154.9000406178
20
146.2982250898
10
154.8222017571
20
146.3197621904
10
154.7461136767
20
146.3374021817
10
154.6711354033
20
146.3511573914
10
154.5968723842
20
146.3608137131
10
154.5224101517
20
146.3662129910
10
154.4469909778
20
146.3669422699
10
154.3698960320
20
146.3622785571
10
154.2898852338
20
146.3511895880
10
154.2077632524
20
146.3328434494
10
154.1242039885
20
146.3065830744
10
154.0405571405
20
146.2720106815
10
153.9583504430
20
146.2295886106
10
153.8785954216
20
146.1801609059
0
LINE
5
324
100
AcDbEntity
8
0
100
AcDbLine
62
7
6
CONTINUOUS
10
158.1897943628
20
143.9059892757
11
157.9755869475
21
144.0784039510
0
LINE
5
325
100
AcDbEntity
8
0
100
AcDbLine
62
9
6
CONTINUOUS
10
157.7434093326
20
144.4332635293
11
157.5149467197
21
144.6175688172
0
LINE
5
326
100
AcDbEntity
8
0
100
AcDbLine
62
9
6
CONTINUOUS
10
157.9586051073
20
144.2584493706
11
157.7434093326
21
144.4332635293
0
LINE
5
327
100
AcDbEntity
8
0
100
AcDbLine
62
7
6
CONTINUOUS
10
158.4543577824
20
143.6906506849
11
158.1897943628
21
143.9059892757
0
LINE
5
328
100
AcDbEntity
8
0
100
AcDbLine
62
9
6
CONTINUOUS
10
161.3689361946
20
146.1012702533
11
160.8866223475
21
146.6576949672
0
LINE
5
329
100
AcDbEntity
8
0
100
AcDbLine
62
9
6
CONTINUOUS
10
161.3834494880
20
145.8930835826
11
160.9005887458
21
146.4516304933
0
LWPOLYLINE
5
32A
100
AcDbEntity
8
0
100
AcDbPolyline
62
7
6
CONTINUOUS
90
16
70
0
10
170.3456615412
20
148.1130352733
10
170.3510942737
20
148.1368250302
10
170.3487564941
20
148.1293010436
10
170.3350658183
20
148.0879838233
10
170.3050467287
20
148.0097803599
10
170.2580035628
20
147.9045262052
10
170.1946396986
20
147.7814817745
10
170.1119085126
20
147.6407093380
10
170.0078394658
20
147.4846014138
10
169.8814293137
20
147.3165466603
10
169.7319685716
20
147.1398150317
10
169.5597658576
20
146.9583386935
10
169.3659357313
20
146.7761187494
10
169.1505790379
20
146.5956248017
10
168.9146694009
20
146.4198030890
10
168.8306936793
20
146.3620604856
0
LWPOLYLINE
5
32B
100
AcDbEntity
8
0
100
AcDbPolyline
62
7
6
CONTINUOUS
90
5
70
0
10
159.5688944537
20
139.5606969501
10
159.4869736994
20
139.5596053318
10
159.4054855067
20
139.5594120272
10
159.3244298753
20
139.5601170364
10
159.2438068055
20
139.5617203593
0
LWPOLYLINE
5
32C
100
AcDbEntity
8
0
100
AcDbPolyline
62
9
6
CONTINUOUS
90
21
70
0
10
160.9005887458
20
146.4516304933
10
160.7408555169
20
146.6002882172
10
160.5471035199
20
146.7200609481
10
160.3240502017
20
146.8081339748
10
160.0771934547
20
146.8620356276
10
159.8126683927
20
146.8801149724
10
159.5369694505
20
146.8620356276
10
159.2568852510
20
146.8082427665
10
158.9793123968
20
146.7200609481
10
158.7110856527
20
146.5996615012
10
158.4588096514
20
146.4500090598
10
158.2286962652
20
146.2747885638
10
158.0264116495
20
146.0783145233
10
157.8569367229
20
145.8654247811
10
157.7244445204
20
145.6413613894
10
157.6321974399
20
145.4116415323
10
157.5824669105
20
145.1819216753
10
157.5765536731
20
144.9577879871
10
157.6143765775
20
144.7449685414
10
157.6947886119
20
144.5488651790
10
157.8159106798
20
144.3742041441
0
LWPOLYLINE
5
32D
100
AcDbEntity
8
0
100
AcDbPolyline
62
9
6
CONTINUOUS
90
21
70
0
10
160.8866223475
20
146.6576949672
10
160.7199967632
20
146.8137553811
10
160.5178835667
20
146.9393102156
10
160.2852594557
20
147.0312678940
10
160.0278524080
20
147.0873641132
10
159.7520006393
20
147.1062175981
10
159.4644965356
20
147.0873641132
10
159.1724194022
20
147.0312678940
10
158.8829611474
20
146.9393102156
10
158.6032491941
20
146.8137553811
10
158.3401709790
20
146.6576949672
10
158.1002043607
20
146.4749716994
10
157.8892581139
20
146.2700848309
10
157.7125264351
20
146.0480793564
10
157.5743610450
20
145.8144217874
10
157.4781640338
20
145.5748655488
10
157.4263040914
20
145.3353093101
10
157.4200581816
20
145.1016517411
10
157.4595800994
20
144.8796462666
10
157.5438966841
20
144.6747593981
10
157.6709317814
20
144.4920361303
0
LINE
5
32E
100
AcDbEntity
8
0
100
AcDbLine
62
9
6
CONTINUOUS
10
178.5271988868
20
118.4646535769
11
173.0006033737
21
129.7266711467
0
LINE
5
32F
100
AcDbEntity
8
0
100
AcDbLine
62
7
6
CONTINUOUS
10
167.1998581996
20
143.8193619105
11
168.5895077876
21
140.6878072135
0
LINE
5
330
100
AcDbEntity
8
0
100
AcDbLine
62
7
6
CONTINUOUS
10
168.5895077876
20
140.6878072135
11
169.7020969126
21
138.1613104871
0
LINE
5
331
100
AcDbEntity
8
0
100
AcDbLine
62
7
6
CONTINUOUS
10
169.7020969126
20
138.1613104871
11
170.5916109560
21
136.1215034327
0
LINE
5
332
100
AcDbEntity
8
0
100
AcDbLine
62
7
6
CONTINUOUS
10
170.5916109560
20
136.1215034327
11
171.1685187637
21
134.7835745174
0
LINE
5
333
100
AcDbEntity
8
0
100
AcDbLine
62
7
6
CONTINUOUS
10
171.1685187637
20
134.7835745174
11
171.6452077936
21
133.6641269690
0
LINE
5
334
100
AcDbEntity
8
0
100
AcDbLine
62
7
6
CONTINUOUS
10
171.6452077936
20
133.6641269690
11
171.9460034250
21
132.9480374125
0
LINE
5
335
100
AcDbEntity
8
0
100
AcDbLine
62
7
6
CONTINUOUS
10
171.9460034250
20
132.9480374125
11
172.2042014856
21
132.3245139097
0
LINE
5
336
100
AcDbEntity
8
0
100
AcDbLine
62
7
6
CONTINUOUS
10
172.2042014856
20
132.3245139097
11
172.3549770415
21
131.9551285154
0
LINE
5
337
100
AcDbEntity
8
0
100
AcDbLine
62
7
6
CONTINUOUS
10
172.3549770415
20
131.9551285154
11
172.4900932653
21
131.6195891030
0
LINE
5
338
100
AcDbEntity
8
0
100
AcDbLine
62
7
6
CONTINUOUS
10
172.4900932653
20
131.6195891030
11
172.6106122431
21
131.3154974150
0
LINE
5
339
100
AcDbEntity
8
0
100
AcDbLine
62
7
6
CONTINUOUS
10
172.6106122431
20
131.3154974150
11
172.7174616919
21
131.0407356763
0
LWPOLYLINE
5
33A
100
AcDbEntity
8
0
100
AcDbPolyline
62
7
6
CONTINUOUS
90
8
70
0
10
172.7174616919
20
131.0407356763
10
172.8114524550
20
130.7934194738
10
172.8538448338
20
130.6795304113
10
172.8932800614
20
130.5718855210
10
172.9298124442
20
130.4703370007
10
172.9635143436
20
130.3747045923
10
172.9944191912
20
130.2848769105
10
173.0245601047
20
130.1946915637
0
LINE
5
33B
100
AcDbEntity
8
0
100
AcDbLine
62
9
6
CONTINUOUS
10
167.3213938802
20
129.5894456966
11
167.6549286161
21
130.3247348194
0
LWPOLYLINE
5
33C
100
AcDbEntity
8
0
100
AcDbPolyline
62
9
6
CONTINUOUS
90
41
70
0
10
172.7844543895
20
138.4401077344
10
173.6323569137
20
139.3820064891
10
174.3988525402
20
140.3553600006
10
175.0866999481
20
141.3642235891
10
175.6876231001
20
142.3964312945
10
176.1947016472
20
143.4429615628
10
176.6066272032
20
144.4984364969
10
176.9201921556
20
145.5568228737
10
177.1341738343
20
146.6110651170
10
177.2461823639
20
147.6542044769
10
177.2565117472
20
148.6799172520
10
177.1641461397
20
149.6815967703
10
176.9706252077
20
150.6531331933
10
176.6762175380
20
151.5880558875
10
176.2837205250
20
152.4808405668
10
175.7946939065
20
153.3254262212
10
175.2131192387
20
154.1169523887
10
174.5418104187
20
154.8498908108
10
173.7858301616
20
155.5201838659
10
172.9491731974
20
156.1229834097
10
172.0378573776
20
156.6551327514
10
171.0569586397
20
157.1125841585
10
170.0132974560
20
157.4931626124
10
168.9129025119
20
157.7937234189
10
167.7632251059
20
158.0131278731
10
166.5710947407
20
158.1492135667
10
165.3444054892
20
158.2019069157
10
164.0906153475
20
158.1700823961
10
162.8178620499
20
158.0547334200
10
161.5340439801
20
157.8557997695
10
160.2473371863
20
157.5753168109
10
158.9658811093
20
157.2142911593
10
157.6976839554
20
156.7757488496
10
156.4509210620
20
156.2617380308
10
155.2332304771
20
155.6761989752
10
154.0526163182
20
155.0221691243
10
152.9161557135
20
154.3044051186
10
151.8314822348
20
153.5268587074
10
150.8049306686
20
152.6949820053
10
149.8435707507
20
151.8135429708
10
148.9528312052
20
150.8885458212
0
LWPOLYLINE
5
33D
100
AcDbEntity
8
0
100
AcDbPolyline
62
7
6
CONTINUOUS
90
15
70
0
10
172.7844595053
20
138.4401018326
10
172.9724108779
20
138.2454251563
10
173.1695650838
20
138.0295274029
10
173.3728264693
20
137.7944935556
10
173.5796967652
20
137.5436834946
10
173.7876676209
20
137.2805995277
10
173.9939233150
20
137.0086987918
10
174.1959130113
20
136.7317337570
10
174.3909865308
20
136.4533603999
10
174.5768514723
20
136.1772640236
10
174.7509519454
20
135.9072975103
10
174.9111847169
20
135.6472521838
10
175.0556653451
20
135.4002673752
10
175.1827777810
20
135.1694005288
10
175.2915784237
20
134.9570954234
0
LINE
5
33E
100
AcDbEntity
8
0
100
AcDbLine
62
7
6
CONTINUOUS
10
167.1998581996
20
143.8193619105
11
172.4740114971
21
137.7347983898
0
LINE
5
33F
100
AcDbEntity
8
0
100
AcDbLine
62
9
6
CONTINUOUS
10
162.5344590453
20
150.2102749098
11
161.5496773517
21
151.3463751388
0
LINE
5
340
100
AcDbEntity
8
0
100
AcDbLine
62
7
6
CONTINUOUS
10
167.2999734608
20
144.7673171851
11
172.7844543895
21
138.4401077344
0
LWPOLYLINE
5
341
100
AcDbEntity
8
0
100
AcDbPolyline
62
7
6
CONTINUOUS
90
15
70
0
10
172.4740114971
20
137.7347983898
10
172.6151709217
20
137.5676989063
10
172.7619348088
20
137.3860556236
10
172.9153309734
20
137.1885199473
10
173.0722759702
20
136.9791376611
10
173.2307215448
20
136.7604857474
10
173.3885899387
20
136.5356220164
10
173.5437627321
20
136.3074490982
10
173.6943136545
20
136.0790095152
10
173.8381838673
20
135.8533219001
10
173.9736526554
20
135.6333605523
10
174.0986864779
20
135.4223486887
10
174.2121649743
20
135.2225581883
10
174.3120651614
20
135.0377536212
10
174.3990613670
20
134.8666801308
0
LWPOLYLINE
5
342
100
AcDbEntity
8
0
100
AcDbPolyline
62
9
6
CONTINUOUS
90
13
70
0
10
165.2726458160
20
150.3784359797
10
165.2136034142
20
150.4715341178
10
165.1560629256
20
150.5612817437
10
165.0997845816
20
150.6479825578
10
165.0439894354
20
150.7327213790
10
164.9879424959
20
150.8164690165
10
164.9312813491
20
150.8995249599
10
164.8733151070
20
150.9825562701
10
164.8147309783
20
151.0642044085
10
164.7562053474
20
151.1432228799
10
164.6990097120
20
151.2175928080
10
164.6444131291
20
151.2855534111
10
164.5931150135
20
151.3463751388
0
LINE
5
343
100
AcDbEntity
8
0
100
AcDbLine
62
9
6
CONTINUOUS
10
165.3966826855
20
150.1798598452
11
165.2726458160
21
150.3784359797
0
LINE
5
344
100
AcDbEntity
8
0
100
AcDbLine
62
9
6
CONTINUOUS
10
165.5289355497
20
149.9644035560
11
165.3966826855
21
150.1798598452
0
LINE
5
345
100
AcDbEntity
8
0
100
AcDbLine
62
9
6
CONTINUOUS
10
165.6699369244
20
149.7316439563
11
165.5289355497
21
149.9644035560
0
LINE
5
346
100
AcDbEntity
8
0
100
AcDbLine
62
9
6
CONTINUOUS
10
165.8198508760
20
149.4814199403
11
165.6699369244
21
149.7316439563
0
LINE
5
347
100
AcDbEntity
8
0
100
AcDbLine
62
9
6
CONTINUOUS
10
166.0626551462
20
149.0713969430
11
165.8198508760
21
149.4814199403
0
LWPOLYLINE
5
348
100
AcDbEntity
8
0
100
AcDbPolyline
62
7
6
CONTINUOUS
90
44
70
0
10
166.5092133899
20
146.3151346081
10
166.3890882887
20
146.5213261637
10
166.2717479973
20
146.7198083492
10
166.1571660977
20
146.9107692502
10
166.0453495743
20
147.0943444984
10
165.9362935204
20
147.2706533173
10
165.8299836973
20
147.4398213744
10
165.7264263615
20
147.6019602722
10
165.6256445262
20
147.7571387664
10
165.5275501977
20
147.9056079302
10
165.4321934408
20
148.0474025699
10
165.3391536772
20
148.1832322767
10
165.2481677136
20
148.3135924109
10
165.1587528231
20
148.4391299188
10
165.0704935469
20
148.5604401261
10
164.9828522231
20
148.6781259884
10
164.8951963977
20
148.7929496757
10
164.8073168856
20
148.9049676432
10
164.7186204532
20
149.0147271337
10
164.6295780974
20
149.1214680956
10
164.5404263440
20
149.2247710564
10
164.4513027875
20
149.3241701764
10
164.3623233419
20
149.4192577296
10
164.2738073249
20
149.5094360874
10
164.1859428509
20
149.5940712532
10
164.0992728179
20
149.6728768442
10
164.0143967890
20
149.7453502111
10
163.9314001867
20
149.8115808678
10
163.8504955773
20
149.8714537839
10
163.7719289293
20
149.9251228224
10
163.6960242988
20
149.9725844984
10
163.6227869084
20
150.0142541717
10
163.5524113377
20
150.0503637823
10
163.4846569684
20
150.0814978162
10
163.4194056639
20
150.1081735486
10
163.3564633799
20
150.1308274627
10
163.2956778331
20
150.1499681335
10
163.2367819566
20
150.1658877010
10
163.1795912028
20
150.1789448038
10
163.1236795596
20
150.1894209115
10
163.0686215853
20
150.1976643807
10
163.0142001082
20
150.2037825860
10
162.9599999438
20
150.2080139160
10
162.9061702713
20
150.2102749098
0
LINE
5
349
100
AcDbEntity
8
0
100
AcDbLine
62
9
6
CONTINUOUS
10
166.4262264696
20
148.4497866596
11
166.0626551462
21
149.0713969430
0
LINE
5
34A
100
AcDbEntity
8
0
100
AcDbLine
62
9
6
CONTINUOUS
10
166.9582254193
20
147.5297166768
11
166.4262264696
21
148.4497866596
0
LINE
5
34B
100
AcDbEntity
8
0
100
AcDbLine
62
9
6
CONTINUOUS
10
167.9622809663
20
145.7772139016
11
166.9582254193
21
147.5297166768
0
LINE
5
34C
100
AcDbEntity
8
0
100
AcDbLine
62
7
6
CONTINUOUS
10
166.6615276516
20
146.0493872807
11
166.5092133899
21
146.3151346081
0
LINE
5
34D
100
AcDbEntity
8
0
100
AcDbLine
62
7
6
CONTINUOUS
10
166.7498976942
20
145.8930777750
11
166.6615276516
21
146.0493872807
0
LINE
5
34E
100
AcDbEntity
8
0
100
AcDbLine
62
7
6
CONTINUOUS
10
167.3291129182
20
144.8572407514
11
166.7498976942
21
145.8930777750
0
LINE
5
34F
100
AcDbEntity
8
0
100
AcDbLine
62
7
6
CONTINUOUS
10
174.3990613670
20
134.8666801308
11
181.6119478506
21
120.1683628548
0
LWPOLYLINE
5
350
100
AcDbEntity
8
0
100
AcDbPolyline
62
7
6
CONTINUOUS
90
18
70
0
10
173.0245601047
20
130.1946915637
10
173.0480103877
20
130.1221213124
10
173.0707386839
20
130.0490128894
10
173.0907376041
20
129.9813731193
10
173.1080170126
20
129.9191305335
10
173.1224937920
20
129.8623667444
10
173.1341439442
20
129.8110658460
10
173.1427999750
20
129.7654489251
10
173.1483885998
20
129.7255789353
10
173.1506031932
20
129.6919143699
10
173.1492879576
20
129.6646463442
10
173.1439171244
20
129.6446399450
10
173.1341469289
20
129.6323728525
10
173.1192755616
20
129.6291984020
10
173.0984362890
20
129.6364662844
10
173.0717801187
20
129.6546651138
10
173.0391519090
20
129.6848507151
10
173.0006033737
20
129.7266711467
0
LINE
5
351
100
AcDbEntity
8
0
100
AcDbLine
62
7
6
CONTINUOUS
10
172.7844595053
20
138.4401018326
11
172.4740114971
21
137.7347983898
0
LWPOLYLINE
5
352
100
AcDbEntity
8
0
100
AcDbPolyline
62
9
6
CONTINUOUS
90
29
70
0
10
161.5496773517
20
151.3463751388
10
161.2771243869
20
151.6177419374
10
160.9621374701
20
151.8520006388
10
160.6018962773
20
152.0507262346
10
160.2048617807
20
152.2091937499
10
159.7767748272
20
152.3232316930
10
159.3229754699
20
152.3927546070
10
158.8486045708
20
152.4161139384
10
158.3600005513
20
152.3938274850
10
157.8630607351
20
152.3252844787
10
157.3642492778
20
152.2122220635
10
156.8699923538
20
152.0552533113
10
156.3863012310
20
151.8571396703
10
155.9194778461
20
151.6196101529
10
155.4750763670
20
151.3463751388
10
155.0591944240
20
151.0402383642
10
154.6765035676
20
150.7056487718
10
154.3325249472
20
150.3463548337
10
154.0308073967
20
149.9672616984
10
153.7759534804
20
149.5727559745
10
153.5703231560
20
149.1681417531
10
153.4175167917
20
148.7584600064
10
153.3184157206
20
148.3488866988
10
153.2752525492
20
147.9446763297
10
153.2875738256
20
147.5506342648
10
153.3566894397
20
147.1713244728
10
153.4795419720
20
146.8127256430
10
153.6531830339
20
146.4832752889
10
153.8785954216
20
146.1801609059
0
LWPOLYLINE
5
353
100
AcDbEntity
8
0
100
AcDbPolyline
62
9
6
CONTINUOUS
90
7
70
0
10
169.0712350527
20
146.1801609059
10
169.0058449633
20
146.2523820410
10
168.9466977033
20
146.3101009154
10
168.8973591371
20
146.3484856018
10
168.8596322740
20
146.3659568466
10
168.8334181024
20
146.3636887511
10
168.8306936793
20
146.3620604856
0
LINE
5
354
100
AcDbEntity
8
0
100
AcDbLine
62
7
6
CONTINUOUS
10
175.2915784237
20
134.9570954234
11
182.3490559763
21
120.5754682521
0
LWPOLYLINE
5
355
100
AcDbEntity
8
0
100
AcDbPolyline
62
7
6
CONTINUOUS
90
15
70
0
10
167.8815210329
20
129.8629880220
10
168.0496878411
20
129.9665034552
10
168.4594975800
20
130.1749573897
10
168.8840092749
20
130.3492074967
10
169.3178829989
20
130.4870625634
10
169.7556612083
20
130.5867892920
10
170.1918374189
20
130.6471340898
10
170.6209254944
20
130.6673388197
10
171.0375286739
20
130.6471503139
10
171.4364074707
20
130.5868235310
10
171.8125455849
20
130.4871183175
10
172.1612130037
20
130.3492898156
10
172.4780254918
20
130.1750726376
10
172.7589996473
20
129.9666590743
10
173.0006033737
20
129.7266711467
0
LWPOLYLINE
5
356
100
AcDbEntity
8
0
100
AcDbPolyline
62
9
6
CONTINUOUS
90
21
70
0
10
167.3213938802
20
129.5894456966
10
165.9133640377
20
129.0143244881
10
164.4825152889
20
128.5205475476
10
163.0371493472
20
128.1109864223
10
161.5856853167
20
127.7880319047
10
160.1365785954
20
127.5535660734
10
158.6982387424
20
127.4089488639
10
157.2790208198
20
127.3550203322
10
155.8871688227
20
127.3920937404
10
154.5307677807
20
127.5199537355
10
153.2176967913
20
127.7378576007
10
151.9555832571
20
128.0445395701
10
150.7517585743
20
128.4382181820
10
149.6132155484
20
128.9166066281
10
148.5465677849
20
129.4769260312
10
147.5580112555
20
130.1159215938
10
146.6532883257
20
130.8298814920
10
145.8376543865
20
131.6146584382
10
145.1158472924
20
132.4656938109
10
144.4920599001
20
133.3780440792
10
144.0354810756
20
134.2103135383
0
LWPOLYLINE
5
357
100
AcDbEntity
8
0
100
AcDbPolyline
62
9
6
CONTINUOUS
90
8
70
0
10
169.4080035497
20
146.8156667580
10
169.1952321012
20
146.8620356276
10
168.9307070392
20
146.8801149724
10
168.6550080970
20
146.8620356276
10
168.3749651485
20
146.8081339748
10
168.0973510432
20
146.7200609481
10
167.8288086636
20
146.6002882172
10
167.5759226228
20
146.4516304933
0
LWPOLYLINE
5
358
100
AcDbEntity
8
0
100
AcDbPolyline
62
9
6
CONTINUOUS
90
9
70
0
10
169.5674093104
20
146.9663937687
10
169.4032981022
20
147.0312678940
10
169.1458910545
20
147.0873641132
10
168.8700392857
20
147.1062175981
10
168.5825351821
20
147.0873641132
10
168.2904580487
20
147.0312678940
10
168.0009997939
20
146.9393102156
10
167.7212878406
20
146.8137553811
10
167.4582096254
20
146.6576949672
0
LWPOLYLINE
5
359
100
AcDbEntity
8
0
100
AcDbPolyline
62
7
6
CONTINUOUS
90
33
70
0
10
162.5344590453
20
150.2102749098
10
162.3742570037
20
150.1983327682
10
162.2256106886
20
150.1680121537
10
162.0878923660
20
150.1191515379
10
161.9642399061
20
150.0537921189
10
161.8582850210
20
149.9728522394
10
161.7677284304
20
149.8804206807
10
161.6922822580
20
149.7803868843
10
161.6290987908
20
149.6739976092
10
161.5754743926
20
149.5632955374
10
161.5304613190
20
149.4490368197
10
161.4925583933
20
149.3323399489
10
161.4606356367
20
149.2137659519
10
161.4331275327
20
149.0940189784
10
161.4098170755
20
148.9735079457
10
161.3901147413
20
148.8530835257
10
161.3735567725
20
148.7320149722
10
161.3595894412
20
148.6102427699
10
161.3479276503
20
148.4864757714
10
161.3381614436
20
148.3597458117
10
161.3301801633
20
148.2289022216
10
161.3237381818
20
148.0927462971
10
161.3189063139
20
147.9503602185
10
161.3156699173
20
147.8003803214
10
161.3141115770
20
147.6428847911
10
161.3143015112
20
147.4774463637
10
161.3162945665
20
147.3042066016
10
161.3201672553
20
147.1231620712
10
161.3259402078
20
146.9343263691
10
161.3336460911
20
146.7377102306
10
161.3433432167
20
146.5333218836
10
161.3550774308
20
146.3211864122
10
161.3724296443
20
146.0493873231
0
LWPOLYLINE
5
35A
100
AcDbEntity
8
0
100
AcDbPolyline
62
7
6
CONTINUOUS
90
5
70
0
10
162.5344590453
20
150.2102749098
10
162.6282357718
20
150.2120341840
10
162.7214465516
20
150.2126206088
10
162.8140913848
20
150.2120341840
10
162.9061702713
20
150.2102749098
0
LINE
5
35B
100
AcDbEntity
8
0
100
AcDbLine
62
7
6
CONTINUOUS
10
179.9447472075
20
151.8320219079
11
190.4307514994
21
130.4637918118
0
LWPOLYLINE
5
35C
100
AcDbEntity
8
0
100
AcDbPolyline
62
9
6
CONTINUOUS
90
16
70
0
10
179.9447472075
20
151.8320219079
10
180.3490029609
20
150.8947904991
10
180.6820097560
20
149.8403887084
10
180.9064385593
20
148.7463752466
10
181.0209857025
20
147.6191050835
10
181.0249858104
20
146.4651262944
10
180.9184156387
20
145.2911420898
10
180.7018942318
20
144.1039719949
10
180.3766793422
20
142.9105121299
10
179.9446600824
20
141.7176950510
10
179.4083459619
20
140.5324495910
10
178.7708523423
20
139.3616606584
10
178.0358779785
20
138.2121228673
10
177.2077052075
20
137.0905325671
10
176.2911636761
20
136.0034215494
10
175.2915784237
20
134.9570954234
0
LINE
5
35D
100
AcDbEntity
8
0
100
AcDbLine
62
2
6
CONTINUOUS
10
185.2682231467
20
122.1877265752
11
190.4307514994
21
130.4637918118
0
LINE
5
35E
100
AcDbEntity
8
0
100
AcDbLine
62
2
6
CONTINUOUS
10
177.2432298467
20
117.7555164667
11
185.2682231467
21
122.1877265752
0
LINE
5
35F
100
AcDbEntity
8
0
100
AcDbLine
62
2
6
CONTINUOUS
10
154.2602953594
20
203.0133732431
11
156.8179069655
21
202.6917326883
0
LINE
5
360
100
AcDbEntity
8
0
100
AcDbLine
62
2
6
CONTINUOUS
10
153.5731840970
20
203.1677875432
11
154.2602953594
21
203.0133732431
0
LINE
5
361
100
AcDbEntity
8
0
100
AcDbLine
62
2
6
CONTINUOUS
10
167.2606990513
20
203.0067814169
11
170.9256012440
21
204.0201556995
0
LINE
5
362
100
AcDbEntity
8
0
100
AcDbLine
62
2
6
CONTINUOUS
10
163.3725299544
20
202.5711995361
11
167.2606990513
21
203.0067814169
0
LINE
5
363
100
AcDbEntity
8
0
100
AcDbLine
62
2
6
CONTINUOUS
10
159.4199240736
20
202.5450688827
11
163.3725299544
21
202.5711995361
0
LINE
5
364
100
AcDbEntity
8
0
100
AcDbLine
62
2
6
CONTINUOUS
10
156.8179069655
20
202.6917326883
11
159.4199240736
21
202.5450688827
0
LINE
5
365
100
AcDbEntity
8
0
100
AcDbLine
62
7
6
CONTINUOUS
10
153.5731840970
20
203.1677875432
11
145.1611358117
21
221.1500270154
0
LWPOLYLINE
5
366
100
AcDbEntity
8
0
100
AcDbPolyline
62
7
6
CONTINUOUS
90
42
70
0
10
157.9405290200
20
237.3202118592
10
157.8463606057
20
237.2546608963
10
157.7555850763
20
237.1845653782
10
157.6677577363
20
237.1098007615
10
157.5843507690
20
237.0309454217
10
157.5066670917
20
236.9485854706
10
157.4345972350
20
236.8627767087
10
157.3687313691
20
236.7742056618
10
157.3082139898
20
236.6815924052
10
157.2524277312
20
236.5840888261
10
157.2014045073
20
236.4809469456
10
157.1549303291
20
236.3712640867
10
157.1132409543
20
236.2545958658
10
157.0763598114
20
236.1297149246
10
157.0447725492
20
235.9980612123
10
157.0189288392
20
235.8596842699
10
156.9988032505
20
235.7175927046
10
156.9846743114
20
235.5747118328
10
156.9757474617
20
235.4313821713
10
156.9714786805
20
235.2890764849
10
156.9713436483
20
235.1472545609
10
156.9747062233
20
235.0061055434
10
156.9814423887
20
234.8648458914
10
156.9912644113
20
234.7231233841
10
157.0041287686
20
234.5797992114
10
157.0199229608
20
234.4339380419
10
157.0386920150
20
234.2845636743
10
157.0603932436
20
234.1306239570
10
157.0852950252
20
233.9714142019
10
157.1136239769
20
233.8058932010
10
157.1455424594
20
233.6340377529
10
157.1812921795
20
233.4554701694
10
157.2208847255
20
233.2702310773
10
157.2643763658
20
233.0782651443
10
157.3118891772
20
232.8794949275
10
157.3634974333
20
232.6739155468
10
157.4194115489
20
232.4612693047
10
157.4798176769
20
232.2413855160
10
157.5448809017
20
232.0140207590
10
157.6147699036
20
231.7789561258
10
157.6896874558
20
231.5359736776
10
157.7698956089
20
231.2847236129
0
LINE
5
367
100
AcDbEntity
8
0
100
AcDbLine
62
7
6
CONTINUOUS
10
157.9404695650
20
237.3201724063
11
158.0095543292
21
237.3658186637
0
LINE
5
368
100
AcDbEntity
8
0
100
AcDbLine
62
7
6
CONTINUOUS
10
158.0095543292
20
237.3658186637
11
158.0790982814
21
237.4109793597
0
LWPOLYLINE
5
369
100
AcDbEntity
8
0
100
AcDbPolyline
62
9
6
CONTINUOUS
90
11
70
0
10
154.2204235882
20
213.0530084628
10
152.9288403820
20
213.5874240838
10
151.6973347907
20
214.2150011487
10
150.5330579599
20
214.9321045246
10
149.4427958593
20
215.7345620738
10
148.4329000470
20
216.6177000497
10
147.5092306917
20
217.5763925938
10
146.6771532417
20
218.6050708065
10
145.9415010634
20
219.6977593033
10
145.3065474120
20
220.8481108926
10
145.1611358117
20
221.1500270154
0
LINE
5
36A
100
AcDbEntity
8
0
100
AcDbLine
62
7
6
CONTINUOUS
10
159.1283235900
20
202.5615050685
11
154.2204235882
21
213.0530084628
0
LINE
5
36B
100
AcDbEntity
8
0
100
AcDbLine
62
7
6
CONTINUOUS
10
160.1768386980
20
202.5500728407
11
155.0616271453
21
213.4847413034
0
LWPOLYLINE
5
36C
100
AcDbEntity
8
0
100
AcDbPolyline
62
7
6
CONTINUOUS
90
15
70
0
10
155.0616271453
20
213.4847413034
10
155.0085806613
20
213.6181946500
10
154.9632540755
20
213.7757620767
10
154.9253314063
20
213.9585036822
10
154.8957605985
20
214.1632391703
10
154.8753168279
20
214.3882782644
10
154.8642024197
20
214.6302110057
10
154.8629193767
20
214.8862445207
10
154.8713438412
20
215.1528372772
10
154.8896521865
20
215.4267547932
10
154.9174457224
20
215.7042830439
10
154.9546157355
20
215.9818571021
10
155.0004686688
20
216.2557951927
10
155.0541835031
20
216.5206184711
10
155.1160339116
20
216.7781532186
0
LWPOLYLINE
5
36D
100
AcDbEntity
8
0
100
AcDbPolyline
62
7
6
CONTINUOUS
90
15
70
0
10
154.2204235882
20
213.0530084628
10
154.1551697256
20
213.2188490857
10
154.1000078082
20
213.4161133522
10
154.0560054673
20
213.6431308406
10
154.0240168323
20
213.8974242030
10
154.0046205400
20
214.1761743730
10
153.9984635779
20
214.4757662083
10
154.0057451524
20
214.7921592800
10
154.0266543629
20
215.1213699441
10
154.0609822550
20
215.4591386623
10
154.1085322140
20
215.8009946720
10
154.1686413866
20
216.1424532197
10
154.2408071346
20
216.4789563351
10
154.3243521403
20
216.8059101330
10
154.4174365829
20
217.1195179084
0
LWPOLYLINE
5
36E
100
AcDbEntity
8
0
100
AcDbPolyline
62
9
6
CONTINUOUS
90
36
70
0
10
156.2154340204
20
237.5183559709
10
156.1942074535
20
237.4317809961
10
156.1748574850
20
237.3419183673
10
156.1575738780
20
237.2492356912
10
156.1426103474
20
237.1547115468
10
156.1301202971
20
237.0594590931
10
156.1200268985
20
236.9640520894
10
156.1122050357
20
236.8693910358
10
156.1064175043
20
236.7749141630
10
156.1024940159
20
236.6802917102
10
156.1002721117
20
236.5850312367
10
156.0996470776
20
236.4885419391
10
156.1005496372
20
236.3904864478
10
156.1029250167
20
236.2904175397
10
156.1067346095
20
236.1878511315
10
156.1119958413
20
236.0821859569
10
156.1187070023
20
235.9734006228
10
156.1268847169
20
235.8612463734
10
156.1365233163
20
235.7457365908
10
156.1476337439
20
235.6267936381
10
156.1602106709
20
235.5043976579
10
156.1742486387
20
235.3784604134
10
156.1897271754
20
235.2489833510
10
156.2066309034
20
235.1160442932
10
156.2249961210
20
234.9793733593
10
156.2448757867
20
234.8388917873
10
156.2663329395
20
234.6943485048
10
156.2894009550
20
234.5454580448
10
156.3140947374
20
234.3919533917
10
156.3404368626
20
234.2335626079
10
156.3684780517
20
234.0700770651
10
156.3982868429
20
233.9013530242
10
156.4299520651
20
233.7271984378
10
156.4635458714
20
233.5474039185
10
156.4991227080
20
233.3617261939
10
156.5764291679
20
232.9716949061
0
LWPOLYLINE
5
36F
100
AcDbEntity
8
0
100
AcDbPolyline
62
9
6
CONTINUOUS
90
9
70
0
10
154.6832796709
20
224.3836811812
10
154.5742972390
20
223.8653799615
10
154.5178802254
20
223.3475455220
10
154.5139549697
20
222.8273705646
10
154.5627424532
20
222.3132769837
10
154.6650292366
20
221.8115128225
10
154.8190449226
20
221.3257923365
10
155.0230927744
20
220.8626370791
10
155.2777383710
20
220.4198731992
0
LINE
5
370
100
AcDbEntity
8
0
100
AcDbLine
62
9
6
CONTINUOUS
10
158.4965806879
20
239.0125571874
11
158.0790982814
21
237.4109793597
0
LINE
5
371
100
AcDbEntity
8
0
100
AcDbLine
62
9
6
CONTINUOUS
10
155.1008245401
20
225.9854986333
11
154.6832796709
21
224.3836811812
0
LWPOLYLINE
5
372
100
AcDbEntity
8
0
100
AcDbPolyline
62
9
6
CONTINUOUS
90
31
70
0
10
158.4965806879
20
239.0125571874
10
158.6809250678
20
239.5916314563
10
158.9276118098
20
240.1537119639
10
159.2387613365
20
240.7025674285
10
159.6080123804
20
241.2268916956
10
160.0314105664
20
241.7178979184
10
160.5038556404
20
242.1717968923
10
161.0210588480
20
242.5831647442
10
161.5766313156
20
242.9481186342
10
162.1650990862
20
243.2618418573
10
162.7794286560
20
243.5217121355
10
163.4131409185
20
243.7239124610
10
164.0590987246
20
243.8672103172
10
164.7104151359
20
243.9490697859
10
165.3598604141
20
243.9695840647
10
166.0001763153
20
243.9275098678
10
166.6245614180
20
243.8243207275
10
167.2258638586
20
243.6601457832
10
167.7978767194
20
243.4377749272
10
168.3337434251
20
243.1587329132
10
168.8282610850
20
242.8269442951
10
169.2753313846
20
242.4451618126
10
169.6707840201
20
242.0184256628
10
170.0093217705
20
241.5507744288
10
170.2882270724
20
241.0479656920
10
170.5034479318
20
240.5150815286
10
170.6536904185
20
239.9581870380
10
170.7360693297
20
239.3820025169
10
170.7513064887
20
238.7956444503
10
170.6991319953
20
238.2111389951
10
170.5796358163
20
237.6244774322
0
LINE
5
373
100
AcDbEntity
8
0
100
AcDbLine
62
7
6
CONTINUOUS
10
154.4174365829
20
217.1195179084
11
155.1160339116
21
216.7781532186
0
LINE
5
374
100
AcDbEntity
8
0
100
AcDbLine
62
9
6
CONTINUOUS
10
163.4186639438
20
211.9965001759
11
162.8449041441
21
212.5907554615
0
LINE
5
375
100
AcDbEntity
8
0
100
AcDbLine
62
7
6
CONTINUOUS
10
154.4174390765
20
217.1195274745
11
155.2777383710
21
220.4198731992
0
LINE
5
376
100
AcDbEntity
8
0
100
AcDbLine
62
7
6
CONTINUOUS
10
155.1160339116
20
216.7781532186
11
156.1870353774
21
220.8868106721
0
LWPOLYLINE
5
377
100
AcDbEntity
8
0
100
AcDbPolyline
62
9
6
CONTINUOUS
90
10
70
0
10
157.3546647951
20
226.3483197748
10
157.3223876084
20
226.2306602232
10
157.2883847327
20
226.1187929081
10
157.2528626246
20
226.0135184206
10
157.2158469374
20
225.9149010151
10
157.1772994091
20
225.8229669816
10
157.1376527422
20
225.7388008682
10
157.0973703011
20
225.6632376833
10
157.0564641807
20
225.5959440707
10
157.0293695036
20
225.5572085201
0
LWPOLYLINE
5
378
100
AcDbEntity
8
0
100
AcDbPolyline
62
9
6
CONTINUOUS
90
41
70
0
10
163.3397322234
20
216.0947144436
10
164.6508198249
20
216.3282642485
10
165.9446245970
20
216.6529808995
10
167.2261842038
20
217.0705275959
10
168.4803856529
20
217.5759147397
10
169.6956861055
20
218.1660567958
10
170.8664127646
20
218.8369047742
10
171.9853738884
20
219.5852683658
10
173.0455834730
20
220.4054859928
10
174.0394798963
20
221.2928659712
10
174.9615982706
20
222.2413083113
10
175.8054949227
20
223.2454441521
10
176.5665445860
20
224.2983884238
10
177.2391022159
20
225.3938905547
10
177.8197834729
20
226.5246781882
10
178.3040370773
20
227.6839171956
10
178.6897188049
20
228.8640423207
10
178.9734426681
20
230.0577538741
10
179.1543826765
20
231.2574210275
10
179.2304150560
20
232.4554892176
10
179.2020471701
20
233.6444299605
10
179.0684709822
20
234.8165947981
10
178.8315089187
20
235.9647890897
10
178.4916756350
20
237.0815226937
10
178.0520864076
20
238.1600336540
10
177.5145848484
20
239.1930908083
10
176.8835006074
20
240.1746116339
10
176.1619843245
20
241.0978443431
10
175.3554166415
20
241.9575655682
10
174.4681271175
20
242.7477322063
10
173.5064196398
20
243.4640516754
10
172.4756573405
20
244.1013120153
10
171.3829920440
20
244.6562282575
10
170.2347854730
20
245.1244866949
10
169.0387710653
20
245.5039615832
10
167.8020823218
20
245.7914040737
10
166.5328807764
20
245.9858697723
10
165.2389157897
20
246.0852416636
10
163.9285573818
20
246.0897887633
10
162.6099695971
20
245.9985832481
10
161.2915197243
20
245.8130986202
0
LWPOLYLINE
5
379
100
AcDbEntity
8
0
100
AcDbPolyline
62
7
6
CONTINUOUS
90
7
70
0
10
155.1007887562
20
225.9855525910
10
155.2026257570
20
225.8524211482
10
155.3107985666
20
225.7187204935
10
155.4255643260
20
225.5835861645
10
155.5443922119
20
225.4493984332
10
155.6651547852
20
225.3177476821
10
155.6922927934
20
225.2887033665
0
LWPOLYLINE
5
37A
100
AcDbEntity
8
0
100
AcDbPolyline
62
7
6
CONTINUOUS
90
5
70
0
10
155.1008245401
20
225.9854986333
10
155.0794135787
20
226.0144887666
10
155.0581761743
20
226.0435607540
10
155.0371123269
20
226.0727145954
10
155.0162220366
20
226.1019502910
0
LWPOLYLINE
5
37B
100
AcDbEntity
8
0
100
AcDbPolyline
62
9
6
CONTINUOUS
90
19
70
0
10
153.8641067771
20
227.0413260646
10
153.7259389119
20
227.2652695255
10
153.5983535476
20
227.5661971281
10
153.5172555213
20
227.8843033575
10
153.4840324426
20
228.2141453280
10
153.4992527677
20
228.5500793520
10
153.5626560725
20
228.8863575052
10
153.6731575090
20
229.2172259753
10
153.8288663668
20
229.5370235109
10
154.0271184244
20
229.8402782875
10
154.2645215340
20
230.1218015318
10
154.5370136626
20
230.3767763032
10
154.8399323943
20
230.6008399124
10
155.1680947056
20
230.7901585692
10
155.5158856485
20
230.9414929786
10
155.8773544234
20
231.0522537672
10
156.2463161994
20
231.1205457870
10
156.6164579383
20
231.1452005426
10
156.9814464121
20
231.1257961844
0
LINE
5
37C
100
AcDbEntity
8
0
100
AcDbLine
62
7
6
CONTINUOUS
10
162.8449041441
20
212.5907554615
11
167.3205255615
21
203.0233239176
0
LINE
5
37D
100
AcDbEntity
8
0
100
AcDbLine
62
7
6
CONTINUOUS
10
157.6759388756
20
223.3683753004
11
157.5030529534
21
222.7051371485
0
LWPOLYLINE
5
37E
100
AcDbEntity
8
0
100
AcDbPolyline
62
7
6
CONTINUOUS
90
12
70
0
10
157.5030529534
20
222.7051371485
10
157.4571716549
20
222.5446040403
10
157.4051887886
20
222.3932248797
10
157.3469701365
20
222.2509038090
10
157.2829183526
20
222.1179284016
10
157.2130602460
20
221.9947376615
10
157.1383891334
20
221.8807814402
10
157.0597108473
20
221.7763029209
10
156.9776146500
20
221.6793611122
10
156.8934399777
20
221.5892532248
10
156.8057421416
20
221.5025078361
10
156.7134129492
20
221.4162260343
0
LWPOLYLINE
5
37F
100
AcDbEntity
8
0
100
AcDbPolyline
62
7
6
CONTINUOUS
90
13
70
0
10
156.1870353774
20
220.8868106721
10
156.0763788309
20
220.9331466542
10
155.9699391688
20
220.9646929484
10
155.8669552827
20
220.9821194427
10
155.7697104972
20
220.9834164729
10
155.6802058566
20
220.9663244842
10
155.5985270934
20
220.9322630360
10
155.5256491215
20
220.8814507626
10
155.4609054406
20
220.8152308844
10
155.4040651315
20
220.7345161179
10
155.3547963653
20
220.6408166087
10
155.3126392399
20
220.5361735396
10
155.2777470558
20
220.4199065164
0
LWPOLYLINE
5
380
100
AcDbEntity
8
0
100
AcDbPolyline
62
7
6
CONTINUOUS
90
14
70
0
10
163.2901856194
20
217.3836707275
10
163.1961268431
20
217.4629256559
10
163.0667686609
20
217.5748418464
10
162.9324536186
20
217.6939206695
10
162.7929111184
20
217.8204449866
10
162.6479918239
20
217.9546141337
10
162.4973861116
20
218.0967759862
10
162.3413042452
20
218.2467677876
10
162.1798793857
20
218.4045130393
10
162.0130332165
20
218.5701008427
10
161.8409389359
20
218.7433747167
10
161.6629751611
20
218.9249949103
10
161.4787307556
20
219.1153912438
10
161.2877481785
20
219.3150985211
0
LINE
5
381
100
AcDbEntity
8
0
100
AcDbLine
62
7
6
CONTINUOUS
10
157.2767220007
20
223.7400000347
11
157.6759388756
21
223.3683753004
0
LINE
5
382
100
AcDbEntity
8
0
100
AcDbLine
62
7
6
CONTINUOUS
10
156.9860027864
20
224.0131511259
11
157.2767220007
21
223.7400000347
0
LINE
5
383
100
AcDbEntity
8
0
100
AcDbLine
62
7
6
CONTINUOUS
10
156.6839876594
20
224.2999957623
11
156.9860027864
21
224.0131511259
0
LINE
5
384
100
AcDbEntity
8
0
100
AcDbLine
62
7
6
CONTINUOUS
10
156.4724669307
20
224.5034509331
11
156.6839876594
21
224.2999957623
0
LWPOLYLINE
5
385
100
AcDbEntity
8
0
100
AcDbPolyline
62
7
6
CONTINUOUS
90
7
70
0
10
155.6922927934
20
225.2887033665
10
155.7863094433
20
225.1893922407
10
155.9056822232
20
225.0657974332
10
156.0233276998
20
224.9462072913
10
156.1387478498
20
224.8306137476
10
156.2520421390
20
224.7185038046
10
156.4724669307
20
224.5034509331
0
LINE
5
386
100
AcDbEntity
8
0
100
AcDbLine
62
7
6
CONTINUOUS
10
161.2877481785
20
219.3150985211
11
160.9932030967
21
219.6272975396
0
LINE
5
387
100
AcDbEntity
8
0
100
AcDbLine
62
7
6
CONTINUOUS
10
160.9932030967
20
219.6272975396
11
160.6699346513
21
219.9751952939
0
LINE
5
388
100
AcDbEntity
8
0
100
AcDbLine
62
7
6
CONTINUOUS
10
160.6699346513
20
219.9751952939
11
160.2164439462
21
220.4712075360
0
LINE
5
389
100
AcDbEntity
8
0
100
AcDbLine
62
7
6
CONTINUOUS
10
160.2164439462
20
220.4712075360
11
159.7259932800
21
221.0165630743
0
LINE
5
38A
100
AcDbEntity
8
0
100
AcDbLine
62
7
6
CONTINUOUS
10
159.7259932800
20
221.0165630743
11
159.1956446822
21
221.6150250118
0
LINE
5
38B
100
AcDbEntity
8
0
100
AcDbLine
62
7
6
CONTINUOUS
10
159.1956446822
20
221.6150250118
11
158.6224695657
21
222.2703672152
0
LWPOLYLINE
5
38C
100
AcDbEntity
8
0
100
AcDbPolyline
62
7
6
CONTINUOUS
90
3
70
0
10
158.6224695657
20
222.2703672152
10
158.0033282296
20
222.9866401628
10
157.6759388756
20
223.3683753004
0
LINE
5
38D
100
AcDbEntity
8
0
100
AcDbLine
62
7
6
CONTINUOUS
10
163.4186639438
20
211.9965001759
11
167.5824184065
21
203.0957393491
0
LWPOLYLINE
5
38E
100
AcDbEntity
8
0
100
AcDbPolyline
62
7
6
CONTINUOUS
90
31
70
0
10
157.7698956089
20
231.2847236129
10
158.0904973930
20
230.3164217146
10
158.1487470254
20
230.1380413618
10
158.2065170688
20
229.9584325045
10
158.2637417254
20
229.7772900153
10
158.3200239834
20
229.5938248867
10
158.3753163020
20
229.4075741816
10
158.4287018324
20
229.2172791607
10
158.4799857910
20
229.0216993749
10
158.5273703252
20
228.8203381462
10
158.5700412592
20
228.6116789944
10
158.6055409365
20
228.3974675272
10
158.6317150795
20
228.1791874609
10
158.6476210644
20
227.9557837921
10
158.6520645105
20
227.7265219788
10
158.6449424431
20
227.4915012217
10
158.6260765541
20
227.2498665274
10
158.5958938003
20
227.0032727769
10
158.5538113670
20
226.7495556941
10
158.5036929533
20
226.4989083450
10
158.4469711749
20
226.2598509304
10
158.3855490643
20
226.0356780945
10
158.3196429163
20
225.8306354972
10
158.2514942561
20
225.6508706729
10
158.1816213270
20
225.5055075493
10
158.1096584583
20
225.3905502377
10
158.0357689078
20
225.3063727397
10
157.9590323182
20
225.2493155511
10
157.8793399891
20
225.2170247652
10
157.7962507179
20
225.2060988939
10
157.7403465900
20
225.2087049765
0
LINE
5
38F
100
AcDbEntity
8
0
100
AcDbLine
62
9
6
CONTINUOUS
10
156.8640624095
20
231.6346204059
11
157.1043503587
21
230.5952400128
0
LINE
5
390
100
AcDbEntity
8
0
100
AcDbLine
62
9
6
CONTINUOUS
10
157.1043503587
20
230.5952400128
11
157.1856449641
21
230.2364893202
0
LINE
5
391
100
AcDbEntity
8
0
100
AcDbLine
62
9
6
CONTINUOUS
10
156.7580582020
20
232.1103242917
11
156.8640624095
21
231.6346204059
0
LWPOLYLINE
5
392
100
AcDbEntity
8
0
100
AcDbPolyline
62
9
6
CONTINUOUS
90
23
70
0
10
157.1856449641
20
230.2364893202
10
157.2643178041
20
229.8779977171
10
157.3020232202
20
229.6993532300
10
157.3383053938
20
229.5213311012
10
157.3729650627
20
229.3437032496
10
157.4056328537
20
229.1656628993
10
157.4357732155
20
228.9874773708
10
157.4630238287
20
228.8087570430
10
157.4865877650
20
228.6315012255
10
157.5057820656
20
228.4581189552
10
157.5204201899
20
228.2890259403
10
157.5303160123
20
228.1276590120
10
157.5360120695
20
227.9703866815
10
157.5377656829
20
227.8155482138
10
157.5355854661
20
227.6599260989
10
157.5291464780
20
227.4989086816
10
157.5181996854
20
227.3340787667
10
157.5023170045
20
227.1647378439
10
157.4814605146
20
226.9944132245
10
157.4559665280
20
226.8262962816
10
157.4260730357
20
226.6615818084
10
157.3921696490
20
226.5018996540
10
157.3546647951
20
226.3483197748
0
LINE
5
393
100
AcDbEntity
8
0
100
AcDbLine
62
9
6
CONTINUOUS
10
156.6624637147
20
232.5552486418
11
156.7580582020
21
232.1103242917
0
LINE
5
394
100
AcDbEntity
8
0
100
AcDbLine
62
9
6
CONTINUOUS
10
156.5764291679
20
232.9716949061
11
156.6624637147
21
232.5552486418
0
LINE
5
395
100
AcDbEntity
8
0
100
AcDbLine
62
9
6
CONTINUOUS
10
163.1359599110
20
234.4843750800
11
163.3474698031
21
235.2957854491
0
LWPOLYLINE
5
396
100
AcDbEntity
8
0
100
AcDbPolyline
62
9
6
CONTINUOUS
90
22
70
0
10
163.3474698031
20
235.2957854491
10
163.4579712396
20
235.6266539192
10
163.6136800974
20
235.9464514547
10
163.8119321550
20
236.2497062313
10
164.0493352646
20
236.5312294757
10
164.3218273932
20
236.7862042470
10
164.6247461249
20
237.0102678563
10
164.9529084362
20
237.1995865130
10
165.3006993791
20
237.3509209225
10
165.6621681540
20
237.4616817110
10
166.0311299300
20
237.5299737308
10
166.4012716689
20
237.5546284865
10
166.7662601427
20
237.5352241283
10
167.1198502976
20
237.4720926702
10
167.4559921080
20
237.3663143090
10
167.7689340943
20
237.2196989417
10
168.0533217323
20
237.0347551979
10
168.3042890708
20
236.8146475164
10
168.5175419889
20
236.5631420006
10
168.6894316702
20
236.2845419797
10
168.8170170345
20
235.9836143771
10
168.8953989451
20
235.6761620856
0
LWPOLYLINE
5
397
100
AcDbEntity
8
0
100
AcDbPolyline
62
7
6
CONTINUOUS
90
20
70
0
10
156.6313507793
20
225.8355398844
10
156.3739038651
20
226.0228110452
10
156.2320532210
20
226.1242909560
10
156.0975883964
20
226.2186716121
10
155.9701381508
20
226.3063162791
10
155.8494361191
20
226.3874994696
10
155.7352589521
20
226.4624611345
10
155.6273614648
20
226.5314618997
10
155.5255658938
20
226.5946701566
10
155.4296443829
20
226.6523401829
10
155.3395288842
20
226.7044387553
10
155.2551516424
20
226.7509350390
10
155.1763343286
20
226.7920475029
10
155.1028848568
20
226.8280175418
10
155.0348007070
20
226.8587240454
10
154.9720315766
20
226.8841774297
10
154.9145886934
20
226.9042113487
10
154.8624983449
20
226.9186735183
10
154.8157568165
20
226.9275287454
10
154.8064360258
20
226.9286871648
0
LWPOLYLINE
5
398
100
AcDbEntity
8
0
100
AcDbPolyline
62
9
6
CONTINUOUS
90
15
70
0
10
168.5773871579
20
233.1295165920
10
168.5660688000
20
233.1119576345
10
168.5084562556
20
233.0423043061
10
168.4448363016
20
232.9821171660
10
168.3744560452
20
232.9295487500
10
168.2969906442
20
232.8837398933
10
168.2107723376
20
232.8437819766
10
168.1126957404
20
232.8088925444
10
168.0030632201
20
232.7798959195
10
167.8806022407
20
232.7572577159
10
167.7470805299
20
232.7420174384
10
167.6048832404
20
232.7345442977
10
167.4551400753
20
232.7348037563
10
167.2995294166
20
232.7426488312
10
167.1394785257
20
232.7577477186
0
LWPOLYLINE
5
399
100
AcDbEntity
8
0
100
AcDbPolyline
62
7
6
CONTINUOUS
90
5
70
0
10
156.7134129492
20
221.4162260343
10
156.5157969132
20
221.2363682597
10
156.4104985567
20
221.1354803528
10
156.3009143907
20
221.0181658293
10
156.1870353774
20
220.8868106721
0
LWPOLYLINE
5
39A
100
AcDbEntity
8
0
100
AcDbPolyline
62
9
6
CONTINUOUS
90
31
70
0
10
154.6833432487
20
224.3839250832
10
154.7763264455
20
224.3714690046
10
154.8705740471
20
224.3552508421
10
154.9654853703
20
224.3352527967
10
155.0600484317
20
224.3115878215
10
155.1531914149
20
224.2845560949
10
155.2445368648
20
224.2544871636
10
155.3335170136
20
224.2218842998
10
155.4206696163
20
224.1868293741
10
155.5063748773
20
224.1494086919
10
155.5910812423
20
224.1096619115
10
155.6752970231
20
224.0675137427
10
155.7593334835
20
224.0229432993
10
155.8435470112
20
223.9758903393
10
155.9284549794
20
223.9261696583
10
156.0145276641
20
223.8735353690
10
156.1019935118
20
223.8178648423
10
156.1911761969
20
223.7589529230
10
156.2821994367
20
223.6967141480
10
156.3752318568
20
223.6310109761
10
156.4704117712
20
223.5617361659
10
156.5679223245
20
223.4887594171
10
156.6678802260
20
223.4119951333
10
156.7706791257
20
223.3311096882
10
156.8755415769
20
223.2466711944
10
156.9823030134
20
223.1587312159
10
157.0895186121
20
223.0684952688
10
157.1963923664
20
222.9767769246
10
157.3016668264
20
222.8848657095
10
157.4036127180
20
222.7945032842
10
157.5030529534
20
222.7051371485
0
LWPOLYLINE
5
39B
100
AcDbEntity
8
0
100
AcDbPolyline
62
7
6
CONTINUOUS
90
15
70
0
10
163.3397297279
20
216.0947048702
10
163.2812120818
20
215.7771267585
10
163.2318925873
20
215.4462418243
10
163.1914831283
20
215.1060911871
10
163.1608246957
20
214.7612499325
10
163.1405794320
20
214.4162577103
10
163.1308794336
20
214.0756602365
10
163.1319984763
20
213.7439194111
10
163.1438110574
20
213.4253331879
10
163.1662699175
20
213.1238689196
10
163.1988999836
20
212.8435987205
10
163.2412806803
20
212.5881117278
10
163.2925937373
20
212.3602545318
10
163.3519488904
20
212.1625086310
10
163.4186639438
20
211.9965001759
0
LWPOLYLINE
5
39C
100
AcDbEntity
8
0
100
AcDbPolyline
62
7
6
CONTINUOUS
90
15
70
0
10
162.8993109104
20
215.8841673767
10
162.8374605020
20
215.6266326292
10
162.7837456676
20
215.3618093508
10
162.7378927344
20
215.0878712602
10
162.7007227213
20
214.8102972020
10
162.6729291853
20
214.5327689513
10
162.6546208400
20
214.2588514353
10
162.6461963755
20
213.9922586788
10
162.6474794185
20
213.7362251638
10
162.6585938267
20
213.4942924225
10
162.6790375973
20
213.2692533285
10
162.7086084051
20
213.0645178403
10
162.7465310743
20
212.8817762348
10
162.7918576601
20
212.7242088081
10
162.8449041441
20
212.5907554615
0
LWPOLYLINE
5
39D
100
AcDbEntity
8
0
100
AcDbPolyline
62
7
6
CONTINUOUS
90
13
70
0
10
164.2000402008
20
219.3950934781
10
164.2297579048
20
219.5185908572
10
164.2508664938
20
219.6310054304
10
164.2638054828
20
219.7330586702
10
164.2672563266
20
219.8225861592
10
164.2597634768
20
219.8983425657
10
164.2421774589
20
219.9582921058
10
164.2142363585
20
219.9989514646
10
164.1778219464
20
220.0234179046
10
164.1345323097
20
220.0328667948
10
164.0849565859
20
220.0295805012
10
164.0303568372
20
220.0165674492
10
163.9703123762
20
219.9928248302
0
LWPOLYLINE
5
39E
100
AcDbEntity
8
0
100
AcDbPolyline
62
7
6
CONTINUOUS
90
15
70
0
10
168.8995241290
20
235.6772137603
10
168.8963223950
20
235.6648688220
10
168.8724233424
20
235.5678856961
10
168.8491071328
20
235.4642590878
10
168.8263849388
20
235.3540850938
10
168.8042805367
20
235.2373802116
10
168.7828437154
20
235.1140019474
10
168.7621213151
20
234.9839751980
10
168.7421591609
20
234.8468103612
10
168.7230186509
20
234.7021665377
10
168.7047258410
20
234.5495930560
10
168.6873071358
20
234.3886092646
10
168.6708567767
20
234.2189209042
10
168.6554692427
20
234.0400424425
10
168.6315471255
20
233.7228240013
0
LINE
5
39F
100
AcDbEntity
8
0
100
AcDbLine
62
7
6
CONTINUOUS
10
163.9703123762
20
219.9928248302
11
162.8993109104
21
215.8841673767
0
LINE
5
3A0
100
AcDbEntity
8
0
100
AcDbLine
62
7
6
CONTINUOUS
10
164.2000315160
20
219.3950601609
11
163.3397322234
21
216.0947144436
0
LINE
5
3A1
100
AcDbEntity
8
0
100
AcDbLine
62
9
6
CONTINUOUS
10
169.0720438412
20
236.3391239216
11
169.0718372246
21
236.3383309850
0
LINE
5
3A2
100
AcDbEntity
8
0
100
AcDbLine
62
7
6
CONTINUOUS
10
165.4592158744
20
222.4743894585
11
165.2863299522
21
221.8111513066
0
LWPOLYLINE
5
3A3
100
AcDbEntity
8
0
100
AcDbPolyline
62
7
6
CONTINUOUS
90
32
70
0
10
168.4708169734
20
232.4897715832
10
168.4605234200
20
232.4507519198
10
168.4219844067
20
232.3303848850
10
168.3738098243
20
232.2142264091
10
168.3136285751
20
232.1060384310
10
168.2391037205
20
232.0092196936
10
168.1477335450
20
231.9248100068
10
168.0365703494
20
231.8543291609
10
167.9039754065
20
231.7984271677
10
167.7472146127
20
231.7576142865
10
167.5659096959
20
231.7324216836
10
167.3556412599
20
231.7239361003
10
167.1252605825
20
231.7302093552
10
166.8810690694
20
231.7517499510
10
166.6274436899
20
231.7870574520
10
166.3680498728
20
231.8369762188
10
166.1123749058
20
231.8991090647
10
165.8722060579
20
231.9734089697
10
165.6457796860
20
232.0590278006
10
165.4360678180
20
232.1549105443
10
165.2408857883
20
232.2610559371
10
165.0597098401
20
232.3767864951
10
164.8904533930
20
232.5013513984
10
164.7309505047
20
232.6341749383
10
164.5808030681
20
232.7725517114
10
164.4393698195
20
232.9135058883
10
164.3052160964
20
233.0563982123
10
164.1770551141
20
233.1993035171
10
164.0536598500
20
233.3424934399
10
163.9334804682
20
233.4854100566
10
163.8160347877
20
233.6282510132
10
163.7004000408
20
233.7709415111
0
LINE
5
3A4
100
AcDbEntity
8
0
100
AcDbLine
62
7
6
CONTINUOUS
10
165.2643710790
20
221.7298744420
11
165.2863299522
21
221.8111513066
0
LWPOLYLINE
5
3A5
100
AcDbEntity
8
0
100
AcDbPolyline
62
7
6
CONTINUOUS
90
28
70
0
10
165.4592158744
20
222.4743894585
10
165.4846393861
20
222.5601420018
10
165.5115030704
20
222.6442985572
10
165.5396048747
20
222.7265736639
10
165.5694464185
20
222.8078045486
10
165.6013271352
20
222.8885819164
10
165.6356930789
20
222.9694694719
10
165.6729894116
20
223.0512576728
10
165.7135465058
20
223.1339835634
10
165.7576704143
20
223.2180254948
10
165.8058674457
20
223.3032394116
10
165.8588451968
20
223.3900392363
10
165.9162548822
20
223.4772154962
10
165.9783338209
20
223.5641097641
10
166.0439292654
20
223.6493681727
10
166.1121396986
20
223.7313149532
10
166.1823876810
20
223.8099452640
10
166.2536756291
20
223.8843328586
10
166.3263881730
20
223.9553970858
10
166.4003724926
20
224.0235114562
10
166.4762695246
20
224.0894669549
10
166.5544190547
20
224.1540261253
10
166.6355463391
20
224.2178158926
10
166.7207011486
20
224.2819009937
10
166.8091646496
20
224.3459237633
10
166.9010838337
20
224.4100732042
10
166.9949049879
20
224.4737296658
10
167.0890208620
20
224.5361799552
0
LWPOLYLINE
5
3A6
100
AcDbEntity
8
0
100
AcDbPolyline
62
9
6
CONTINUOUS
90
14
70
0
10
165.2863299522
20
221.8111513066
10
165.3080321681
20
221.8843349629
10
165.3313775064
20
221.9578282778
10
165.3566527825
20
222.0319117735
10
165.3837614587
20
222.1055124152
10
165.4126914127
20
222.1778333199
10
165.4434510561
20
222.2483152421
10
165.4758322404
20
222.3162321531
10
165.5097581817
20
222.3814763721
10
165.5450387888
20
222.4436668147
10
165.5817930411
20
222.5028882519
10
165.6200918953
20
222.5590807468
10
165.6600637682
20
222.6122152728
10
165.7017977470
20
222.6622488214
0
LINE
5
3A7
100
AcDbEntity
8
0
100
AcDbLine
62
7
6
CONTINUOUS
10
165.2642303395
20
221.7302331545
11
165.2657480939
21
221.7351282484
0
LINE
5
3A8
100
AcDbEntity
8
0
100
AcDbLine
62
7
6
CONTINUOUS
10
165.2657480939
20
221.7351282484
11
165.2616706990
21
221.7224054821
0
LINE
5
3A9
100
AcDbEntity
8
0
100
AcDbLine
62
7
6
CONTINUOUS
10
165.2616706990
20
221.7224054821
11
165.2603276161
21
221.7184755065
0
LWPOLYLINE
5
3AA
100
AcDbEntity
8
0
100
AcDbPolyline
62
7
6
CONTINUOUS
90
9
70
0
10
165.2603276161
20
221.7184755065
10
165.2415815055
20
221.6679441842
10
165.2065001595
20
221.5841096359
10
165.1515000376
20
221.4677601522
10
165.0728582729
20
221.3210109754
10
164.9672083826
20
221.1472479968
10
164.8294001184
20
220.9474448142
10
164.6544079960
20
220.7242818855
10
164.4382778239
20
220.4827482866
0
LWPOLYLINE
5
3AB
100
AcDbEntity
8
0
100
AcDbPolyline
62
9
6
CONTINUOUS
90
31
70
0
10
169.0477968941
20
224.4902860441
10
169.6832275106
20
224.4483075970
10
170.3241228023
20
224.4676944047
10
170.9749606567
20
224.5489887162
10
171.6223074114
20
224.6905637843
10
172.2560644136
20
224.8920347196
10
172.8707045222
20
225.1502181969
10
173.4593648551
20
225.4632333403
10
174.0159539823
20
225.8267879126
10
174.5337859377
20
226.2377334030
10
175.0077814471
20
226.6907577559
10
175.4318818527
20
227.1814652630
10
175.8023393385
20
227.7039583716
10
176.1142116987
20
228.2530244572
10
176.3650234448
20
228.8222130268
10
176.5509731576
20
229.4055228631
10
176.6710964228
20
229.9963935137
10
176.7229807906
20
230.5884308473
10
176.7071689477
20
231.1751346835
10
176.6227273240
20
231.7498774247
10
176.4716722400
20
232.3066471912
10
176.2545483690
20
232.8390533959
10
175.9748370823
20
233.3416045644
10
175.6346334694
20
233.8081645947
10
175.2386410490
20
234.2342767820
10
174.7904244346
20
234.6145397976
10
174.2954954308
20
234.9456514112
10
173.7574767869
20
235.2233744505
10
173.1856002826
20
235.4451124128
10
172.5916102013
20
235.6063552928
10
171.9715917819
20
235.7086064256
0
LINE
5
3AC
100
AcDbEntity
8
0
100
AcDbLine
62
9
6
CONTINUOUS
10
153.2911745595
20
226.3000889440
11
155.0162220366
21
226.1019502910
0
LINE
5
3AD
100
AcDbEntity
8
0
100
AcDbLine
62
9
6
CONTINUOUS
10
167.3225173227
20
224.6884513555
11
169.0477968941
21
224.4902860441
0
LWPOLYLINE
5
3AE
100
AcDbEntity
8
0
100
AcDbPolyline
62
7
6
CONTINUOUS
90
14
70
0
10
157.7403465900
20
225.2087049765
10
157.7095174670
20
225.2135104861
10
157.6201684794
20
225.2358290096
10
157.5292243379
20
225.2694352456
10
157.4374866988
20
225.3119441433
10
157.3460150932
20
225.3603523943
10
157.2556489888
20
225.4129029785
10
157.1681252991
20
225.4666898720
10
157.0821233680
20
225.5221483138
10
156.9978732612
20
225.5781409157
10
156.9127390291
20
225.6363348104
10
156.8251140319
20
225.6973028143
10
156.7324507948
20
225.7629413633
10
156.6313507793
20
225.8355398844
0
LWPOLYLINE
5
3AF
100
AcDbEntity
8
0
100
AcDbPolyline
62
9
6
CONTINUOUS
90
31
70
0
10
153.2911745595
20
226.3000889440
10
152.6712939819
20
226.4022953223
10
152.0773866058
20
226.5635113495
10
151.5055238857
20
226.7852448363
10
150.9674914576
20
227.0629723510
10
150.4725624538
20
227.3940839646
10
150.0243458394
20
227.7743469803
10
149.6283534190
20
228.2004591676
10
149.2881498061
20
228.6670191979
10
149.0084385194
20
229.1695703664
10
148.7913146484
20
229.7019765710
10
148.6402595644
20
230.2587463376
10
148.5558179407
20
230.8334890788
10
148.5400060977
20
231.4201929150
10
148.5918904656
20
232.0122302486
10
148.7120137308
20
232.6031008992
10
148.8979634436
20
233.1864107355
10
149.1487751897
20
233.7555993050
10
149.4606475499
20
234.3046653907
10
149.8311050357
20
234.8271584993
10
150.2552054413
20
235.3178660064
10
150.7292009506
20
235.7708903593
10
151.2470329061
20
236.1818358497
10
151.8036220333
20
236.5453904219
10
152.3922823662
20
236.8584055653
10
153.0069224748
20
237.1165890427
10
153.6406794770
20
237.3180599780
10
154.2879964640
20
237.4596355730
10
154.9388640861
20
237.5409293576
10
155.5799379841
20
237.5603130038
10
156.2156662777
20
237.5183292877
0
LWPOLYLINE
5
3B0
100
AcDbEntity
8
0
100
AcDbPolyline
62
7
6
CONTINUOUS
90
10
70
0
10
168.6315471255
20
233.7228240013
10
168.6104378254
20
233.4651934162
10
168.5987694646
20
233.3367651639
10
168.5861066509
20
233.2085325620
10
168.5719932461
20
233.0806370098
10
168.5561899160
20
232.9530765364
10
168.5379136886
20
232.8261152446
10
168.5168404435
20
232.6996873816
10
168.4913586697
20
232.5745974565
10
168.4708169734
20
232.4897715832
0
LINE
5
3B1
100
AcDbEntity
8
0
100
AcDbLine
62
9
6
CONTINUOUS
10
170.5796358163
20
237.6244774322
11
170.1621981322
21
236.0230711711
0
LINE
5
3B2
100
AcDbEntity
8
0
100
AcDbLine
62
9
6
CONTINUOUS
10
167.1839496231
20
224.5976872420
11
166.7665181789
21
222.9963049207
0
LWPOLYLINE
5
3B3
100
AcDbEntity
8
0
100
AcDbPolyline
62
7
6
CONTINUOUS
90
4
70
0
10
163.9703123762
20
219.9928248302
10
164.0957153265
20
220.1358870724
10
164.2172134186
20
220.2644232970
10
164.4382778239
20
220.4827482866
0
LWPOLYLINE
5
3B4
100
AcDbEntity
8
0
100
AcDbPolyline
62
9
6
CONTINUOUS
90
16
70
0
10
165.7017977470
20
222.6622488214
10
165.7453813976
20
222.7091611389
10
165.7908758445
20
222.7528726217
10
165.8384982198
20
222.7934414787
10
165.8883545573
20
222.8307911596
10
165.9409652903
20
222.8651047346
10
165.9968506668
20
222.8963320610
10
166.0569584260
20
222.9245442543
10
166.1224086022
20
222.9496680597
10
166.1940815850
20
222.9712678388
10
166.2733185588
20
222.9888869605
10
166.3599435657
20
223.0016862262
10
166.4537521593
20
223.0089663124
10
166.5537721223
20
223.0103595613
10
166.6584006412
20
223.0059674085
10
166.7664546003
20
222.9960610157
0
LINE
5
3B5
100
AcDbEntity
8
0
100
AcDbLine
62
7
6
CONTINUOUS
10
167.4847909397
20
224.7953713975
11
167.2534639013
21
224.6428256291
0
LINE
5
3B6
100
AcDbEntity
8
0
100
AcDbLine
62
7
6
CONTINUOUS
10
167.2534639013
20
224.6428256291
11
167.0890208620
21
224.5361799552
0
LWPOLYLINE
5
3B7
100
AcDbEntity
8
0
100
AcDbPolyline
62
7
6
CONTINUOUS
90
15
70
0
10
167.4847909397
20
224.7953713975
10
167.6418910442
20
224.8939414111
10
167.7947732683
20
224.9843149690
10
167.9404632892
20
225.0641242229
10
168.0764922323
20
225.1304530874
10
168.2032025296
20
225.1846746422
10
168.3196065820
20
225.2266869485
10
168.4274939850
20
225.2583735811
10
168.5279327827
20
225.2814647367
10
168.6218122626
20
225.2969179850
10
168.7101550285
20
225.3061755856
10
168.7933745843
20
225.3098746056
10
168.8720267204
20
225.3090207223
10
168.9465577757
20
225.3041473501
10
168.9823129203
20
225.3005789412
0
LWPOLYLINE
5
3B8
100
AcDbEntity
8
0
100
AcDbPolyline
62
7
6
CONTINUOUS
90
17
70
0
10
154.8064360258
20
226.9286871648
10
154.7742354795
20
226.9308338870
10
154.7384135334
20
226.9281687006
10
154.7086573907
20
226.9191993548
10
154.6851938894
20
226.9037677156
10
154.6683242026
20
226.8816634870
10
154.6582058341
20
226.8527530074
10
154.6549755983
20
226.8171454568
10
154.6590465080
20
226.7739502238
10
154.6706455290
20
226.7228430201
10
154.6908242504
20
226.6623769161
10
154.7208445083
20
226.5907801249
10
154.7608646708
20
226.5090201670
10
154.8119811332
20
226.4164124045
10
154.8724318810
20
226.3162415239
10
154.9402907026
20
226.2117021904
10
155.0162220364
20
226.1019502911
0
LWPOLYLINE
5
3B9
100
AcDbEntity
8
0
100
AcDbPolyline
62
9
6
CONTINUOUS
90
21
70
0
10
154.0161363706
20
227.0194890153
10
153.9902612270
20
227.0220456551
10
153.9428363933
20
227.0244506615
10
153.8969734663
20
227.0236354119
10
153.8526506442
20
227.0195316819
10
153.8098640948
20
227.0120846945
10
153.7686019541
20
227.0012681762
10
153.7289155737
20
226.9870414510
10
153.6906423648
20
226.9693095970
10
153.6537646803
20
226.9479982886
10
153.6179346941
20
226.9227530114
10
153.5829521903
20
226.8931035485
10
153.5484114381
20
226.8582555597
10
153.5138822617
20
226.8170529488
10
153.4794434343
20
226.7685428807
10
153.4449840918
20
226.7113660055
10
153.4111048713
20
226.6452504116
10
153.3783162927
20
226.5700656221
10
153.3471457925
20
226.4865332552
10
153.3180461853
20
226.3961883731
10
153.2911745595
20
226.3000889440
0
LINE
5
3BA
100
AcDbEntity
8
0
100
AcDbLine
62
7
6
CONTINUOUS
10
169.7725263926
20
225.2097127988
11
168.9822411848
21
225.3004848203
0
LINE
5
3BB
100
AcDbEntity
8
0
100
AcDbLine
62
7
6
CONTINUOUS
10
154.8064215785
20
226.9287169939
11
154.0161363706
21
227.0194890153
0
LINE
5
3BC
100
AcDbEntity
8
0
100
AcDbLine
62
9
6
CONTINUOUS
10
169.7725263926
20
225.2097127988
11
169.7726643591
21
225.2096969404
0
LINE
5
3BD
100
AcDbEntity
8
0
100
AcDbLine
62
9
6
CONTINUOUS
10
154.0167392109
20
227.0194195518
11
154.0161363706
21
227.0194890153
0
LWPOLYLINE
5
3BE
100
AcDbEntity
8
0
100
AcDbPolyline
62
7
6
CONTINUOUS
90
9
70
0
10
154.0167392109
20
227.0194195518
10
153.9454099751
20
227.0282700030
10
153.7557509699
20
227.0587263652
10
153.6026245553
20
227.0916352900
10
153.4860687151
20
227.1226500433
10
153.4059283217
20
227.1477357938
10
153.3593324669
20
227.1643435021
10
153.3462795805
20
227.1695227315
10
153.3471475082
20
227.1691648162
0
LWPOLYLINE
5
3BF
100
AcDbEntity
8
0
100
AcDbPolyline
62
9
6
CONTINUOUS
90
23
70
0
10
169.0475645815
20
224.4903127275
10
169.0705082046
20
224.5731839201
10
169.0950877457
20
224.6518472506
10
169.1212017913
20
224.7256494658
10
169.1485933013
20
224.7936089719
10
169.1769312187
20
224.8549828510
10
169.2060022914
20
224.9098207406
10
169.2354694871
20
224.9582101435
10
169.2654534498
20
225.0009620342
10
169.2960161843
20
225.0386377228
10
169.3272763491
20
225.0718232200
10
169.3594019591
20
225.1009739790
10
169.3924862644
20
225.1263761167
10
169.4266634132
20
225.1483071699
10
169.4620844935
20
225.1670107621
10
169.4989557578
20
225.1826100043
10
169.5372838730
20
225.1951156668
10
169.5771568361
20
225.2045528363
10
169.6185685586
20
225.2109332695
10
169.6615481442
20
225.2142489986
10
169.7061007253
20
225.2145202999
10
169.7522542898
20
225.2117872522
10
169.7725263926
20
225.2097127988
0
LWPOLYLINE
5
3C0
100
AcDbEntity
8
0
100
AcDbPolyline
62
9
6
CONTINUOUS
90
9
70
0
10
164.2000315160
20
219.3950601609
10
164.6639917636
20
219.7552850986
10
165.0906178065
20
220.1460012622
10
165.4815427083
20
220.5691299671
10
165.8318672780
20
221.0189072670
10
166.1380329823
20
221.4921995857
10
166.3976509112
20
221.9830371280
10
166.6066990907
20
222.4835287829
10
166.7665181789
20
222.9963049207
0
LWPOLYLINE
5
3C1
100
AcDbEntity
8
0
100
AcDbPolyline
62
7
6
CONTINUOUS
90
34
70
0
10
162.9448777236
20
234.7260060989
10
162.7580846166
20
234.9563037035
10
162.5758624315
20
235.1751261147
10
162.3978939041
20
235.3831205473
10
162.2239916011
20
235.5807384182
10
162.0539793062
20
235.7683919050
10
161.8876481606
20
235.9465383292
10
161.7248503167
20
236.1154607042
10
161.5654219694
20
236.2755548071
10
161.4091565785
20
236.4269077762
10
161.2558124491
20
236.5696275813
10
161.1052951412
20
236.7039996468
10
160.9575209273
20
236.8303248238
10
160.8121902111
20
236.9486416015
10
160.6691106225
20
237.0590563998
10
160.5278551628
20
237.1616096818
10
160.3880199881
20
237.2563273934
10
160.2493287554
20
237.3432748491
10
160.1112503037
20
237.4227473077
10
159.9741453059
20
237.4940101109
10
159.8381795330
20
237.5565271169
10
159.7034535761
20
237.6099874515
10
159.5701903229
20
237.6539533994
10
159.4382354354
20
237.6882614191
10
159.3080865377
20
237.7126880004
10
159.1780583543
20
237.7269352618
10
159.0471900137
20
237.7309188610
10
158.9139231849
20
237.7234647993
10
158.7756731962
20
237.7033490916
10
158.6348447483
20
237.6701597139
10
158.4920100325
20
237.6224076627
10
158.3502164922
20
237.5623036596
10
158.2128779646
20
237.4920732031
10
158.0790982811
20
237.4109793595
0
LINE
5
3C2
100
AcDbEntity
8
0
100
AcDbLine
62
7
6
CONTINUOUS
10
163.7004000408
20
233.7709415111
11
163.4730146728
21
234.0561202502
0
LINE
5
3C3
100
AcDbEntity
8
0
100
AcDbLine
62
7
6
CONTINUOUS
10
163.4730146728
20
234.0561202502
11
162.9448777236
21
234.7260060989
0
LWPOLYLINE
5
3C4
100
AcDbEntity
8
0
100
AcDbPolyline
62
7
6
CONTINUOUS
90
14
70
0
10
172.1635839763
20
225.5430811052
10
172.1734706551
20
225.6977873566
10
172.1801952414
20
225.9406807642
10
172.1795712923
20
226.1764679677
10
172.1732188631
20
226.4058164359
10
172.1624557510
20
226.6284798814
10
172.1484214717
20
226.8452019947
10
172.1319315292
20
227.0570445837
10
172.1138414650
20
227.2626980430
10
172.0948924657
20
227.4606426129
10
172.0753441587
20
227.6524421431
10
172.0554571484
20
227.8387785241
10
172.0352886895
20
228.0208620854
10
171.9941633490
20
228.3766939914
0
LINE
5
3C5
100
AcDbEntity
8
0
100
AcDbLine
62
9
6
CONTINUOUS
10
154.2204235882
20
213.0530084628
11
155.0616271453
21
213.4847413034
0
LINE
5
3C6
100
AcDbEntity
8
0
100
AcDbLine
62
9
6
CONTINUOUS
10
172.7378364341
20
229.3160199679
11
171.8638724057
21
229.4164033242
0
LINE
5
3C7
100
AcDbEntity
8
0
100
AcDbLine
62
9
6
CONTINUOUS
10
157.8554104405
20
231.0254128282
11
156.9814464121
21
231.1257961844
0
LINE
5
3C8
100
AcDbEntity
8
0
100
AcDbLine
62
9
6
CONTINUOUS
10
163.9328311489
20
234.6694973742
11
163.6942196803
21
234.9226048154
0
LWPOLYLINE
5
3C9
100
AcDbEntity
8
0
100
AcDbPolyline
62
9
6
CONTINUOUS
90
42
70
0
10
163.1779778280
20
235.4787200594
10
163.0127680511
20
235.6549981041
10
162.8520968374
20
235.8244876572
10
162.6957249510
20
235.9875658979
10
162.5434865332
20
236.1444935247
10
162.3952429432
20
236.2954874668
10
162.2508436642
20
236.4407805448
10
162.1101744049
20
236.5805868387
10
161.9730906933
20
236.7151489217
10
161.8395185543
20
236.8446154655
10
161.7093082347
20
236.9691629418
10
161.5822864236
20
237.0889401367
10
161.4582994908
20
237.2040979399
10
161.3372236321
20
237.3148053373
10
161.2189701930
20
237.4212425916
10
161.1034849466
20
237.5235379061
10
160.9906399340
20
237.6218279191
10
160.8802257933
20
237.7162425443
10
160.7720392906
20
237.8068896293
10
160.6658303180
20
237.8939475053
10
160.5613936315
20
237.9776249968
10
160.4587608523
20
238.0579626462
10
160.3577776983
20
238.1350665111
10
160.2584615136
20
238.2088955433
10
160.1607688154
20
238.2794192545
10
160.0646174769
20
238.3466522917
10
159.9699705318
20
238.4105853269
10
159.8767889042
20
238.4712293763
10
159.7851598763
20
238.5284939897
10
159.6946890892
20
238.5826033143
10
159.6053001399
20
238.6335637598
10
159.5160699989
20
238.6818128750
10
159.4263279137
20
238.7275283096
10
159.3347974049
20
238.7711145464
10
159.2399609032
20
238.8129129632
10
159.1414856093
20
238.8525369744
10
159.0384238461
20
238.8897791505
10
158.9319063875
20
238.9236374738
10
158.8229471787
20
238.9532881845
10
158.7130428018
20
238.9781185796
10
158.6039578935
20
238.9978575510
10
158.4965806879
20
239.0125571874
0
LINE
5
3CA
100
AcDbEntity
8
0
100
AcDbLine
62
9
6
CONTINUOUS
10
163.6942196803
20
234.9226048154
11
163.1779778280
21
235.4787200594
0
LWPOLYLINE
5
3CB
100
AcDbEntity
8
0
100
AcDbPolyline
62
7
6
CONTINUOUS
90
30
70
0
10
171.4464309864
20
232.1476718822
10
171.4163004454
20
232.3124791475
10
171.3865760975
20
232.4710108133
10
171.3570411421
20
232.6245565612
10
171.3275710871
20
232.7739325957
10
171.2978751530
20
232.9204678016
10
171.2676841395
20
233.0653770225
10
171.2366795084
20
233.2098535591
10
171.2044623565
20
233.3554132672
10
171.1708496603
20
233.5023218265
10
171.1355042982
20
233.6515554956
10
171.0983639853
20
233.8024835063
10
171.0591568032
20
233.9553471341
10
171.0180897778
20
234.1084475829
10
170.9750266279
20
234.2612213452
10
170.9307793222
20
234.4104196167
10
170.8862075156
20
234.5525989367
10
170.8414256531
20
234.6877514741
10
170.7970343597
20
234.8142200312
10
170.7526394809
20
234.9335526513
10
170.7081677048
20
235.0463324478
10
170.6631756421
20
235.1538147132
10
170.6173315460
20
235.2570572173
10
170.5700430036
20
235.3571978486
10
170.5203969141
20
235.4560144522
10
170.4687577882
20
235.5525290206
10
170.4150070580
20
235.6466629525
10
170.3597568317
20
235.7375059539
10
170.3037563595
20
235.8240934206
10
170.2467648521
20
235.9066734709
0
LINE
5
3CC
100
AcDbEntity
8
0
100
AcDbLine
62
7
6
CONTINUOUS
10
171.5077416369
20
231.7992826988
11
171.4464309864
21
232.1476718822
0
LINE
5
3CD
100
AcDbEntity
8
0
100
AcDbLine
62
7
6
CONTINUOUS
10
171.5703185637
20
231.4255481356
11
171.5077416369
21
231.7992826988
0
LINE
5
3CE
100
AcDbEntity
8
0
100
AcDbLine
62
7
6
CONTINUOUS
10
171.6338905844
20
231.0268847783
11
171.5703185637
21
231.4255481356
0
LINE
5
3CF
100
AcDbEntity
8
0
100
AcDbLine
62
7
6
CONTINUOUS
10
171.6983941214
20
230.6022891142
11
171.6338905844
21
231.0268847783
0
LINE
5
3D0
100
AcDbEntity
8
0
100
AcDbLine
62
7
6
CONTINUOUS
10
171.7638847131
20
230.1498982717
11
171.6983941214
21
230.6022891142
0
LINE
5
3D1
100
AcDbEntity
8
0
100
AcDbLine
62
7
6
CONTINUOUS
10
171.8303375350
20
229.6682893844
11
171.7638847131
21
230.1498982717
0
LINE
5
3D2
100
AcDbEntity
8
0
100
AcDbLine
62
7
6
CONTINUOUS
10
171.8864128772
20
229.2438297745
11
171.8303375350
21
229.6682893844
0
LINE
5
3D3
100
AcDbEntity
8
0
100
AcDbLine
62
7
6
CONTINUOUS
10
171.9527062759
20
228.7196788704
11
171.8864128772
21
229.2438297745
0
LINE
5
3D4
100
AcDbEntity
8
0
100
AcDbLine
62
7
6
CONTINUOUS
10
171.9941633490
20
228.3766939914
11
171.9527062759
21
228.7196788704
0
LWPOLYLINE
5
3D5
100
AcDbEntity
8
0
100
AcDbPolyline
62
9
6
CONTINUOUS
90
15
70
0
10
173.2929502944
20
226.1227220170
10
173.2903346949
20
226.2310667007
10
173.2839526174
20
226.3700676264
10
173.2742191573
20
226.5131227515
10
173.2610405623
20
226.6596957295
10
173.2443458171
20
226.8104601687
10
173.2243859393
20
226.9637821945
10
173.2014740620
20
227.1189368462
10
173.1759438954
20
227.2755935663
10
173.1481888890
20
227.4328668781
10
173.1182334189
20
227.5919340637
10
173.0862526389
20
227.7535955803
10
173.0523381231
20
227.9187601191
10
173.0163262592
20
228.0886273027
10
172.9394283109
20
228.4383645015
0
LWPOLYLINE
5
3D6
100
AcDbEntity
8
0
100
AcDbPolyline
62
7
6
CONTINUOUS
90
26
70
0
10
175.0459585095
20
228.1287057316
10
175.0483846069
20
228.1373500289
10
175.0477551619
20
228.1356334749
10
175.0359896570
20
228.1024673504
10
175.0063511304
20
228.0282544709
10
174.9581838518
20
227.9217580921
10
174.8909006892
20
227.7902038438
10
174.7987947088
20
227.6309334995
10
174.6759368645
20
227.4432487899
10
174.5196320135
20
227.2326728528
10
174.3259345668
20
227.0030647292
10
174.0961583543
20
226.7640916498
10
173.8326145370
20
226.5243296934
10
173.5377824050
20
226.2906796958
10
173.2156638243
20
226.0697025986
10
172.8719248908
20
225.8673721211
10
172.5138968502
20
225.6887229428
10
172.1467258975
20
225.5360723946
10
171.7763662394
20
225.4110456233
10
171.4097023578
20
225.3144127463
10
171.0534938992
20
225.2456783226
10
170.7138505553
20
225.2031362925
10
170.3958949045
20
225.1840901120
10
170.1069235702
20
225.1850308140
10
169.8545292588
20
225.2011527885
10
169.7726643591
20
225.2096969404
0
LINE
5
3D7
100
AcDbEntity
8
0
100
AcDbLine
62
7
6
CONTINUOUS
10
163.3397297279
20
216.0947048702
11
162.8993109104
21
215.8841673767
0
LWPOLYLINE
5
3D8
100
AcDbEntity
8
0
100
AcDbPolyline
62
9
6
CONTINUOUS
90
28
70
0
10
167.1394785257
20
232.7577477186
10
167.0093426480
20
232.7747824199
10
166.8785853660
20
232.7960911830
10
166.7480646482
20
232.8215781701
10
166.6178672693
20
232.8512218219
10
166.4879249761
20
232.8850886446
10
166.3597229835
20
232.9228134227
10
166.2346805114
20
232.9639143840
10
166.1126486587
20
233.0082802578
10
165.9943493474
20
233.0554535250
10
165.8782378766
20
233.1059633864
10
165.7634645997
20
233.1602888685
10
165.6494588739
20
233.2188655202
10
165.5355466934
20
233.2821871698
10
165.4214695237
20
233.3506485031
10
165.3067142018
20
233.4249134112
10
165.1918195996
20
233.5048601539
10
165.0762664391
20
233.5908685313
10
164.9612479517
20
233.6819222997
10
164.8471247967
20
233.7773278646
10
164.7339015912
20
233.8765394050
10
164.6220098303
20
233.9786965063
10
164.5104174034
20
234.0842849913
10
164.3982899631
20
234.1934444458
10
164.2847699692
20
234.3064624014
10
164.1689632556
20
234.4240607332
10
164.0516685266
20
234.5451912626
10
163.9328311489
20
234.6694973742
0
LWPOLYLINE
5
3D9
100
AcDbEntity
8
0
100
AcDbPolyline
62
9
6
CONTINUOUS
90
10
70
0
10
174.8153316670
20
227.6595293303
10
174.7885933259
20
227.7644102168
10
174.6610079616
20
228.0653378193
10
174.4891182803
20
228.3439378403
10
174.2758653622
20
228.5954433561
10
174.0248980237
20
228.8155510376
10
173.7405103857
20
229.0004947813
10
173.4275683994
20
229.1471101486
10
173.0914265890
20
229.2528885098
10
172.7378364341
20
229.3160199679
0
LINE
5
3DA
100
AcDbEntity
8
0
100
AcDbLine
62
9
6
CONTINUOUS
10
172.8585961734
20
228.7948159329
11
172.6218739411
21
229.8185753845
0
LINE
5
3DB
100
AcDbEntity
8
0
100
AcDbLine
62
9
6
CONTINUOUS
10
172.9394283109
20
228.4383645015
11
172.8585961734
21
228.7948159329
0
LINE
5
3DC
100
AcDbEntity
8
0
100
AcDbLine
62
9
6
CONTINUOUS
10
172.6218739411
20
229.8185753845
11
172.5167567378
21
230.2900043051
0
LINE
5
3DD
100
AcDbEntity
8
0
100
AcDbLine
62
9
6
CONTINUOUS
10
172.5167567378
20
230.2900043051
11
172.4215995456
21
230.7324489807
0
LINE
5
3DE
100
AcDbEntity
8
0
100
AcDbLine
62
9
6
CONTINUOUS
10
172.4215995456
20
230.7324489807
11
172.3356400783
21
231.1479900854
0
LWPOLYLINE
5
3DF
100
AcDbEntity
8
0
100
AcDbPolyline
62
9
6
CONTINUOUS
90
34
70
0
10
172.3356400783
20
231.1479900854
10
172.2581149083
20
231.5385382362
10
172.2223379381
20
231.7249471683
10
172.1884936333
20
231.9057622417
10
172.1565373159
20
232.0812058902
10
172.1264038811
20
232.2514855936
10
172.0980103200
20
232.4167854587
10
172.0712948740
20
232.5772287593
10
172.0462136527
20
232.7330072576
10
172.0227523393
20
232.8843787151
10
172.0009082184
20
233.0315823304
10
171.9806499248
20
233.1749397653
10
171.9619133224
20
233.3147524294
10
171.9446636890
20
233.4510170727
10
171.9288841801
20
233.5839295239
10
171.9145945671
20
233.7134503120
10
171.9018271674
20
233.8395985083
10
171.8905986212
20
233.9624533722
10
171.8809261770
20
234.0820410014
10
171.8728152581
20
234.1984014399
10
171.8662940835
20
234.3114052591
10
171.8613482015
20
234.4215258636
10
171.8579974774
20
234.5288328539
10
171.8562617049
20
234.6343820179
10
171.8562413823
20
234.7388567815
10
171.8580870894
20
234.8435969449
10
171.8620635738
20
234.9501123303
10
171.8685122400
20
235.0584574734
10
171.8778566555
20
235.1693231553
10
171.8903586293
20
235.2811375760
10
171.9062066020
20
235.3925337515
10
171.9253100370
20
235.5018655008
10
171.9472856226
20
235.6074594150
10
171.9718240424
20
235.7085797544
0
LWPOLYLINE
5
3E0
100
AcDbEntity
8
0
100
AcDbPolyline
62
7
6
CONTINUOUS
90
30
70
0
10
170.1621981319
20
236.0230711716
10
170.1024048923
20
236.1012048865
10
170.0423645258
20
236.1742545023
10
169.9818302387
20
236.2426579408
10
169.9217535524
20
236.3049984633
10
169.8630664036
20
236.3600283631
10
169.8058261749
20
236.4078599933
10
169.7506215182
20
236.4480621479
10
169.6968258898
20
236.4810748608
10
169.6439756773
20
236.5072511346
10
169.5919988974
20
236.5262618982
10
169.5406157628
20
236.5380030519
10
169.4899062110
20
236.5420402848
10
169.4396419234
20
236.5378922696
10
169.3904538285
20
236.5255380662
10
169.3426946251
20
236.5044766715
10
169.2970606908
20
236.4758188752
10
169.2545113468
20
236.4402789913
10
169.2146936160
20
236.3988539933
10
169.1776817392
20
236.3526637074
10
169.1430828521
20
236.3020925196
10
169.1105722498
20
236.2479242884
10
169.0799346293
20
236.1899963471
10
169.0509252675
20
236.1285011962
10
169.0232582108
20
236.0630594185
10
168.9966264403
20
235.9934550735
10
168.9708188841
20
235.9192712154
10
168.9455147677
20
235.8401701433
10
168.9207261086
20
235.7555886511
10
168.8995241290
20
235.6772137603
0
LWPOLYLINE
5
3E1
100
AcDbEntity
8
0
100
AcDbPolyline
62
7
6
CONTINUOUS
90
5
70
0
10
170.1621981322
20
236.0230711711
10
170.1836008676
20
235.9940953004
10
170.2048295660
20
235.9650370601
10
170.2258842275
20
235.9358964504
10
170.2467648520
20
235.9066734711
0
LWPOLYLINE
5
3E2
100
AcDbEntity
8
0
100
AcDbPolyline
62
9
6
CONTINUOUS
90
32
70
0
10
170.5796920395
20
237.6246931199
10
170.4892801304
20
237.6333357782
10
170.4011248111
20
237.6381678488
10
170.3158739315
20
237.6390267648
10
170.2345784347
20
237.6357935762
10
170.1581472190
20
237.6285415646
10
170.0867178396
20
237.6175489806
10
170.0204966914
20
237.6032594317
10
169.9586865855
20
237.5858824352
10
169.9007534798
20
237.5655888887
10
169.8460949707
20
237.5424924427
10
169.7941794223
20
237.5165902714
10
169.7446830590
20
237.4878954563
10
169.6972552245
20
237.4563681561
10
169.6515602737
20
237.4219332626
10
169.6073199602
20
237.3843966573
10
169.5645193099
20
237.3437550691
10
169.5230630598
20
237.2999137064
10
169.4829461138
20
237.2528850288
10
169.4441508636
20
237.2026305740
10
169.4066555126
20
237.1491530400
10
169.3704021190
20
237.0924363237
10
169.3353480108
20
237.0325123405
10
169.3015013213
20
236.9694264590
10
169.2687975887
20
236.9030474561
10
169.2373078053
20
236.8332716117
10
169.2070339341
20
236.7599318670
10
169.1778970178
20
236.6828972917
10
169.1497886534
20
236.6020706020
10
169.1226142347
20
236.5173412831
10
169.0963720070
20
236.4285730027
10
169.0720438412
20
236.3391239216
0
LINE
5
3E3
100
AcDbEntity
8
0
100
AcDbLine
62
9
6
CONTINUOUS
10
170.2467648520
20
235.9066734711
11
171.9715917819
21
235.7086064256
0
LINE
5
3E4
100
AcDbEntity
8
0
100
AcDbLine
62
9
6
CONTINUOUS
10
156.2156662777
20
237.5183292877
11
157.9404695650
21
237.3201724063
0
LINE
5
3E5
100
AcDbEntity
8
0
100
AcDbLine
62
2
6
CONTINUOUS
10
182.6569681204
20
215.2351462956
11
186.4140128196
21
223.3437929985
0
LINE
5
3E6
100
AcDbEntity
8
0
100
AcDbLine
62
2
6
CONTINUOUS
10
177.5613237730
20
208.4472615649
11
182.6569681204
21
215.2351462956
0
LWPOLYLINE
5
3E7
100
AcDbEntity
8
0
100
AcDbPolyline
62
7
6
CONTINUOUS
90
41
70
0
10
181.3927436325
20
238.0990858306
10
180.7581926543
20
239.3137111432
10
180.0165685954
20
240.4729352999
10
179.1719733168
20
241.5687439751
10
178.2287108926
20
242.5941956221
10
177.1915402181
20
243.5427481796
10
176.0666000453
20
244.4075599416
10
174.8596639975
20
245.1830453224
10
173.5800217790
20
245.8624664771
10
172.2391009917
20
246.4399598010
10
170.8405236145
20
246.9140187765
10
169.3866866111
20
247.2824945749
10
167.8921612601
20
247.5404203677
10
166.3708649586
20
247.6854275895
10
164.8304742615
20
247.7171365516
10
163.2802076057
20
247.6354466891
10
161.7297375852
20
247.4409061864
10
160.1881236140
20
247.1346113089
10
158.6663859096
20
246.7187814232
10
157.1754014168
20
246.1967196484
10
155.7235463563
20
245.5717449961
10
154.3195470698
20
244.8478597802
10
152.9717796587
20
244.0295443625
10
151.6878319930
20
243.1213951742
10
150.4769358707
20
242.1299889560
10
149.3476304867
20
241.0627857895
10
148.3057541576
20
239.9258571623
10
147.3572310609
20
238.7259910065
10
146.5076042581
20
237.4704082374
10
145.7612236292
20
236.1653674750
10
145.1244793794
20
234.8223722575
10
144.6024239250
20
233.4550424453
10
144.1948797107
20
232.0663418122
10
143.9029510236
20
230.6596745115
10
143.7294197774
20
229.2470217041
10
143.6751765999
20
227.8393694400
10
143.7398749334
20
226.4441765526
10
143.9225857577
20
225.0700355949
10
144.2218323977
20
223.7245075284
10
144.6356811813
20
222.4149870332
10
145.1611358117
20
221.1500270154
0
LINE
5
3E8
100
AcDbEntity
8
0
100
AcDbLine
62
7
6
CONTINUOUS
10
187.1676895271
20
225.7541186487
11
181.3927436325
21
238.0990858306
0
LWPOLYLINE
5
3E9
100
AcDbEntity
8
0
100
AcDbPolyline
62
9
6
CONTINUOUS
90
27
70
0
10
181.3927436325
20
238.0990858306
10
181.6753998464
20
237.4555952201
10
182.1212702138
20
236.2188985127
10
182.4576764655
20
234.9438979027
10
182.6826650673
20
233.6379983522
10
182.7949291683
20
232.3087852221
10
182.7938166086
20
230.9639799284
10
182.6793338882
20
229.6113943878
10
182.4521460432
20
228.2588853799
10
182.1135727566
20
226.9143092888
10
181.6655807407
20
225.5854765397
10
181.1107722878
20
224.2801060653
10
180.4523701883
20
223.0057805626
10
179.6941989925
20
221.7699023835
10
178.8406627852
20
220.5796505291
10
177.8967196153
20
219.4419389709
10
176.8678526822
20
218.3633764730
10
175.7600384933
20
217.3502282152
10
174.5797121491
20
216.4083794003
10
173.3337299593
20
215.5433010639
10
172.0293296203
20
214.7600182973
10
170.6740881708
20
214.0630810559
10
169.2758779685
20
213.4565377243
10
167.8428130766
20
212.9439090732
10
166.3832415541
20
212.5281804595
10
164.9056667029
20
212.2117678996
10
163.4186639438
20
211.9965001759
0
LINE
5
3EA
100
AcDbEntity
8
0
100
AcDbLine
62
2
6
CONTINUOUS
10
186.4140128196
20
223.3437929985
11
187.1676895271
21
225.7541186487
0
LINE
5
3EB
100
AcDbEntity
8
0
100
AcDbLine
62
2
6
CONTINUOUS
10
170.9256012440
20
204.0201556995
11
177.5613237730
21
208.4472615649
0
LWPOLYLINE
5
3EC
100
AcDbEntity
8
0
100
AcDbPolyline
62
9
6
CONTINUOUS
90
33
70
0
10
161.2915197243
20
245.8130986202
10
159.9815775907
20
245.5336189120
10
158.6882996252
20
245.1627847098
10
157.4200525980
20
244.7020842262
10
156.1845753121
20
244.1552586147
10
154.9900201135
20
243.5249626519
10
153.8435131432
20
242.8159436810
10
152.7527867776
20
242.0319560651
10
151.7241746567
20
241.1786335209
10
150.7647940778
20
240.2607352331
10
149.8800264462
20
239.2846391619
10
149.0761944666
20
238.2559892507
10
148.3575915372
20
237.1817467349
10
147.7295862280
20
236.0682978050
10
147.1952757286
20
234.9230115393
10
146.7589391950
20
233.7528556680
10
146.4223992991
20
232.5654204249
10
146.1887376092
20
231.3680777087
10
146.0584565928
20
230.1684502549
10
146.0333624415
20
228.9741337449
10
146.1126255514
20
227.7925812394
10
146.2967349258
20
226.6314014178
10
146.5835409346
20
225.4977231057
10
146.9721777500
20
224.3990400603
10
147.4592829680
20
223.3418661667
10
148.0427842928
20
222.3331870527
10
148.7179455711
20
221.3790812469
10
149.4810512205
20
220.4864235356
10
150.3269672318
20
219.6598107737
10
151.2525209378
20
218.9042598298
10
152.2481127296
20
218.2253854483
10
153.3017532969
20
217.6313855425
10
154.4174390765
20
217.1195274745
0
LINE
5
3ED
100
AcDbEntity
8
0
100
AcDbLine
62
2
6
CONTINUOUS
10
40.5924943186
20
213.3027992024
11
41.5441918798
21
214.2544967636
0
LINE
5
3EE
100
AcDbEntity
8
0
100
AcDbLine
62
7
6
CONTINUOUS
10
43.1352514484
20
134.7117396338
11
77.1352514484
21
134.7117396338
0
LINE
5
3EF
100
AcDbEntity
8
0
100
AcDbLine
62
2
6
CONTINUOUS
10
40.1352514484
20
203.8839690503
11
49.7534058720
21
213.5021234739
0
LINE
5
3F0
100
AcDbEntity
8
0
100
AcDbLine
62
9
6
CONTINUOUS
10
63.0352514484
20
141.9717396338
11
57.2352514484
21
141.9717396338
0
LINE
5
3F1
100
AcDbEntity
8
0
100
AcDbLine
62
9
6
CONTINUOUS
10
48.9352514484
20
141.9717396338
11
52.7560082240
21
141.9717396338
0
LINE
5
3F2
100
AcDbEntity
8
0
100
AcDbLine
62
9
6
CONTINUOUS
10
67.5144946728
20
141.9717396338
11
71.3352514484
21
141.9717396338
0
LINE
5
3F3
100
AcDbEntity
8
0
100
AcDbLine
62
2
6
CONTINUOUS
10
40.1352514484
20
194.9223817682
11
52.1300389358
21
206.9171692557
0
LINE
5
3F4
100
AcDbEntity
8
0
100
AcDbLine
62
7
6
CONTINUOUS
10
68.4352514484
20
146.8027522443
11
67.2944055977
21
146.8027522443
0
LINE
5
3F5
100
AcDbEntity
8
0
100
AcDbLine
62
7
6
CONTINUOUS
10
52.9760972991
20
146.8027522443
11
51.8352514484
21
146.8027522443
0
LINE
5
3F6
100
AcDbEntity
8
0
100
AcDbLine
62
2
6
CONTINUOUS
10
40.1352514484
20
185.9607944862
11
54.7011190627
21
200.5266621005
0
LINE
5
3F7
100
AcDbEntity
8
0
100
AcDbLine
62
7
6
CONTINUOUS
10
40.1352514484
20
211.7117396338
11
40.1352514484
21
137.7117396338
0
LINE
5
3F8
100
AcDbEntity
8
0
100
AcDbLine
62
2
6
CONTINUOUS
10
40.1352514484
20
176.9992072042
11
55.4882314681
21
192.3521872238
0
LINE
5
3F9
100
AcDbEntity
8
0
100
AcDbLine
62
2
6
CONTINUOUS
10
65.7725374645
20
202.6364932203
11
77.7769563386
21
214.6409120944
0
LINE
5
3FA
100
AcDbEntity
8
0
100
AcDbLine
62
2
6
CONTINUOUS
10
40.1352514484
20
168.0376199221
11
56.0352514484
21
183.9376199221
0
LINE
5
3FB
100
AcDbEntity
8
0
100
AcDbLine
62
2
6
CONTINUOUS
10
64.8176937636
20
192.7200622374
11
80.1352514484
21
208.0376199221
0
LINE
5
3FC
100
AcDbEntity
8
0
100
AcDbLine
62
7
6
CONTINUOUS
10
56.0352514484
20
166.0089994025
11
64.2352514484
21
166.0089994025
0
LINE
5
3FD
100
AcDbEntity
8
0
100
AcDbLine
62
9
6
CONTINUOUS
10
51.8352514484
20
146.8027522443
11
51.8352514484
21
134.7117396338
0
LINE
5
3FE
100
AcDbEntity
8
0
100
AcDbLine
62
9
6
CONTINUOUS
10
53.1352514484
20
214.7117396338
11
53.1352514484
21
206.1528325278
0
LINE
5
3FF
100
AcDbEntity
8
0
100
AcDbLine
62
7
6
CONTINUOUS
10
54.1593804673
20
206.1528325278
11
56.0352514484
21
186.6711675174
0
LINE
5
400
100
AcDbEntity
8
0
100
AcDbLine
62
7
6
CONTINUOUS
10
56.0352514484
20
166.0089994025
11
56.0352514484
21
186.6711675174
0
LINE
5
401
100
AcDbEntity
8
0
100
AcDbLine
62
7
6
CONTINUOUS
10
56.0352514484
20
166.0089994025
11
52.9760972991
21
146.8027522443
0
LINE
5
402
100
AcDbEntity
8
0
100
AcDbLine
62
2
6
CONTINUOUS
10
40.1352514484
20
159.0760326401
11
56.0352514484
21
174.9760326401
0
LINE
5
403
100
AcDbEntity
8
0
100
AcDbLine
62
2
6
CONTINUOUS
10
64.2352514484
20
183.1760326401
11
80.1352514484
21
199.0760326401
0
LINE
5
404
100
AcDbEntity
8
DEFAULT_1
100
AcDbLine
62
7
6
CENTER
10
60.1352514484
20
221.5194448007
11
60.1352514484
21
130.2791138148
0
LINE
5
405
100
AcDbEntity
8
0
100
AcDbLine
62
7
6
CONTINUOUS
10
66.1111224296
20
206.1528325278
11
64.2352514484
21
186.6711675174
0
LINE
5
406
100
AcDbEntity
8
0
100
AcDbLine
62
2
6
CONTINUOUS
10
40.1352514484
20
150.1144453581
11
56.0352514484
21
166.0144453581
0
LINE
5
407
100
AcDbEntity
8
0
100
AcDbLine
62
2
6
CONTINUOUS
10
64.2352514484
20
174.2144453581
11
80.1352514484
21
190.1144453581
0
LINE
5
408
100
AcDbEntity
8
0
100
AcDbLine
62
7
6
CONTINUOUS
10
64.2352514484
20
166.0089994025
11
67.2944055977
21
146.8027522443
0
LINE
5
409
100
AcDbEntity
8
0
100
AcDbLine
62
7
6
CONTINUOUS
10
64.2352514484
20
166.0089994025
11
64.2352514484
21
186.6711675174
0
LINE
5
40A
100
AcDbEntity
8
0
100
AcDbLine
62
9
6
CONTINUOUS
10
67.1352514484
20
206.1528325278
11
67.1352514484
21
214.7117396338
0
LINE
5
40B
100
AcDbEntity
8
0
100
AcDbLine
62
9
6
CONTINUOUS
10
68.4352514484
20
134.7117396338
11
68.4352514484
21
146.8027522443
0
LINE
5
40C
100
AcDbEntity
8
0
100
AcDbLine
62
2
6
CONTINUOUS
10
40.1352514484
20
141.1528580761
11
54.3384620086
21
155.3560686363
0
LINE
5
40D
100
AcDbEntity
8
0
100
AcDbLine
62
2
6
CONTINUOUS
10
64.3391414634
20
165.3567480911
11
80.1352514484
21
181.1528580761
0
LINE
5
40E
100
AcDbEntity
8
0
100
AcDbLine
62
7
6
CONTINUOUS
10
56.0352514484
20
186.6711675174
11
64.2352514484
21
186.6711675174
0
LINE
5
40F
100
AcDbEntity
8
0
100
AcDbLine
62
2
6
CONTINUOUS
10
42.6927398272
20
134.7487591729
11
48.5960820912
21
140.6521014369
0
LINE
5
410
100
AcDbEntity
8
0
100
AcDbLine
62
2
6
CONTINUOUS
10
65.5704184811
20
157.6264378267
11
80.1352514484
21
172.1912707940
0
LINE
5
411
100
AcDbEntity
8
0
100
AcDbLine
62
7
6
CONTINUOUS
10
80.1352514484
20
211.7117396338
11
80.1352514484
21
137.7117396338
0
LINE
5
412
100
AcDbEntity
8
0
100
AcDbLine
62
2
6
CONTINUOUS
10
66.8016954987
20
149.8961275623
11
80.1352514484
21
163.2296835120
0
LINE
5
413
100
AcDbEntity
8
0
100
AcDbLine
62
2
6
CONTINUOUS
10
70.5832347732
20
144.7160795547
11
80.1352514484
21
154.2680962300
0
LINE
5
414
100
AcDbEntity
8
0
100
AcDbLine
62
7
6
CONTINUOUS
10
53.1352514484
20
206.1528325278
11
54.1593804673
21
206.1528325278
0
LINE
5
415
100
AcDbEntity
8
0
100
AcDbLine
62
7
6
CONTINUOUS
10
66.1111224296
20
206.1528325278
11
67.1352514484
21
206.1528325278
0
LINE
5
416
100
AcDbEntity
8
0
100
AcDbLine
62
2
6
CONTINUOUS
10
72.5665558759
20
137.7378133755
11
80.1352514484
21
145.3065089480
0
LINE
5
417
100
AcDbEntity
8
0
100
AcDbLine
62
9
6
CONTINUOUS
10
67.1352514484
20
209.3219439827
11
66.1297816331
21
209.3198915922
0
LINE
5
418
100
AcDbEntity
8
0
100
AcDbLine
62
9
6
CONTINUOUS
10
69.0901849896
20
209.5824742804
11
66.1306857082
21
209.5824742804
0
LINE
5
419
100
AcDbEntity
8
0
100
AcDbLine
62
9
6
CONTINUOUS
10
62.0901849896
20
209.5824742804
11
58.1803179072
21
209.5824742804
0
LINE
5
41A
100
AcDbEntity
8
0
100
AcDbLine
62
9
6
CONTINUOUS
10
54.1398171887
20
209.5824742804
11
51.1803179072
21
209.5824742804
0
LINE
5
41B
100
AcDbEntity
8
0
100
AcDbLine
62
9
6
CONTINUOUS
10
54.1407212637
20
209.3198915922
11
53.1352514484
21
209.3219439827
0
LINE
5
41C
100
AcDbEntity
8
0
100
AcDbLine
62
7
6
CONTINUOUS
10
43.1352514484
20
214.7117396338
11
77.1352514484
21
214.7117396338
0
LINE
5
41D
100
AcDbEntity
8
0
100
AcDbLine
62
7
6
CONTINUOUS
10
64.9806122732
20
280.0777224049
11
64.2352514484
21
279.4955967908
0
LINE
5
41E
100
AcDbEntity
8
0
100
AcDbLine
62
9
6
CONTINUOUS
10
51.8352514484
20
267.0385352678
11
51.8352514484
21
254.3084842746
0
LINE
5
41F
100
AcDbEntity
8
0
100
AcDbLine
62
9
6
CONTINUOUS
10
53.7702004566
20
252.3735352671
11
66.5002514491
21
252.3735352671
0
LINE
5
420
100
AcDbEntity
8
0
100
AcDbLine
62
9
6
CONTINUOUS
10
53.7702004566
20
252.3737800210
11
53.7702004564
21
254.1909932605
0
LINE
5
421
100
AcDbEntity
8
0
100
AcDbLine
62
9
6
CONTINUOUS
10
53.7702004564
20
267.1560724197
11
53.7702004566
21
268.9732584932
0
LINE
5
422
100
AcDbEntity
8
0
100
AcDbLine
62
9
6
CONTINUOUS
10
68.4350067542
20
254.3084842815
11
66.6178437524
21
254.3085352670
0
LINE
5
423
100
AcDbEntity
8
0
100
AcDbLine
62
9
6
CONTINUOUS
10
53.6526593747
20
254.3085352667
11
51.8354961426
21
254.3084842815
0
LINE
5
424
100
AcDbEntity
8
0
100
AcDbLine
62
7
6
CONTINUOUS
10
55.4352514484
20
273.2658015177
11
55.4352514484
21
277.0109048546
0
LINE
5
425
100
AcDbEntity
8
0
100
AcDbLine
62
7
6
CONTINUOUS
10
56.0352514484
20
260.6735352671
11
56.0352514484
21
279.4955967908
0
LINE
5
426
100
AcDbEntity
8
0
100
AcDbLine
62
9
6
CONTINUOUS
10
57.2352514484
20
253.2942920427
11
57.2352514484
21
252.3735352671
0
LINE
5
427
100
AcDbEntity
8
0
100
AcDbLine
62
9
6
CONTINUOUS
10
51.8352514484
20
257.7735352671
11
52.7560082240
21
257.7735352671
0
LINE
5
428
100
AcDbEntity
8
0
100
AcDbLine
62
9
6
CONTINUOUS
10
67.5144946728
20
257.7735352671
11
68.4352514484
21
257.7735352671
0
LINE
5
429
100
AcDbEntity
8
DEFAULT_1
100
AcDbLine
62
7
6
CENTER
10
60.1352514484
20
260.6735352671
11
60.1352514484
21
257.6734352671
0
LINE
5
42A
100
AcDbEntity
8
DEFAULT_1
100
AcDbLine
62
7
6
CENTER
10
60.1352514484
20
260.6735352671
11
60.1352514484
21
263.6736352671
0
LINE
5
42B
100
AcDbEntity
8
DEFAULT_1
100
AcDbLine
62
7
6
CENTER
10
60.1352514484
20
260.6735352671
11
57.1351514484
21
260.6735352671
0
LINE
5
42C
100
AcDbEntity
8
DEFAULT_1
100
AcDbLine
62
7
6
CENTER
10
60.1352514484
20
260.6735352671
11
63.1353514484
21
260.6735352671
0
LINE
5
42D
100
AcDbEntity
8
0
100
AcDbLine
62
9
6
CONTINUOUS
10
63.0352514484
20
253.2942920427
11
63.0352514484
21
252.3735352671
0
LINE
5
42E
100
AcDbEntity
8
0
100
AcDbLine
62
9
6
CONTINUOUS
10
51.8352514484
20
263.5735352671
11
52.7560082240
21
263.5735352671
0
LINE
5
42F
100
AcDbEntity
8
0
100
AcDbLine
62
9
6
CONTINUOUS
10
67.5144946728
20
263.5735352671
11
68.4352514484
21
263.5735352671
0
LINE
5
430
100
AcDbEntity
8
0
100
AcDbLine
62
7
6
CONTINUOUS
10
64.2352514484
20
260.6735352671
11
64.2352514484
21
279.4955967908
0
LINE
5
431
100
AcDbEntity
8
0
100
AcDbLine
62
7
6
CONTINUOUS
10
64.8352514484
20
277.0109048629
11
64.8352514484
21
273.2658015177
0
LINE
5
432
100
AcDbEntity
8
0
100
AcDbLine
62
9
6
CONTINUOUS
10
66.5002514491
20
252.3735352671
11
66.5002514491
21
254.1909431936
0
LINE
5
433
100
AcDbEntity
8
0
100
AcDbLine
62
9
6
CONTINUOUS
10
66.5002514491
20
267.1561321946
11
66.5002514491
21
268.9738120375
0
LINE
5
434
100
AcDbEntity
8
0
100
AcDbLine
62
9
6
CONTINUOUS
10
68.4352514484
20
267.0385352678
11
66.6178435219
21
267.0385352678
0
LINE
5
435
100
AcDbEntity
8
0
100
AcDbLine
62
9
6
CONTINUOUS
10
53.6526591450
20
267.0385352678
11
51.8350066976
21
267.0385352678
0
LINE
5
436
100
AcDbEntity
8
0
100
AcDbLine
62
9
6
CONTINUOUS
10
68.4352514484
20
254.3084842746
11
68.4352514484
21
267.0385352678
0
LINE
5
437
100
AcDbEntity
8
0
100
AcDbLine
62
9
6
CONTINUOUS
10
66.5002514491
20
268.9735352671
11
64.2352514484
21
268.9735352671
0
LINE
5
438
100
AcDbEntity
8
0
100
AcDbLine
62
9
6
CONTINUOUS
10
56.0352514484
20
268.9735352671
11
53.7702004566
21
268.9735352671
0
LINE
5
439
100
AcDbEntity
8
0
100
AcDbLine
62
7
6
CONTINUOUS
10
55.2898906237
20
280.0777224049
11
56.0352514484
21
279.4955967908
0
LINE
5
43A
100
AcDbEntity
8
0
100
AcDbLine
62
7
6
CONTINUOUS
10
64.8352514484
20
277.0109157181
11
64.2352514484
21
277.0109157181
0
LINE
5
43B
100
AcDbEntity
8
0
100
AcDbLine
62
7
6
CONTINUOUS
10
55.4352514484
20
277.0109157181
11
56.0352514484
21
277.0109157181
0
LINE
5
43C
100
AcDbEntity
8
0
100
AcDbLine
62
7
6
CONTINUOUS
10
64.8352514484
20
76.7951725134
11
64.2352514484
21
76.7951725134
0
LINE
5
43D
100
AcDbEntity
8
0
100
AcDbLine
62
7
6
CONTINUOUS
10
55.4352514484
20
76.7951725134
11
56.0352514484
21
76.7951725134
0
LINE
5
43E
100
AcDbEntity
8
0
100
AcDbLine
62
7
6
CONTINUOUS
10
64.9806122732
20
73.7283658266
11
64.2352514484
21
74.3104914408
0
LINE
5
43F
100
AcDbEntity
8
0
100
AcDbLine
62
9
6
CONTINUOUS
10
53.1352514484
20
97.7960785911
11
53.1352514484
21
88.4690273377
0
LINE
5
440
100
AcDbEntity
8
0
100
AcDbLine
62
7
6
CONTINUOUS
10
55.4352514484
20
76.7951831768
11
55.4352514484
21
88.2182880143
0
LINE
5
441
100
AcDbEntity
8
0
100
AcDbLine
62
9
6
CONTINUOUS
10
55.4717258218
20
100.1325529644
11
55.4717258218
21
98.0814446312
0
LINE
5
442
100
AcDbEntity
8
0
100
AcDbLine
62
7
6
CONTINUOUS
10
56.0352514484
20
74.3104914408
11
56.0352514484
21
93.1325529644
0
LINE
5
443
100
AcDbEntity
8
0
100
AcDbLine
62
9
6
CONTINUOUS
10
53.1352514484
20
88.4690273377
11
55.1863597816
21
88.4690273377
0
LINE
5
444
100
AcDbEntity
8
0
100
AcDbLine
62
9
6
CONTINUOUS
10
65.0841431152
20
88.4690273377
11
67.1352514484
21
88.4690273377
0
LINE
5
445
100
AcDbEntity
8
0
100
AcDbLine
62
9
6
CONTINUOUS
10
58.2605890738
20
99.1270831686
11
58.2599651013
21
100.1325529644
0
LINE
5
446
100
AcDbEntity
8
0
100
AcDbLine
62
9
6
CONTINUOUS
10
58.1803179072
20
99.1279872242
11
58.1803179072
21
100.1325529644
0
LINE
5
447
100
AcDbEntity
8
0
100
AcDbLine
62
9
6
CONTINUOUS
10
54.1407212442
20
91.2578905898
11
53.1352514484
21
91.2572666173
0
LINE
5
448
100
AcDbEntity
8
0
100
AcDbLine
62
9
6
CONTINUOUS
10
67.1352514484
20
91.1776194232
11
66.1306857082
21
91.1776194232
0
LINE
5
449
100
AcDbEntity
8
0
100
AcDbLine
62
9
6
CONTINUOUS
10
54.1398171887
20
91.1776194232
11
53.1352514484
21
91.1776194232
0
LINE
5
44A
100
AcDbEntity
8
0
100
AcDbLine
62
9
6
CONTINUOUS
10
67.1352514484
20
91.2572666173
11
66.1297816526
21
91.2578905898
0
LINE
5
44B
100
AcDbEntity
8
DEFAULT_1
100
AcDbLine
62
7
6
CENTER
10
60.1352514484
20
93.1325529644
11
60.1352514484
21
90.1324529644
0
LINE
5
44C
100
AcDbEntity
8
DEFAULT_1
100
AcDbLine
62
7
6
CENTER
10
60.1352514484
20
93.1325529644
11
60.1352514484
21
96.1326529644
0
LINE
5
44D
100
AcDbEntity
8
DEFAULT_1
100
AcDbLine
62
7
6
CENTER
10
60.1352514484
20
93.1325529644
11
57.1351514484
21
93.1325529644
0
LINE
5
44E
100
AcDbEntity
8
DEFAULT_1
100
AcDbLine
62
7
6
CENTER
10
60.1352514484
20
93.1325529644
11
63.1353514484
21
93.1325529644
0
LINE
5
44F
100
AcDbEntity
8
0
100
AcDbLine
62
9
6
CONTINUOUS
10
62.0901849896
20
99.1279872242
11
62.0901849896
21
100.1325529644
0
LINE
5
450
100
AcDbEntity
8
0
100
AcDbLine
62
9
6
CONTINUOUS
10
62.0099137663
20
99.1270831491
11
62.0105377955
21
100.1325529644
0
LINE
5
451
100
AcDbEntity
8
0
100
AcDbLine
62
9
6
CONTINUOUS
10
67.1352514484
20
95.0078393115
11
66.1297816331
21
95.0072152823
0
LINE
5
452
100
AcDbEntity
8
0
100
AcDbLine
62
9
6
CONTINUOUS
10
67.1352514484
20
95.0874865056
11
66.1306857082
21
95.0874865056
0
LINE
5
453
100
AcDbEntity
8
0
100
AcDbLine
62
9
6
CONTINUOUS
10
54.1398171887
20
95.0874865056
11
53.1352514484
21
95.0874865056
0
LINE
5
454
100
AcDbEntity
8
0
100
AcDbLine
62
9
6
CONTINUOUS
10
54.1407212637
20
95.0072152823
11
53.1352514484
21
95.0078393115
0
LINE
5
455
100
AcDbEntity
8
0
100
AcDbLine
62
7
6
CONTINUOUS
10
64.2352514484
20
74.3104914408
11
64.2352514484
21
93.1325529644
0
LINE
5
456
100
AcDbEntity
8
0
100
AcDbLine
62
9
6
CONTINUOUS
10
64.7987770751
20
98.0814446312
11
64.7987770751
21
100.1325529644
0
LINE
5
457
100
AcDbEntity
8
0
100
AcDbLine
62
7
6
CONTINUOUS
10
64.8352514484
20
88.2182880143
11
64.8352514484
21
76.7951831686
0
LINE
5
458
100
AcDbEntity
8
0
100
AcDbLine
62
9
6
CONTINUOUS
10
53.1352514484
20
97.7960785911
11
55.1863597816
21
97.7960785911
0
LINE
5
459
100
AcDbEntity
8
0
100
AcDbLine
62
9
6
CONTINUOUS
10
65.0841431152
20
97.7960785911
11
67.1352514484
21
97.7960785911
0
LINE
5
45A
100
AcDbEntity
8
0
100
AcDbLine
62
9
6
CONTINUOUS
10
67.1352514484
20
88.4690273377
11
67.1352514484
21
97.7960785911
0
LINE
5
45B
100
AcDbEntity
8
0
100
AcDbLine
62
9
6
CONTINUOUS
10
64.7987770751
20
100.1325529644
11
55.4717258218
21
100.1325529644
0
LINE
5
45C
100
AcDbEntity
8
0
100
AcDbLine
62
7
6
CONTINUOUS
10
55.2898906237
20
73.7283658266
11
56.0352514484
21
74.3104914408
0
ARC
5
45D
100
AcDbEntity
8
0
100
AcDbCircle
62
7
6
CONTINUOUS
10
77.1352514484
20
137.7117396338
40
3.0000000000
100
AcDbArc
50
270.0000000000
51
360.0000000000
0
ARC
5
45E
100
AcDbEntity
8
0
100
AcDbCircle
62
7
6
CONTINUOUS
10
43.1352514484
20
137.7117396338
40
3.0000000000
100
AcDbArc
50
180.0000000000
51
270.0000000000
0
ARC
5
45F
100
AcDbEntity
8
0
100
AcDbCircle
62
7
6
CONTINUOUS
10
77.1352514484
20
211.7117396338
40
3.0000000000
100
AcDbArc
50
0.0000000000
51
90.0000000000
0
ARC
5
460
100
AcDbEntity
8
0
100
AcDbCircle
62
7
6
CONTINUOUS
10
43.1352514484
20
211.7117396338
40
3.0000000000
100
AcDbArc
50
90.0000000000
51
180.0000000000
0
ARC
5
461
100
AcDbEntity
8
0
100
AcDbCircle
62
7
6
CONTINUOUS
10
60.1352514484
20
260.6735352671
40
4.1000000000
100
AcDbArc
50
180.0000000000
51
360.0000000000
0
ARC
5
462
100
AcDbEntity
8
0
100
AcDbCircle
62
7
6
CONTINUOUS
10
60.1352514484
20
260.6735352671
40
20.0000000000
100
AcDbArc
50
104.0204407441
51
75.9795592559
0
ARC
5
463
100
AcDbEntity
8
0
100
AcDbCircle
62
7
6
CONTINUOUS
10
60.1352514484
20
260.6735352671
40
9.0850000000
100
AcDbArc
50
314.4755950139
51
315.5244060072
0
ARC
5
464
100
AcDbEntity
8
0
100
AcDbCircle
62
7
6
CONTINUOUS
10
60.1352514484
20
260.6735352671
40
9.0850000000
100
AcDbArc
50
44.4755950138
51
45.5244264334
0
ARC
5
465
100
AcDbEntity
8
0
100
AcDbCircle
62
9
6
CONTINUOUS
10
60.1352514484
20
252.3735352671
40
6.3650254961
100
AcDbArc
50
179.9977968180
51
360.0000000000
0
ARC
5
466
100
AcDbEntity
8
0
100
AcDbCircle
62
7
6
CONTINUOUS
10
60.1352514484
20
260.6735352671
40
9.0850000000
100
AcDbArc
50
134.4760671459
51
135.5244060019
0
ARC
5
467
100
AcDbEntity
8
0
100
AcDbCircle
62
9
6
CONTINUOUS
10
51.8352514484
20
260.6735352671
40
2.9000000000
100
AcDbArc
50
90.0000000000
51
270.0000000000
0
ARC
5
468
100
AcDbEntity
8
0
100
AcDbCircle
62
9
6
CONTINUOUS
10
68.4352514484
20
260.6735352671
40
2.9000000000
100
AcDbArc
50
270.0000000000
51
90.0000000000
0
ARC
5
469
100
AcDbEntity
8
0
100
AcDbCircle
62
9
6
CONTINUOUS
10
60.1352514484
20
252.3735352671
40
2.9000000000
100
AcDbArc
50
180.0000000000
51
360.0000000000
0
ARC
5
46A
100
AcDbEntity
8
0
100
AcDbCircle
62
9
6
CONTINUOUS
10
68.4352514484
20
260.6735352671
40
6.3650254961
100
AcDbArc
50
269.9977973551
51
90.0000000000
0
ARC
5
46B
100
AcDbEntity
8
0
100
AcDbCircle
62
9
6
CONTINUOUS
10
60.1352514484
20
268.9735352671
40
6.3650254961
100
AcDbArc
50
0.0024914024
51
42.4038321359
0
ARC
5
46C
100
AcDbEntity
8
0
100
AcDbCircle
62
9
6
CONTINUOUS
10
60.1352514484
20
268.9735352671
40
6.3650254961
100
AcDbArc
50
137.5961678641
51
180.0024914142
0
ARC
5
46D
100
AcDbEntity
8
0
100
AcDbCircle
62
9
6
CONTINUOUS
10
51.8352514484
20
260.6735352671
40
6.3650254961
100
AcDbArc
50
90.0022031715
51
270.0022026449
0
ARC
5
46E
100
AcDbEntity
8
0
100
AcDbCircle
62
7
6
CONTINUOUS
10
60.1352514484
20
260.6735352671
40
9.0850000000
100
AcDbArc
50
224.4755950118
51
225.5239543016
0
ARC
5
46F
100
AcDbEntity
8
0
100
AcDbCircle
62
9
6
CONTINUOUS
10
60.1352514484
20
260.6735352671
40
17.0000000000
100
AcDbArc
50
106.0496809268
51
73.9503190810
0
ARC
5
470
100
AcDbEntity
8
0
100
AcDbCircle
62
7
6
CONTINUOUS
10
60.1352514484
20
93.1325529644
40
4.1000000000
100
AcDbArc
50
0.0000000000
51
180.0000000000
0
ARC
5
471
100
AcDbEntity
8
0
100
AcDbCircle
62
7
6
CONTINUOUS
10
60.1352514484
20
93.1325529644
40
20.0000000000
100
AcDbArc
50
284.0204407441
51
255.9795592559
0
ARC
5
472
100
AcDbEntity
8
0
100
AcDbCircle
62
9
6
CONTINUOUS
10
53.1352514484
20
93.1325529644
40
4.6635256267
100
AcDbArc
50
90.0000000000
51
270.0000000000
0
ARC
5
473
100
AcDbEntity
8
0
100
AcDbCircle
62
9
6
CONTINUOUS
10
67.1352514484
20
93.1325529644
40
4.6635256267
100
AcDbArc
50
270.0000000000
51
90.0000000000
0
ARC
5
474
100
AcDbEntity
8
0
100
AcDbCircle
62
9
6
CONTINUOUS
10
60.1352514484
20
100.1325529644
40
4.6635256267
100
AcDbArc
50
0.0000000000
51
180.0000000000
0
ARC
5
475
100
AcDbEntity
8
0
100
AcDbCircle
62
7
6
CONTINUOUS
10
60.1352514484
20
93.1325529644
40
6.8000000000
100
AcDbArc
50
133.2995464702
51
136.7004535298
0
ARC
5
476
100
AcDbEntity
8
0
100
AcDbCircle
62
7
6
CONTINUOUS
10
60.1352514484
20
93.1325529644
40
6.8000000000
100
AcDbArc
50
43.2995464702
51
46.7004535298
0
ARC
5
477
100
AcDbEntity
8
0
100
AcDbCircle
62
7
6
CONTINUOUS
10
60.1352514484
20
93.1325529644
40
6.8000000000
100
AcDbArc
50
313.7233090053
51
316.7004535298
0
ARC
5
478
100
AcDbEntity
8
0
100
AcDbCircle
62
9
6
CONTINUOUS
10
53.1352514484
20
93.1325529644
40
1.9549335412
100
AcDbArc
50
90.0000000000
51
270.0000000000
0
ARC
5
479
100
AcDbEntity
8
0
100
AcDbCircle
62
9
6
CONTINUOUS
10
67.1352514484
20
93.1325529644
40
1.9549335412
100
AcDbArc
50
270.0000000000
51
90.0000000000
0
ARC
5
47A
100
AcDbEntity
8
0
100
AcDbCircle
62
7
6
CONTINUOUS
10
60.1352514484
20
93.1325529644
40
6.8000000000
100
AcDbArc
50
223.2995464702
51
226.2766909947
0
ARC
5
47B
100
AcDbEntity
8
0
100
AcDbCircle
62
9
6
CONTINUOUS
10
60.1352514484
20
100.1325529644
40
1.9549335412
100
AcDbArc
50
0.0000000000
51
180.0000000000
0
ARC
5
47C
100
AcDbEntity
8
0
100
AcDbCircle
62
9
6
CONTINUOUS
10
60.1352514484
20
93.1325529644
40
17.0000000000
100
AcDbArc
50
286.0496807326
51
253.9503192597
0
SPLINE
5
47D
100
AcDbEntity
8
0
100
AcDbSpline
62
7
6
CONTINUOUS
70
0
71
3
72
17
73
13
74
11
42
0.0000001000
43
0.0000001000
44
0.0000000001
12
-1.7710967186
22
5.7614347491
32
0.0000000000
13
-6.0275130821
23
0.0000000000
33
0.0000000000
40
0.0000000000
40
0.0000000000
40
0.0000000000
40
0.0000000000
40
0.2073693326
40
0.3675017637
40
0.4872138386
40
0.5952080308
40
0.7025247185
40
0.8171871831
40
0.8684535400
40
0.9152312895
40
0.9600524692
40
1.0000000000
40
1.0000000000
40
1.0000000000
40
1.0000000000
10
58.1803179072
20
209.5824742804
30
0.0000000000
10
58.0578941924
20
209.9807225734
30
0.0000000000
10
57.8357364496
20
210.6849257940
30
0.0000000000
10
57.5226298996
20
211.6125016267
30
0.0000000000
10
57.2553802641
20
212.3445128141
30
0.0000000000
10
57.0054488577
20
212.9698200529
30
0.0000000000
10
56.7289057883
20
213.5722757284
30
0.0000000000
10
56.4563200187
20
214.0519790975
30
0.0000000000
10
56.1846470189
20
214.3835641009
30
0.0000000000
10
55.9654235655
20
214.5722334104
30
0.0000000000
10
55.7234992521
20
214.6883214986
30
0.0000000000
10
55.5519872432
20
214.7117396338
30
0.0000000000
10
55.4717258218
20
214.7117396338
30
0.0000000000
11
58.1803179072
21
209.5824742804
31
0.0000000000
11
57.8027186402
21
210.7739952467
31
0.0000000000
11
57.4923997195
21
211.6879502955
31
0.0000000000
11
57.2437222713
21
212.3653107312
31
0.0000000000
11
56.9999565879
21
212.9688805251
31
0.0000000000
11
56.7267863854
21
213.5552221546
31
0.0000000000
11
56.3709199880
21
214.1476908040
31
0.0000000000
11
56.1720178662
21
214.3841739616
31
0.0000000000
11
55.9551447766
21
214.5643512010
31
0.0000000000
11
55.7101705070
21
214.6782553987
31
0.0000000000
11
55.4717258218
21
214.7117396338
31
0.0000000000
0
SPLINE
5
47E
100
AcDbEntity
8
0
100
AcDbSpline
62
7
6
CONTINUOUS
70
0
71
3
72
10
73
6
74
4
42
0.0000001000
43
0.0000001000
44
0.0000000001
12
-0.0798744633
22
0.2627124205
32
0.0000000000
13
-0.0806832338
23
0.2624651618
33
0.0000000000
40
0.0000000000
40
0.0000000000
40
0.0000000000
40
0.0000000000
40
0.0078426657
40
0.2589773642
40
1.0000000000
40
1.0000000000
40
1.0000000000
40
1.0000000000
10
58.2605915531
20
209.3198836240
30
0.0000000000
10
58.2603827436
20
209.3205704126
30
0.0000000000
10
58.2534872632
20
209.3432491919
30
0.0000000000
10
58.2268289540
20
209.4308098126
30
0.0000000000
10
58.2002472748
20
209.5176434050
30
0.0000000000
10
58.1803179072
20
209.5824742804
30
0.0000000000
11
58.2605915531
21
209.3198836240
31
0.0000000000
11
58.2599651013
21
209.3219439827
31
0.0000000000
11
58.2398800526
21
209.3879123375
31
0.0000000000
11
58.1803179072
21
209.5824742804
31
0.0000000000
0
SPLINE
5
47F
100
AcDbEntity
8
0
100
AcDbSpline
62
7
6
CONTINUOUS
70
0
71
3
72
27
73
23
74
21
42
0.0000001000
43
0.0000001000
44
0.0000000001
12
-2.2642100714
22
-7.4471318163
32
0.0000000000
13
-2.2642100958
23
7.4471318090
33
0.0000000000
40
0.0000000000
40
0.0000000000
40
0.0000000000
40
0.0000000000
40
0.0964928432
40
0.1685369877
40
0.2221851266
40
0.2708748308
40
0.3197063125
40
0.3722001167
40
0.4017799768
40
0.4338256903
40
0.4672108569
40
0.5000000137
40
0.5327891706
40
0.5661743372
40
0.5982200506
40
0.6277999108
40
0.6802937150
40
0.7291251966
40
0.7778149009
40
0.8314630398
40
0.9035071842
40
1.0000000000
40
1.0000000000
40
1.0000000000
40
1.0000000000
10
62.0099114625
20
209.3198838112
30
0.0000000000
10
61.9370847734
20
209.0803521703
30
0.0000000000
10
61.8074731872
20
208.6627048526
30
0.0000000000
10
61.6274801333
20
208.1150010384
30
0.0000000000
10
61.4763265794
20
207.6885208611
30
0.0000000000
10
61.3341565659
20
207.3228200847
30
0.0000000000
10
61.1745657232
20
206.9677397604
30
0.0000000000
10
61.0065963303
20
206.6708168739
30
0.0000000000
10
60.8196571388
20
206.4398752629
30
0.0000000000
10
60.6293113306
20
206.2796462011
30
0.0000000000
10
60.3929957084
20
206.1736426964
30
0.0000000000
10
60.1352514484
20
206.1425211585
30
0.0000000000
10
59.8775071884
20
206.1736426964
30
0.0000000000
10
59.6411915662
20
206.2796462011
30
0.0000000000
10
59.4508457580
20
206.4398752629
30
0.0000000000
10
59.2639065666
20
206.6708168739
30
0.0000000000
10
59.0959371736
20
206.9677397604
30
0.0000000000
10
58.9363463309
20
207.3228200847
30
0.0000000000
10
58.7941763174
20
207.6885208611
30
0.0000000000
10
58.6430227635
20
208.1150010384
30
0.0000000000
10
58.4630297319
20
208.6627047849
30
0.0000000000
10
58.3334181657
20
209.0803520342
30
0.0000000000
10
58.2605914965
20
209.3198836068
30
0.0000000000
11
62.0099114625
21
209.3198838112
31
0.0000000000
11
61.7864025522
21
208.6028371335
31
0.0000000000
11
61.6102364190
21
208.0704550487
31
0.0000000000
11
61.4699566698
21
207.6771400177
31
0.0000000000
11
61.3312909917
21
207.3244315594
31
0.0000000000
11
61.1733008483
21
206.9787319391
31
0.0000000000
11
60.9652767635
21
206.6270533166
31
0.0000000000
11
60.8185097169
21
206.4496537410
31
0.0000000000
11
60.6256765620
21
206.2914347861
31
0.0000000000
11
60.3882191347
21
206.1858804256
31
0.0000000000
11
60.1352514484
21
206.1528325278
31
0.0000000000
11
59.8822837622
21
206.1858804256
31
0.0000000000
11
59.6448263348
21
206.2914347861
31
0.0000000000
11
59.4519931799
21
206.4496537410
31
0.0000000000
11
59.3052261333
21
206.6270533166
31
0.0000000000
11
59.0972020485
21
206.9787319391
31
0.0000000000
11
58.9392119051
21
207.3244315594
31
0.0000000000
11
58.8005462270
21
207.6771400177
31
0.0000000000
11
58.6602664778
21
208.0704550487
31
0.0000000000
11
58.4841003447
21
208.6028371335
31
0.0000000000
11
58.2605914965
21
209.3198836068
31
0.0000000000
0
SPLINE
5
480
100
AcDbEntity
8
0
100
AcDbSpline
62
7
6
CONTINUOUS
70
0
71
3
72
10
73
6
74
4
42
0.0000001000
43
0.0000001000
44
0.0000000001
12
-0.0806831710
22
-0.2624649576
32
0.0000000000
13
-0.0798744017
23
-0.2627122159
33
0.0000000000
40
0.0000000000
40
0.0000000000
40
0.0000000000
40
0.0000000000
40
0.7410232125
40
0.9921581064
40
1.0000000000
40
1.0000000000
40
1.0000000000
40
1.0000000000
10
62.0901849896
20
209.5824742804
30
0.0000000000
10
62.0702556221
20
209.5176434050
30
0.0000000000
10
62.0436739428
20
209.4308098126
30
0.0000000000
10
62.0170156544
20
209.3432492601
30
0.0000000000
10
62.0101201947
20
209.3205705489
30
0.0000000000
10
62.0099114058
20
209.3198838285
30
0.0000000000
11
62.0901849896
21
209.5824742804
31
0.0000000000
11
62.0306228442
21
209.3879123375
31
0.0000000000
11
62.0105377955
21
209.3219439827
31
0.0000000000
11
62.0099114058
21
209.3198838285
31
0.0000000000
0
SPLINE
5
481
100
AcDbEntity
8
0
100
AcDbSpline
62
7
6
CONTINUOUS
70
0
71
3
72
17
73
13
74
11
42
0.0000001000
43
0.0000001000
44
0.0000000001
12
-6.0275130821
22
0.0000000000
32
0.0000000000
13
-1.7710967186
23
-5.7614347491
33
0.0000000000
40
0.0000000000
40
0.0000000000
40
0.0000000000
40
0.0000000000
40
0.0399475308
40
0.0847687105
40
0.1315464600
40
0.1828128169
40
0.2974752815
40
0.4047919692
40
0.5127861614
40
0.6324982363
40
0.7926306674
40
1.0000000000
40
1.0000000000
40
1.0000000000
40
1.0000000000
10
64.7987770751
20
214.7117396338
30
0.0000000000
10
64.7185156536
20
214.7117396338
30
0.0000000000
10
64.5470036448
20
214.6883214986
30
0.0000000000
10
64.3050793314
20
214.5722334104
30
0.0000000000
10
64.0858558780
20
214.3835641009
30
0.0000000000
10
63.8141828781
20
214.0519790975
30
0.0000000000
10
63.5415971085
20
213.5722757284
30
0.0000000000
10
63.2650540392
20
212.9698200529
30
0.0000000000
10
63.0151226327
20
212.3445128141
30
0.0000000000
10
62.7478729972
20
211.6125016267
30
0.0000000000
10
62.4347664472
20
210.6849257940
30
0.0000000000
10
62.2126087045
20
209.9807225734
30
0.0000000000
10
62.0901849896
20
209.5824742804
30
0.0000000000
11
64.7987770751
21
214.7117396338
31
0.0000000000
11
64.5603323898
21
214.6782553987
31
0.0000000000
11
64.3153581202
21
214.5643512010
31
0.0000000000
11
64.0984850306
21
214.3841739616
31
0.0000000000
11
63.8995829089
21
214.1476908040
31
0.0000000000
11
63.5437165114
21
213.5552221546
31
0.0000000000
11
63.2705463089
21
212.9688805251
31
0.0000000000
11
63.0267806255
21
212.3653107312
31
0.0000000000
11
62.7781031774
21
211.6879502955
31
0.0000000000
11
62.4677842566
21
210.7739952467
31
0.0000000000
11
62.0901849896
21
209.5824742804
31
0.0000000000
0
SPLINE
5
482
100
AcDbEntity
8
0
100
AcDbSpline
62
7
6
CONTINUOUS
70
0
71
3
72
42
73
38
74
36
42
0.0000001000
43
0.0000001000
44
0.0000000001
12
8.3775054377
22
-0.0001830965
32
0.0000000000
13
1.9988831756
23
8.1355476646
33
0.0000000000
40
0.0000000000
40
0.0000000000
40
0.0000000000
40
0.0000000000
40
0.0108683377
40
0.0220694780
40
0.0335786059
40
0.0453749500
40
0.0577706357
40
0.0714758462
40
0.0872552651
40
0.1058344454
40
0.1274088925
40
0.1516496400
40
0.1783350596
40
0.2075190087
40
0.2395491411
40
0.2762860082
40
0.3166294756
40
0.3573895221
40
0.3954064499
40
0.4289034928
40
0.4621958127
40
0.4948136367
40
0.5254790718
40
0.5547861621
40
0.5836538893
40
0.6124439326
40
0.6412772083
40
0.6700392890
40
0.6988938897
40
0.7286613869
40
0.7603470390
40
0.7947499299
40
0.8320909691
40
0.8723961417
40
0.9148465042
40
0.9579540526
40
1.0000000000
40
1.0000000000
40
1.0000000000
40
1.0000000000
10
53.7702004569
20
134.7117396338
30
0.0000000000
10
53.8005503097
20
134.7117389705
30
0.0000000000
10
53.8622077957
20
134.7141427289
30
0.0000000000
10
53.9554019063
20
134.7254139945
30
0.0000000000
10
54.0498427592
20
134.7451774059
30
0.0000000000
10
54.1453095140
20
134.7743983260
30
0.0000000000
10
54.2432582339
20
134.8148917390
30
0.0000000000
10
54.3466852122
20
134.8698705085
30
0.0000000000
10
54.4586743529
20
134.9442484735
30
0.0000000000
10
54.5796665509
20
135.0434311235
30
0.0000000000
10
54.7074597175
20
135.1702979472
30
0.0000000000
10
54.8384861630
20
135.3249165385
30
0.0000000000
10
54.9706413575
20
135.5056119873
30
0.0000000000
10
55.1034043259
20
135.7122158219
30
0.0000000000
10
55.2395565060
20
135.9495621965
30
0.0000000000
10
55.3794927135
20
136.2203127984
30
0.0000000000
10
55.5198428549
20
136.5180167226
30
0.0000000000
10
55.6527381838
20
136.8230070446
30
0.0000000000
10
55.7707234723
20
137.1135127740
30
0.0000000000
10
55.8758809539
20
137.3866518494
30
0.0000000000
10
55.9720736193
20
137.6470553432
30
0.0000000000
10
56.0625373013
20
137.9011237434
30
0.0000000000
10
56.1467020772
20
138.1456051509
30
0.0000000000
10
56.2252467656
20
138.3809332556
30
0.0000000000
10
56.3002293467
20
138.6119197258
30
0.0000000000
10
56.3731160501
20
138.8421880633
30
0.0000000000
10
56.4444224672
20
139.0726414833
30
0.0000000000
10
56.5143965730
20
139.3036911161
30
0.0000000000
10
56.5838014971
20
139.5376347336
30
0.0000000000
10
56.6541995688
20
139.7797955489
30
0.0000000000
10
56.7274995300
20
140.0372436549
30
0.0000000000
10
56.8050296020
20
140.3154724704
30
0.0000000000
10
56.8872986365
20
140.6173627111
30
0.0000000000
10
56.9736138784
20
140.9414367924
30
0.0000000000
10
57.0621240936
20
141.2815847522
30
0.0000000000
10
57.1499042633
20
141.6269395940
30
0.0000000000
10
57.2072364695
20
141.8577173642
30
0.0000000000
10
57.2352514484
20
141.9717396338
30
0.0000000000
11
53.7702004569
21
134.7117396338
31
0.0000000000
11
53.8611795958
21
134.7153200989
31
0.0000000000
11
53.9543343642
21
134.7266203598
31
0.0000000000
11
54.0486995227
21
134.7464096259
31
0.0000000000
11
54.1431922368
21
134.7753458942
31
0.0000000000
11
54.2391966457
21
134.8149303980
31
0.0000000000
11
54.3406736129
21
134.8686428927
31
0.0000000000
11
54.4509417638
21
134.9415518911
31
0.0000000000
11
54.5716517587
21
135.0398126057
31
0.0000000000
11
54.7003671389
21
135.1666958174
31
0.0000000000
11
54.8322498327
21
135.3211214087
31
0.0000000000
11
54.9647444192
21
135.5011855055
31
0.0000000000
11
55.0974303988
21
135.7065369444
31
0.0000000000
11
55.2314105665
21
135.9390273258
31
0.0000000000
11
55.3732651180
21
136.2121493406
31
0.0000000000
11
55.5178339508
21
136.5176470334
31
0.0000000000
11
55.6544325486
21
136.8306023092
31
0.0000000000
11
55.7745129441
21
137.1255849953
31
0.0000000000
11
55.8754868134
21
137.3874110338
31
0.0000000000
11
55.9722058458
21
137.6490107191
31
0.0000000000
11
56.0639002309
21
137.9064229511
31
0.0000000000
11
56.1475465381
21
138.1493239514
31
0.0000000000
11
56.2253119565
21
138.3822033702
31
0.0000000000
11
56.3000143586
21
138.6122163596
31
0.0000000000
11
56.3728313054
21
138.8421506172
31
0.0000000000
11
56.4442498825
21
139.0729022057
31
0.0000000000
11
56.5141039185
21
139.3035090980
31
0.0000000000
11
56.5828674335
21
139.5352521161
31
0.0000000000
11
56.6524902144
21
139.7747136057
31
0.0000000000
11
56.7251923728
21
140.0300103569
31
0.0000000000
11
56.8025736323
21
140.3076386416
31
0.0000000000
11
56.8848438160
21
140.6094515762
31
0.0000000000
11
56.9717680438
21
140.9357281656
31
0.0000000000
11
57.0613393845
21
141.2798916165
31
0.0000000000
11
57.1503152694
21
141.6298930328
31
0.0000000000
11
57.2352514484
21
141.9717396338
31
0.0000000000
0
SPLINE
5
483
100
AcDbEntity
8
0
100
AcDbSpline
62
7
6
CONTINUOUS
70
0
71
3
72
10
73
6
74
4
42
0.0000001000
43
0.0000001000
44
0.0000000001
12
0.0798720634
22
0.2627044453
32
0.0000000000
13
0.0806807866
23
0.2624572011
33
0.0000000000
40
0.0000000000
40
0.0000000000
40
0.0000000000
40
0.0000000000
40
0.0078125719
40
0.2589548878
40
1.0000000000
40
1.0000000000
40
1.0000000000
40
1.0000000000
10
69.0099137663
20
209.3198915923
30
0.0000000000
10
69.0101217684
20
209.3205757247
30
0.0000000000
10
69.0170164422
20
209.3432518477
30
0.0000000000
10
69.0436739428
20
209.4308098126
30
0.0000000000
10
69.0702556221
20
209.5176434050
30
0.0000000000
10
69.0901849896
20
209.5824742804
30
0.0000000000
11
69.0099137663
21
209.3198915923
31
0.0000000000
11
69.0105377955
21
209.3219439827
31
0.0000000000
11
69.0306228442
21
209.3879123375
31
0.0000000000
11
69.0901849896
21
209.5824742804
31
0.0000000000
0
SPLINE
5
484
100
AcDbEntity
8
0
100
AcDbSpline
62
7
6
CONTINUOUS
70
0
71
3
72
55
73
51
74
49
42
0.0000001000
43
0.0000001000
44
0.0000000001
12
2.9174206832
22
11.7835039708
32
0.0000000000
13
2.9174206832
23
-11.7835039708
33
0.0000000000
40
0.0000000000
40
0.0000000000
40
0.0000000000
40
0.0000000000
40
0.0272469162
40
0.0508547188
40
0.0715910859
40
0.0901873145
40
0.1074117837
40
0.1239846437
40
0.1404969521
40
0.1570852446
40
0.1737143045
40
0.1901746217
40
0.2066218440
40
0.2244910086
40
0.2452318711
40
0.2680382550
40
0.2908788870
40
0.3134388055
40
0.3364122759
40
0.3598283708
40
0.3832404615
40
0.4065453842
40
0.4297273069
40
0.4529564645
40
0.4763322936
40
0.5000000000
40
0.5236677064
40
0.5470435355
40
0.5702726931
40
0.5934546158
40
0.6167595385
40
0.6401716292
40
0.6635877241
40
0.6865611945
40
0.7091211130
40
0.7319617450
40
0.7547681289
40
0.7755089914
40
0.7933781560
40
0.8098253783
40
0.8262856955
40
0.8429147554
40
0.8595030479
40
0.8760153563
40
0.8925882163
40
0.9098126855
40
0.9284089141
40
0.9491452812
40
0.9727530838
40
1.0000000000
40
1.0000000000
40
1.0000000000
40
1.0000000000
10
57.2352514484
20
141.9717396338
30
0.0000000000
10
57.2617483541
20
142.0787610157
30
0.0000000000
10
57.3113473739
20
142.2784743324
30
0.0000000000
10
57.3817536675
20
142.5594768040
30
0.0000000000
10
57.4442888653
20
142.8063642286
30
0.0000000000
10
57.5011757996
20
143.0280358205
30
0.0000000000
10
57.5545819926
20
143.2332061445
30
0.0000000000
10
57.6066120663
20
143.4300198526
30
0.0000000000
10
57.6588758709
20
143.6241072011
30
0.0000000000
10
57.7123369585
20
143.8181047801
30
0.0000000000
10
57.7672352627
20
144.0114827363
30
0.0000000000
10
57.8236835637
20
144.2038196161
30
0.0000000000
10
57.8834850694
20
144.4003926081
30
0.0000000000
10
57.9511153379
20
144.6126746310
30
0.0000000000
10
58.0314557652
20
144.8478741041
30
0.0000000000
10
58.1256863703
20
145.0994937588
30
0.0000000000
10
58.2327009904
20
145.3540047575
30
0.0000000000
10
58.3537084233
20
145.6030000703
30
0.0000000000
10
58.4935327335
20
145.8448103049
30
0.0000000000
10
58.6580493820
20
146.0750437341
30
0.0000000000
10
58.8490931532
20
146.2859472256
30
0.0000000000
10
59.0668505503
20
146.4679746736
30
0.0000000000
10
59.3084704529
20
146.6157234107
30
0.0000000000
10
59.5708111775
20
146.7234592950
30
0.0000000000
10
59.8488114355
20
146.7887028006
30
0.0000000000
10
60.1352514484
20
146.8098205504
30
0.0000000000
10
60.4216914613
20
146.7887028006
30
0.0000000000
10
60.6996917193
20
146.7234592950
30
0.0000000000
10
60.9620324439
20
146.6157234107
30
0.0000000000
10
61.2036523465
20
146.4679746736
30
0.0000000000
10
61.4214097436
20
146.2859472256
30
0.0000000000
10
61.6124535148
20
146.0750437341
30
0.0000000000
10
61.7769701634
20
145.8448103049
30
0.0000000000
10
61.9167944735
20
145.6030000703
30
0.0000000000
10
62.0378019064
20
145.3540047575
30
0.0000000000
10
62.1448165265
20
145.0994937588
30
0.0000000000
10
62.2390471316
20
144.8478741041
30
0.0000000000
10
62.3193875589
20
144.6126746310
30
0.0000000000
10
62.3870178275
20
144.4003926081
30
0.0000000000
10
62.4468193332
20
144.2038196161
30
0.0000000000
10
62.5032676342
20
144.0114827363
30
0.0000000000
10
62.5581659383
20
143.8181047801
30
0.0000000000
10
62.6116270259
20
143.6241072011
30
0.0000000000
10
62.6638908305
20
143.4300198526
30
0.0000000000
10
62.7159209043
20
143.2332061445
30
0.0000000000
10
62.7693270972
20
143.0280358205
30
0.0000000000
10
62.8262140316
20
142.8063642286
30
0.0000000000
10
62.8887492293
20
142.5594768040
30
0.0000000000
10
62.9591555229
20
142.2784743324
30
0.0000000000
10
63.0087545428
20
142.0787610157
30
0.0000000000
10
63.0352514484
20
141.9717396338
30
0.0000000000
11
57.2352514484
21
141.9717396338
31
0.0000000000
11
57.3150154972
21
142.2927359831
31
0.0000000000
11
57.3847046673
21
142.5707154986
31
0.0000000000
11
57.4465493694
21
142.8147248673
31
0.0000000000
11
57.5026858428
21
143.0333786769
31
0.0000000000
11
57.5553767240
21
143.2357235942
31
0.0000000000
11
57.6068237064
21
143.4302170243
31
0.0000000000
11
57.6589844475
21
143.6237590690
31
0.0000000000
11
57.7125421146
21
143.8178762412
31
0.0000000000
11
57.7677095262
21
144.0120566020
31
0.0000000000
11
57.8240130680
21
144.2037765965
31
0.0000000000
11
57.8822094878
21
144.3947643449
31
0.0000000000
11
57.9482475019
21
144.6013867152
31
0.0000000000
11
58.0298529714
21
144.8395743789
31
0.0000000000
11
58.1273421124
21
145.0986951902
31
0.0000000000
11
58.2354489939
21
145.3540204798
31
0.0000000000
11
58.3558618567
21
145.5999895404
31
0.0000000000
11
58.4963781129
21
145.8408839394
31
0.0000000000
11
58.6623572202
21
146.0716471935
31
0.0000000000
11
58.8539761741
21
146.2815407099
31
0.0000000000
11
59.0713282157
21
146.4626302523
31
0.0000000000
11
59.3117040078
21
146.6089593712
31
0.0000000000
11
59.5725389841
21
146.7161083238
31
0.0000000000
11
59.8487581358
21
146.7811166021
31
0.0000000000
11
60.1352514484
21
146.8027522443
31
0.0000000000
11
60.4217447610
21
146.7811166021
31
0.0000000000
11
60.6979639128
21
146.7161083238
31
0.0000000000
11
60.9587988890
21
146.6089593712
31
0.0000000000
11
61.1991746812
21
146.4626302523
31
0.0000000000
11
61.4165267227
21
146.2815407099
31
0.0000000000
11
61.6081456767
21
146.0716471935
31
0.0000000000
11
61.7741247840
21
145.8408839394
31
0.0000000000
11
61.9146410401
21
145.5999895404
31
0.0000000000
11
62.0350539030
21
145.3540204798
31
0.0000000000
11
62.1431607844
21
145.0986951902
31
0.0000000000
11
62.2406499255
21
144.8395743789
31
0.0000000000
11
62.3222553949
21
144.6013867152
31
0.0000000000
11
62.3882934090
21
144.3947643449
31
0.0000000000
11
62.4464898288
21
144.2037765965
31
0.0000000000
11
62.5027933706
21
144.0120566020
31
0.0000000000
11
62.5579607822
21
143.8178762412
31
0.0000000000
11
62.6115184494
21
143.6237590690
31
0.0000000000
11
62.6636791904
21
143.4302170243
31
0.0000000000
11
62.7151261728
21
143.2357235942
31
0.0000000000
11
62.7678170541
21
143.0333786769
31
0.0000000000
11
62.8239535274
21
142.8147248673
31
0.0000000000
11
62.8857982295
21
142.5707154986
31
0.0000000000
11
62.9554873996
21
142.2927359831
31
0.0000000000
11
63.0352514484
21
141.9717396338
31
0.0000000000
0
SPLINE
5
485
100
AcDbEntity
8
0
100
AcDbSpline
62
7
6
CONTINUOUS
70
0
71
3
72
42
73
38
74
36
42
0.0000001000
43
0.0000001000
44
0.0000000001
12
1.9988710092
22
-8.1354981467
32
0.0000000000
13
8.3774587657
23
-0.0001830944
33
0.0000000000
40
0.0000000000
40
0.0000000000
40
0.0000000000
40
0.0000000000
40
0.0420462033
40
0.0851540141
40
0.1276046350
40
0.1679100529
40
0.2052513194
40
0.2396544197
40
0.2713402646
40
0.3011079430
40
0.3299627193
40
0.3587249752
40
0.3875584263
40
0.4163486449
40
0.4452165478
40
0.4745238164
40
0.5051894382
40
0.5378074607
40
0.5710999832
40
0.6045972300
40
0.6426143893
40
0.6833746839
40
0.7237183968
40
0.7604554875
40
0.7924858148
40
0.8216699416
40
0.8483555236
40
0.8725964187
40
0.8941709971
40
0.9127502905
40
0.9285298054
40
0.9422350993
40
0.9546308604
40
0.9664272764
40
0.9779364743
40
0.9891376828
40
1.0000000000
40
1.0000000000
40
1.0000000000
40
1.0000000000
10
63.0352514484
20
141.9717396338
30
0.0000000000
10
63.0632664273
20
141.8577173642
30
0.0000000000
10
63.1205986336
20
141.6269395940
30
0.0000000000
10
63.2083788032
20
141.2815847522
30
0.0000000000
10
63.2968890185
20
140.9414367924
30
0.0000000000
10
63.3832042604
20
140.6173627111
30
0.0000000000
10
63.4654732949
20
140.3154724704
30
0.0000000000
10
63.5430033668
20
140.0372436549
30
0.0000000000
10
63.6163033281
20
139.7797955489
30
0.0000000000
10
63.6867013998
20
139.5376347336
30
0.0000000000
10
63.7561063239
20
139.3036911161
30
0.0000000000
10
63.8260804296
20
139.0726414833
30
0.0000000000
10
63.8973868467
20
138.8421880633
30
0.0000000000
10
63.9702735501
20
138.6119197258
30
0.0000000000
10
64.0452561312
20
138.3809332556
30
0.0000000000
10
64.1238008196
20
138.1456051509
30
0.0000000000
10
64.2079655955
20
137.9011237434
30
0.0000000000
10
64.2984292776
20
137.6470553432
30
0.0000000000
10
64.3946219430
20
137.3866518494
30
0.0000000000
10
64.4997794245
20
137.1135127740
30
0.0000000000
10
64.6177647130
20
136.8230070446
30
0.0000000000
10
64.7506600419
20
136.5180167226
30
0.0000000000
10
64.8910101834
20
136.2203127984
30
0.0000000000
10
65.0309463908
20
135.9495621965
30
0.0000000000
10
65.1670985709
20
135.7122158219
30
0.0000000000
10
65.2998615394
20
135.5056119873
30
0.0000000000
10
65.4320167338
20
135.3249165385
30
0.0000000000
10
65.5630431793
20
135.1702979472
30
0.0000000000
10
65.6908363459
20
135.0434311235
30
0.0000000000
10
65.8118285440
20
134.9442484735
30
0.0000000000
10
65.9238176846
20
134.8698705085
30
0.0000000000
10
66.0272446630
20
134.8148917390
30
0.0000000000
10
66.1251933828
20
134.7743983260
30
0.0000000000
10
66.2206601376
20
134.7451774059
30
0.0000000000
10
66.3151009905
20
134.7254139945
30
0.0000000000
10
66.4082782083
20
134.7141447720
30
0.0000000000
10
66.4699185778
20
134.7117402967
30
0.0000000000
10
66.5002514493
20
134.7117396338
30
0.0000000000
11
63.0352514484
21
141.9717396338
31
0.0000000000
11
63.1201876274
21
141.6298930328
31
0.0000000000
11
63.2091635123
21
141.2798916165
31
0.0000000000
11
63.2987348530
21
140.9357281656
31
0.0000000000
11
63.3856590808
21
140.6094515762
31
0.0000000000
11
63.4679292645
21
140.3076386416
31
0.0000000000
11
63.5453105240
21
140.0300103569
31
0.0000000000
11
63.6180126824
21
139.7747136057
31
0.0000000000
11
63.6876354633
21
139.5352521161
31
0.0000000000
11
63.7563989783
21
139.3035090980
31
0.0000000000
11
63.8262530143
21
139.0729022057
31
0.0000000000
11
63.8976715914
21
138.8421506172
31
0.0000000000
11
63.9704885382
21
138.6122163596
31
0.0000000000
11
64.0451909403
21
138.3822033702
31
0.0000000000
11
64.1229563588
21
138.1493239514
31
0.0000000000
11
64.2066026659
21
137.9064229511
31
0.0000000000
11
64.2982970510
21
137.6490107191
31
0.0000000000
11
64.3950160834
21
137.3874110338
31
0.0000000000
11
64.4959899528
21
137.1255849953
31
0.0000000000
11
64.6160703482
21
136.8306023092
31
0.0000000000
11
64.7526689460
21
136.5176470334
31
0.0000000000
11
64.8972377788
21
136.2121493406
31
0.0000000000
11
65.0390923304
21
135.9390273258
31
0.0000000000
11
65.1730724980
21
135.7065369444
31
0.0000000000
11
65.3057584777
21
135.5011855055
31
0.0000000000
11
65.4382530641
21
135.3211214087
31
0.0000000000
11
65.5701357579
21
135.1666958174
31
0.0000000000
11
65.6988511381
21
135.0398126057
31
0.0000000000
11
65.8195611330
21
134.9415518911
31
0.0000000000
11
65.9298292839
21
134.8686428927
31
0.0000000000
11
66.0313062512
21
134.8149303980
31
0.0000000000
11
66.1273106601
21
134.7753458942
31
0.0000000000
11
66.2218033742
21
134.7464096259
31
0.0000000000
11
66.3161685326
21
134.7266203598
31
0.0000000000
11
66.4093233011
21
134.7153200989
31
0.0000000000
11
66.5002514493
21
134.7117396338
31
0.0000000000
0
SPLINE
5
486
100
AcDbEntity
8
0
100
AcDbSpline
62
7
6
CONTINUOUS
70
0
71
3
72
17
73
13
74
11
42
0.0000001000
43
0.0000001000
44
0.0000000001
12
6.0275130821
22
0.0000000000
32
0.0000000000
13
1.7710967186
23
-5.7614347491
33
0.0000000000
40
0.0000000000
40
0.0000000000
40
0.0000000000
40
0.0000000000
40
0.0399475308
40
0.0847687105
40
0.1315464600
40
0.1828128169
40
0.2974752815
40
0.4047919692
40
0.5127861614
40
0.6324982363
40
0.7926306674
40
1.0000000000
40
1.0000000000
40
1.0000000000
40
1.0000000000
10
48.4717258218
20
214.7117396338
30
0.0000000000
10
48.5519872432
20
214.7117396338
30
0.0000000000
10
48.7234992521
20
214.6883214986
30
0.0000000000
10
48.9654235655
20
214.5722334104
30
0.0000000000
10
49.1846470189
20
214.3835641009
30
0.0000000000
10
49.4563200187
20
214.0519790975
30
0.0000000000
10
49.7289057883
20
213.5722757284
30
0.0000000000
10
50.0054488577
20
212.9698200529
30
0.0000000000
10
50.2553802641
20
212.3445128141
30
0.0000000000
10
50.5226298996
20
211.6125016267
30
0.0000000000
10
50.8357364496
20
210.6849257940
30
0.0000000000
10
51.0578941924
20
209.9807225734
30
0.0000000000
10
51.1803179072
20
209.5824742804
30
0.0000000000
11
48.4717258218
21
214.7117396338
31
0.0000000000
11
48.7101705070
21
214.6782553987
31
0.0000000000
11
48.9551447766
21
214.5643512010
31
0.0000000000
11
49.1720178662
21
214.3841739616
31
0.0000000000
11
49.3709199880
21
214.1476908040
31
0.0000000000
11
49.7267863854
21
213.5552221546
31
0.0000000000
11
49.9999565879
21
212.9688805251
31
0.0000000000
11
50.2437222713
21
212.3653107312
31
0.0000000000
11
50.4923997195
21
211.6879502955
31
0.0000000000
11
50.8027186402
21
210.7739952467
31
0.0000000000
11
51.1803179072
21
209.5824742804
31
0.0000000000
0
SPLINE
5
487
100
AcDbEntity
8
0
100
AcDbSpline
62
7
6
CONTINUOUS
70
0
71
3
72
10
73
6
74
4
42
0.0000001000
43
0.0000001000
44
0.0000000001
12
0.0806807866
22
-0.2624572011
32
0.0000000000
13
0.0798720635
23
-0.2627044453
33
0.0000000000
40
0.0000000000
40
0.0000000000
40
0.0000000000
40
0.0000000000
40
0.7410451122
40
0.9921874281
40
1.0000000000
40
1.0000000000
40
1.0000000000
40
1.0000000000
10
51.1803179072
20
209.5824742804
30
0.0000000000
10
51.2002472748
20
209.5176434050
30
0.0000000000
10
51.2268289540
20
209.4308098126
30
0.0000000000
10
51.2534864547
20
209.3432518477
30
0.0000000000
10
51.2603811284
20
209.3205757247
30
0.0000000000
10
51.2605891305
20
209.3198915923
30
0.0000000000
11
51.1803179072
21
209.5824742804
31
0.0000000000
11
51.2398800526
21
209.3879123375
31
0.0000000000
11
51.2599651013
21
209.3219439827
31
0.0000000000
11
51.2605891305
21
209.3198915923
31
0.0000000000
0
SPLINE
5
488
100
AcDbEntity
8
0
100
AcDbSpline
62
7
6
CONTINUOUS
70
0
71
3
72
17
73
13
74
11
42
0.0000001000
43
0.0000001000
44
0.0000000001
12
3.8987688086
22
0.0286135256
32
0.0000000000
13
1.1298577688
23
3.7161761645
33
0.0000000000
40
0.0000000000
40
0.0000000000
40
0.0000000000
40
0.0000000000
40
0.0637180324
40
0.1306211432
40
0.1948400205
40
0.2541173841
40
0.3593137680
40
0.4571709411
40
0.5547439955
40
0.6622536397
40
0.8066284585
40
1.0000000000
40
1.0000000000
40
1.0000000000
40
1.0000000000
10
67.1430128620
20
206.1528609787
30
0.0000000000
10
67.2258201544
20
206.1534687112
30
0.0000000000
10
67.3953857359
20
206.1747147850
30
0.0000000000
10
67.6293113306
20
206.2796462011
30
0.0000000000
10
67.8196571388
20
206.4398752629
30
0.0000000000
10
68.0065963303
20
206.6708168739
30
0.0000000000
10
68.1745657232
20
206.9677397604
30
0.0000000000
10
68.3341565659
20
207.3228200847
30
0.0000000000
10
68.4763265794
20
207.6885208611
30
0.0000000000
10
68.6274801333
20
208.1150010384
30
0.0000000000
10
68.8074740318
20
208.6627074225
30
0.0000000000
10
68.9370863768
20
209.0803573372
30
0.0000000000
10
69.0099138230
20
209.3198915750
30
0.0000000000
11
67.1430128620
21
206.1528609787
31
0.0000000000
11
67.3882191347
21
206.1858804256
31
0.0000000000
11
67.6256765620
21
206.2914347861
31
0.0000000000
11
67.8185097169
21
206.4496537410
31
0.0000000000
11
67.9652767635
21
206.6270533166
31
0.0000000000
11
68.1733008483
21
206.9787319391
31
0.0000000000
11
68.3312909917
21
207.3244315594
31
0.0000000000
11
68.4699566698
21
207.6771400177
31
0.0000000000
11
68.6102364190
21
208.0704550487
31
0.0000000000
11
68.7864025522
21
208.6028371335
31
0.0000000000
11
69.0099138230
21
209.3198915750
31
0.0000000000
0
SPLINE
5
489
100
AcDbEntity
8
0
100
AcDbSpline
62
7
6
CONTINUOUS
70
0
71
3
72
17
73
13
74
11
42
0.0000001000
43
0.0000001000
44
0.0000000001
12
1.7710967186
22
5.7614347491
32
0.0000000000
13
6.0275130821
23
0.0000000000
33
0.0000000000
40
0.0000000000
40
0.0000000000
40
0.0000000000
40
0.0000000000
40
0.2073693326
40
0.3675017637
40
0.4872138386
40
0.5952080308
40
0.7025247185
40
0.8171871831
40
0.8684535400
40
0.9152312895
40
0.9600524692
40
1.0000000000
40
1.0000000000
40
1.0000000000
40
1.0000000000
10
69.0901849896
20
209.5824742804
30
0.0000000000
10
69.2126087045
20
209.9807225734
30
0.0000000000
10
69.4347664472
20
210.6849257940
30
0.0000000000
10
69.7478729972
20
211.6125016267
30
0.0000000000
10
70.0151226327
20
212.3445128141
30
0.0000000000
10
70.2650540392
20
212.9698200529
30
0.0000000000
10
70.5415971085
20
213.5722757284
30
0.0000000000
10
70.8141828781
20
214.0519790975
30
0.0000000000
10
71.0858558780
20
214.3835641009
30
0.0000000000
10
71.3050793314
20
214.5722334104
30
0.0000000000
10
71.5470036448
20
214.6883214986
30
0.0000000000
10
71.7185156536
20
214.7117396338
30
0.0000000000
10
71.7987770751
20
214.7117396338
30
0.0000000000
11
69.0901849896
21
209.5824742804
31
0.0000000000
11
69.4677842566
21
210.7739952467
31
0.0000000000
11
69.7781031774
21
211.6879502955
31
0.0000000000
11
70.0267806255
21
212.3653107312
31
0.0000000000
11
70.2705463089
21
212.9688805251
31
0.0000000000
11
70.5437165114
21
213.5552221546
31
0.0000000000
11
70.8995829089
21
214.1476908040
31
0.0000000000
11
71.0984850306
21
214.3841739616
31
0.0000000000
11
71.3153581202
21
214.5643512010
31
0.0000000000
11
71.5603323898
21
214.6782553987
31
0.0000000000
11
71.7987770751
21
214.7117396338
31
0.0000000000
0
SPLINE
5
48A
100
AcDbEntity
8
0
100
AcDbSpline
62
7
6
CONTINUOUS
70
0
71
3
72
17
73
13
74
11
42
0.0000001000
43
0.0000001000
44
0.0000000001
12
1.1298577688
22
-3.7161761645
32
0.0000000000
13
3.8987688086
23
-0.0286135256
33
0.0000000000
40
0.0000000000
40
0.0000000000
40
0.0000000000
40
0.0000000000
40
0.1933715415
40
0.3377463603
40
0.4452560045
40
0.5428290589
40
0.6406862320
40
0.7458826159
40
0.8051599795
40
0.8693788568
40
0.9362819676
40
1.0000000000
40
1.0000000000
40
1.0000000000
40
1.0000000000
10
51.2605890738
20
209.3198915750
30
0.0000000000
10
51.3334165200
20
209.0803573372
30
0.0000000000
10
51.4630288651
20
208.6627074225
30
0.0000000000
10
51.6430227635
20
208.1150010384
30
0.0000000000
10
51.7941763174
20
207.6885208611
30
0.0000000000
10
51.9363463309
20
207.3228200847
30
0.0000000000
10
52.0959371736
20
206.9677397604
30
0.0000000000
10
52.2639065666
20
206.6708168739
30
0.0000000000
10
52.4508457580
20
206.4398752629
30
0.0000000000
10
52.6411915662
20
206.2796462011
30
0.0000000000
10
52.8751171610
20
206.1747147850
30
0.0000000000
10
53.0446827424
20
206.1534687112
30
0.0000000000
10
53.1274900348
20
206.1528609787
30
0.0000000000
11
51.2605890738
21
209.3198915750
31
0.0000000000
11
51.4841003447
21
208.6028371335
31
0.0000000000
11
51.6602664778
21
208.0704550487
31
0.0000000000
11
51.8005462270
21
207.6771400177
31
0.0000000000
11
51.9392119051
21
207.3244315594
31
0.0000000000
11
52.0972020485
21
206.9787319391
31
0.0000000000
11
52.3052261333
21
206.6270533166
31
0.0000000000
11
52.4519931799
21
206.4496537410
31
0.0000000000
11
52.6448263348
21
206.2914347861
31
0.0000000000
11
52.8822837622
21
206.1858804256
31
0.0000000000
11
53.1274900348
21
206.1528609787
31
0.0000000000
0
SPLINE
5
48B
100
AcDbEntity
8
0
100
AcDbSpline
62
7
6
CONTINUOUS
70
0
71
3
72
42
73
38
74
36
42
0.0000001000
43
0.0000001000
44
0.0000000001
12
-8.3774821040
22
0.0000000000
32
0.0000000000
13
-1.9988770924
23
8.1355229055
33
0.0000000000
40
0.0000000000
40
0.0000000000
40
0.0000000000
40
0.0000000000
40
0.0108653275
40
0.0220665018
40
0.0335756647
40
0.0453720448
40
0.0577677682
40
0.0714730204
40
0.0872524873
40
0.1058317242
40
0.1274062369
40
0.1516470582
40
0.1783325590
40
0.2075165970
40
0.2395468268
40
0.2762838057
40
0.3166273958
40
0.3573875664
40
0.3954046100
40
0.4289017548
40
0.4621941760
40
0.4948120993
40
0.5254776277
40
0.5547848072
40
0.5836526222
40
0.6124427532
40
0.6412761166
40
0.6700382848
40
0.6988929734
40
0.7286605612
40
0.7603463096
40
0.7947493053
40
0.8320904581
40
0.8723957534
40
0.9148462450
40
0.9579539247
40
1.0000000000
40
1.0000000000
40
1.0000000000
40
1.0000000000
10
74.8002769445
20
134.7117396335
30
0.0000000000
10
74.7699355824
20
134.7117396335
30
0.0000000000
10
74.7082866547
20
134.7141437505
30
0.0000000000
10
74.6151009905
20
134.7254139945
30
0.0000000000
10
74.5206601376
20
134.7451774059
30
0.0000000000
10
74.4251933828
20
134.7743983260
30
0.0000000000
10
74.3272446630
20
134.8148917390
30
0.0000000000
10
74.2238176846
20
134.8698705085
30
0.0000000000
10
74.1118285440
20
134.9442484735
30
0.0000000000
10
73.9908363459
20
135.0434311235
30
0.0000000000
10
73.8630431793
20
135.1702979472
30
0.0000000000
10
73.7320167338
20
135.3249165385
30
0.0000000000
10
73.5998615394
20
135.5056119873
30
0.0000000000
10
73.4670985709
20
135.7122158219
30
0.0000000000
10
73.3309463908
20
135.9495621965
30
0.0000000000
10
73.1910101834
20
136.2203127984
30
0.0000000000
10
73.0506600419
20
136.5180167226
30
0.0000000000
10
72.9177647130
20
136.8230070446
30
0.0000000000
10
72.7997794245
20
137.1135127740
30
0.0000000000
10
72.6946219430
20
137.3866518494
30
0.0000000000
10
72.5984292776
20
137.6470553432
30
0.0000000000
10
72.5079655955
20
137.9011237434
30
0.0000000000
10
72.4238008196
20
138.1456051509
30
0.0000000000
10
72.3452561312
20
138.3809332556
30
0.0000000000
10
72.2702735501
20
138.6119197258
30
0.0000000000
10
72.1973868467
20
138.8421880633
30
0.0000000000
10
72.1260804296
20
139.0726414833
30
0.0000000000
10
72.0561063239
20
139.3036911161
30
0.0000000000
10
71.9867013998
20
139.5376347336
30
0.0000000000
10
71.9163033281
20
139.7797955489
30
0.0000000000
10
71.8430033668
20
140.0372436549
30
0.0000000000
10
71.7654732949
20
140.3154724704
30
0.0000000000
10
71.6832042604
20
140.6173627111
30
0.0000000000
10
71.5968890185
20
140.9414367924
30
0.0000000000
10
71.5083788032
20
141.2815847522
30
0.0000000000
10
71.4205986336
20
141.6269395940
30
0.0000000000
10
71.3632664273
20
141.8577173642
30
0.0000000000
10
71.3352514484
20
141.9717396338
30
0.0000000000
11
74.8002769445
21
134.7117396335
31
0.0000000000
11
74.7093233011
21
134.7153200989
31
0.0000000000
11
74.6161685326
21
134.7266203598
31
0.0000000000
11
74.5218033742
21
134.7464096259
31
0.0000000000
11
74.4273106601
21
134.7753458942
31
0.0000000000
11
74.3313062512
21
134.8149303980
31
0.0000000000
11
74.2298292839
21
134.8686428927
31
0.0000000000
11
74.1195611330
21
134.9415518911
31
0.0000000000
11
73.9988511381
21
135.0398126057
31
0.0000000000
11
73.8701357579
21
135.1666958174
31
0.0000000000
11
73.7382530641
21
135.3211214087
31
0.0000000000
11
73.6057584777
21
135.5011855055
31
0.0000000000
11
73.4730724980
21
135.7065369444
31
0.0000000000
11
73.3390923304
21
135.9390273258
31
0.0000000000
11
73.1972377788
21
136.2121493406
31
0.0000000000
11
73.0526689460
21
136.5176470334
31
0.0000000000
11
72.9160703482
21
136.8306023092
31
0.0000000000
11
72.7959899528
21
137.1255849953
31
0.0000000000
11
72.6950160834
21
137.3874110338
31
0.0000000000
11
72.5982970510
21
137.6490107191
31
0.0000000000
11
72.5066026659
21
137.9064229511
31
0.0000000000
11
72.4229563588
21
138.1493239514
31
0.0000000000
11
72.3451909403
21
138.3822033702
31
0.0000000000
11
72.2704885382
21
138.6122163596
31
0.0000000000
11
72.1976715914
21
138.8421506172
31
0.0000000000
11
72.1262530143
21
139.0729022057
31
0.0000000000
11
72.0563989783
21
139.3035090980
31
0.0000000000
11
71.9876354633
21
139.5352521161
31
0.0000000000
11
71.9180126824
21
139.7747136057
31
0.0000000000
11
71.8453105240
21
140.0300103569
31
0.0000000000
11
71.7679292645
21
140.3076386416
31
0.0000000000
11
71.6856590808
21
140.6094515762
31
0.0000000000
11
71.5987348530
21
140.9357281656
31
0.0000000000
11
71.5091635123
21
141.2798916165
31
0.0000000000
11
71.4201876274
21
141.6298930328
31
0.0000000000
11
71.3352514484
21
141.9717396338
31
0.0000000000
0
SPLINE
5
48C
100
AcDbEntity
8
0
100
AcDbSpline
62
7
6
CONTINUOUS
70
0
71
3
72
31
73
27
74
25
42
0.0000001000
43
0.0000001000
44
0.0000000001
12
-1.4562259699
22
5.8817175726
32
0.0000000000
13
-6.0658206896
23
0.0322164229
33
0.0000000000
40
0.0000000000
40
0.0000000000
40
0.0000000000
40
0.0000000000
40
0.0545868008
40
0.1018829574
40
0.1434264455
40
0.1806823543
40
0.2151900637
40
0.2483923316
40
0.2814732894
40
0.3147064749
40
0.3480213342
40
0.3809981324
40
0.4139486959
40
0.4497479959
40
0.4913004901
40
0.5369910751
40
0.5827502727
40
0.6279470858
40
0.6739724136
40
0.7208845007
40
0.7677885658
40
0.8144779292
40
0.8609208731
40
0.9074584477
40
0.9542898658
40
1.0000000000
40
1.0000000000
40
1.0000000000
40
1.0000000000
10
71.3352514484
20
141.9717396338
30
0.0000000000
10
71.3087545428
20
142.0787610157
30
0.0000000000
10
71.2591555229
20
142.2784743324
30
0.0000000000
10
71.1887492293
20
142.5594768040
30
0.0000000000
10
71.1262140316
20
142.8063642286
30
0.0000000000
10
71.0693270972
20
143.0280358205
30
0.0000000000
10
71.0159209043
20
143.2332061445
30
0.0000000000
10
70.9638908305
20
143.4300198526
30
0.0000000000
10
70.9116270259
20
143.6241072011
30
0.0000000000
10
70.8581659383
20
143.8181047801
30
0.0000000000
10
70.8032676342
20
144.0114827363
30
0.0000000000
10
70.7468193332
20
144.2038196161
30
0.0000000000
10
70.6870178275
20
144.4003926081
30
0.0000000000
10
70.6193875589
20
144.6126746310
30
0.0000000000
10
70.5390471316
20
144.8478741041
30
0.0000000000
10
70.4448165265
20
145.0994937588
30
0.0000000000
10
70.3378019064
20
145.3540047575
30
0.0000000000
10
70.2167944735
20
145.6030000703
30
0.0000000000
10
70.0769701634
20
145.8448103049
30
0.0000000000
10
69.9124535148
20
146.0750437341
30
0.0000000000
10
69.7214097436
20
146.2859472256
30
0.0000000000
10
69.5036523465
20
146.4679746736
30
0.0000000000
10
69.2620324439
20
146.6157234107
30
0.0000000000
10
68.9996917193
20
146.7234592950
30
0.0000000000
10
68.7250602682
20
146.7879121799
30
0.0000000000
10
68.5380232118
20
146.8022339008
30
0.0000000000
10
68.4456000526
20
146.8027247732
30
0.0000000000
11
71.3352514484
21
141.9717396338
31
0.0000000000
11
71.2554873996
21
142.2927359831
31
0.0000000000
11
71.1857982295
21
142.5707154986
31
0.0000000000
11
71.1239535274
21
142.8147248673
31
0.0000000000
11
71.0678170541
21
143.0333786769
31
0.0000000000
11
71.0151261728
21
143.2357235942
31
0.0000000000
11
70.9636791904
21
143.4302170243
31
0.0000000000
11
70.9115184494
21
143.6237590690
31
0.0000000000
11
70.8579607822
21
143.8178762412
31
0.0000000000
11
70.8027933706
21
144.0120566020
31
0.0000000000
11
70.7464898288
21
144.2037765965
31
0.0000000000
11
70.6882934090
21
144.3947643449
31
0.0000000000
11
70.6222553949
21
144.6013867152
31
0.0000000000
11
70.5406499255
21
144.8395743789
31
0.0000000000
11
70.4431607844
21
145.0986951902
31
0.0000000000
11
70.3350539030
21
145.3540204798
31
0.0000000000
11
70.2146410401
21
145.5999895404
31
0.0000000000
11
70.0741247840
21
145.8408839394
31
0.0000000000
11
69.9081456767
21
146.0716471935
31
0.0000000000
11
69.7165267227
21
146.2815407099
31
0.0000000000
11
69.4991746812
21
146.4626302523
31
0.0000000000
11
69.2587988890
21
146.6089593712
31
0.0000000000
11
68.9979639128
21
146.7161083238
31
0.0000000000
11
68.7217447610
21
146.7811166021
31
0.0000000000
11
68.4456000526
21
146.8027247732
31
0.0000000000
0
SPLINE
5
48D
100
AcDbEntity
8
0
100
AcDbSpline
62
7
6
CONTINUOUS
70
0
71
3
72
42
73
38
74
36
42
0.0000001000
43
0.0000001000
44
0.0000000001
12
-1.9988770924
22
-8.1355229055
32
0.0000000000
13
-8.3774821040
23
0.0000000000
33
0.0000000000
40
0.0000000000
40
0.0000000000
40
0.0000000000
40
0.0000000000
40
0.0420460753
40
0.0851537550
40
0.1276042466
40
0.1679095419
40
0.2052506947
40
0.2396536904
40
0.2713394388
40
0.3011070266
40
0.3299617152
40
0.3587238834
40
0.3875572468
40
0.4163473778
40
0.4452151928
40
0.4745223723
40
0.5051879007
40
0.5378058240
40
0.5710982452
40
0.6045953900
40
0.6426124336
40
0.6833726042
40
0.7237161943
40
0.7604531732
40
0.7924834030
40
0.8216674410
40
0.8483529418
40
0.8725937631
40
0.8941682758
40
0.9127475127
40
0.9285269796
40
0.9422322318
40
0.9546279552
40
0.9664243353
40
0.9779334982
40
0.9891346725
40
1.0000000000
40
1.0000000000
40
1.0000000000
40
1.0000000000
10
48.9352514484
20
141.9717396338
30
0.0000000000
10
48.9072364695
20
141.8577173642
30
0.0000000000
10
48.8499042633
20
141.6269395940
30
0.0000000000
10
48.7621240936
20
141.2815847522
30
0.0000000000
10
48.6736138784
20
140.9414367924
30
0.0000000000
10
48.5872986365
20
140.6173627111
30
0.0000000000
10
48.5050296020
20
140.3154724704
30
0.0000000000
10
48.4274995300
20
140.0372436549
30
0.0000000000
10
48.3541995688
20
139.7797955489
30
0.0000000000
10
48.2838014971
20
139.5376347336
30
0.0000000000
10
48.2143965730
20
139.3036911161
30
0.0000000000
10
48.1444224672
20
139.0726414833
30
0.0000000000
10
48.0731160501
20
138.8421880633
30
0.0000000000
10
48.0002293467
20
138.6119197258
30
0.0000000000
10
47.9252467656
20
138.3809332556
30
0.0000000000
10
47.8467020772
20
138.1456051509
30
0.0000000000
10
47.7625373013
20
137.9011237434
30
0.0000000000
10
47.6720736193
20
137.6470553432
30
0.0000000000
10
47.5758809539
20
137.3866518494
30
0.0000000000
10
47.4707234723
20
137.1135127740
30
0.0000000000
10
47.3527381838
20
136.8230070446
30
0.0000000000
10
47.2198428549
20
136.5180167226
30
0.0000000000
10
47.0794927135
20
136.2203127984
30
0.0000000000
10
46.9395565060
20
135.9495621965
30
0.0000000000
10
46.8034043259
20
135.7122158219
30
0.0000000000
10
46.6706413575
20
135.5056119873
30
0.0000000000
10
46.5384861630
20
135.3249165385
30
0.0000000000
10
46.4074597175
20
135.1702979472
30
0.0000000000
10
46.2796665509
20
135.0434311235
30
0.0000000000
10
46.1586743529
20
134.9442484735
30
0.0000000000
10
46.0466852122
20
134.8698705085
30
0.0000000000
10
45.9432582339
20
134.8148917390
30
0.0000000000
10
45.8453095140
20
134.7743983260
30
0.0000000000
10
45.7498427592
20
134.7451774059
30
0.0000000000
10
45.6554019063
20
134.7254139945
30
0.0000000000
10
45.5622162421
20
134.7141437505
30
0.0000000000
10
45.5005673145
20
134.7117396335
30
0.0000000000
10
45.4702259523
20
134.7117396335
30
0.0000000000
11
48.9352514484
21
141.9717396338
31
0.0000000000
11
48.8503152694
21
141.6298930328
31
0.0000000000
11
48.7613393845
21
141.2798916165
31
0.0000000000
11
48.6717680438
21
140.9357281656
31
0.0000000000
11
48.5848438160
21
140.6094515762
31
0.0000000000
11
48.5025736323
21
140.3076386416
31
0.0000000000
11
48.4251923728
21
140.0300103569
31
0.0000000000
11
48.3524902144
21
139.7747136057
31
0.0000000000
11
48.2828674335
21
139.5352521161
31
0.0000000000
11
48.2141039185
21
139.3035090980
31
0.0000000000
11
48.1442498825
21
139.0729022057
31
0.0000000000
11
48.0728313054
21
138.8421506172
31
0.0000000000
11
48.0000143586
21
138.6122163596
31
0.0000000000
11
47.9253119565
21
138.3822033702
31
0.0000000000
11
47.8475465381
21
138.1493239514
31
0.0000000000
11
47.7639002309
21
137.9064229511
31
0.0000000000
11
47.6722058458
21
137.6490107191
31
0.0000000000
11
47.5754868134
21
137.3874110338
31
0.0000000000
11
47.4745129441
21
137.1255849953
31
0.0000000000
11
47.3544325486
21
136.8306023092
31
0.0000000000
11
47.2178339508
21
136.5176470334
31
0.0000000000
11
47.0732651180
21
136.2121493406
31
0.0000000000
11
46.9314105665
21
135.9390273258
31
0.0000000000
11
46.7974303988
21
135.7065369444
31
0.0000000000
11
46.6647444192
21
135.5011855055
31
0.0000000000
11
46.5322498327
21
135.3211214087
31
0.0000000000
11
46.4003671389
21
135.1666958174
31
0.0000000000
11
46.2716517587
21
135.0398126057
31
0.0000000000
11
46.1509417638
21
134.9415518911
31
0.0000000000
11
46.0406736129
21
134.8686428927
31
0.0000000000
11
45.9391966457
21
134.8149303980
31
0.0000000000
11
45.8431922368
21
134.7753458942
31
0.0000000000
11
45.7486995227
21
134.7464096259
31
0.0000000000
11
45.6543343642
21
134.7266203598
31
0.0000000000
11
45.5611795958
21
134.7153200989
31
0.0000000000
11
45.4702259523
21
134.7117396335
31
0.0000000000
0
SPLINE
5
48E
100
AcDbEntity
8
0
100
AcDbSpline
62
7
6
CONTINUOUS
70
0
71
3
72
31
73
27
74
25
42
0.0000001000
43
0.0000001000
44
0.0000000001
12
-6.0658206896
22
-0.0322164229
32
0.0000000000
13
-1.4562259699
23
-5.8817175726
33
0.0000000000
40
0.0000000000
40
0.0000000000
40
0.0000000000
40
0.0000000000
40
0.0457101342
40
0.0925415523
40
0.1390791269
40
0.1855220708
40
0.2322114342
40
0.2791154993
40
0.3260275864
40
0.3720529142
40
0.4172497273
40
0.4630089249
40
0.5086995099
40
0.5502520041
40
0.5860513041
40
0.6190018676
40
0.6519786658
40
0.6852935251
40
0.7185267106
40
0.7516076684
40
0.7848099363
40
0.8193176457
40
0.8565735545
40
0.8981170426
40
0.9454131992
40
1.0000000000
40
1.0000000000
40
1.0000000000
40
1.0000000000
10
51.8249028442
20
146.8027247732
30
0.0000000000
10
51.7324796850
20
146.8022339008
30
0.0000000000
10
51.5454426287
20
146.7879121799
30
0.0000000000
10
51.2708111775
20
146.7234592950
30
0.0000000000
10
51.0084704529
20
146.6157234107
30
0.0000000000
10
50.7668505503
20
146.4679746736
30
0.0000000000
10
50.5490931532
20
146.2859472256
30
0.0000000000
10
50.3580493820
20
146.0750437341
30
0.0000000000
10
50.1935327335
20
145.8448103049
30
0.0000000000
10
50.0537084233
20
145.6030000703
30
0.0000000000
10
49.9327009904
20
145.3540047575
30
0.0000000000
10
49.8256863703
20
145.0994937588
30
0.0000000000
10
49.7314557652
20
144.8478741041
30
0.0000000000
10
49.6511153379
20
144.6126746310
30
0.0000000000
10
49.5834850694
20
144.4003926081
30
0.0000000000
10
49.5236835637
20
144.2038196161
30
0.0000000000
10
49.4672352627
20
144.0114827363
30
0.0000000000
10
49.4123369585
20
143.8181047801
30
0.0000000000
10
49.3588758709
20
143.6241072011
30
0.0000000000
10
49.3066120663
20
143.4300198526
30
0.0000000000
10
49.2545819926
20
143.2332061445
30
0.0000000000
10
49.2011757996
20
143.0280358205
30
0.0000000000
10
49.1442888653
20
142.8063642286
30
0.0000000000
10
49.0817536675
20
142.5594768040
30
0.0000000000
10
49.0113473739
20
142.2784743324
30
0.0000000000
10
48.9617483541
20
142.0787610157
30
0.0000000000
10
48.9352514484
20
141.9717396338
30
0.0000000000
11
51.8249028442
21
146.8027247732
31
0.0000000000
11
51.5487581358
21
146.7811166021
31
0.0000000000
11
51.2725389841
21
146.7161083238
31
0.0000000000
11
51.0117040078
21
146.6089593712
31
0.0000000000
11
50.7713282157
21
146.4626302523
31
0.0000000000
11
50.5539761741
21
146.2815407099
31
0.0000000000
11
50.3623572202
21
146.0716471935
31
0.0000000000
11
50.1963781129
21
145.8408839394
31
0.0000000000
11
50.0558618567
21
145.5999895404
31
0.0000000000
11
49.9354489939
21
145.3540204798
31
0.0000000000
11
49.8273421124
21
145.0986951902
31
0.0000000000
11
49.7298529714
21
144.8395743789
31
0.0000000000
11
49.6482475019
21
144.6013867152
31
0.0000000000
11
49.5822094878
21
144.3947643449
31
0.0000000000
11
49.5240130680
21
144.2037765965
31
0.0000000000
11
49.4677095262
21
144.0120566020
31
0.0000000000
11
49.4125421146
21
143.8178762412
31
0.0000000000
11
49.3589844475
21
143.6237590690
31
0.0000000000
11
49.3068237064
21
143.4302170243
31
0.0000000000
11
49.2553767240
21
143.2357235942
31
0.0000000000
11
49.2026858428
21
143.0333786769
31
0.0000000000
11
49.1465493694
21
142.8147248673
31
0.0000000000
11
49.0847046673
21
142.5707154986
31
0.0000000000
11
49.0150154972
21
142.2927359831
31
0.0000000000
11
48.9352514484
21
141.9717396338
31
0.0000000000
0
SPLINE
5
48F
100
AcDbEntity
8
0
100
AcDbSpline
62
9
6
CONTINUOUS
70
0
71
3
72
17
73
13
74
11
42
0.0000001000
43
0.0000001000
44
0.0000000001
12
-3.7492785931
22
-0.1206153220
32
0.0000000000
13
-3.7492785931
23
0.1206153220
33
0.0000000000
40
0.0000000000
40
0.0000000000
40
0.0000000000
40
0.0000000000
40
0.0246357596
40
0.0956310247
40
0.2062087424
40
0.3455447954
40
0.5000000000
40
0.6544552046
40
0.7937912576
40
0.9043689753
40
0.9753642404
40
1.0000000000
40
1.0000000000
40
1.0000000000
40
1.0000000000
10
62.0105377955
20
209.3219439827
30
0.0000000000
10
61.9797490201
20
209.3209534993
30
0.0000000000
10
61.8602185827
20
209.3184279575
30
0.0000000000
10
61.6023892808
20
209.3207579510
30
0.0000000000
10
61.2012003486
20
209.3195388841
30
0.0000000000
10
60.6956507116
20
209.3200149303
30
0.0000000000
10
60.1352514484
20
209.3198267496
30
0.0000000000
10
59.5748521852
20
209.3200149303
30
0.0000000000
10
59.0693025482
20
209.3195388841
30
0.0000000000
10
58.6681136161
20
209.3207579510
30
0.0000000000
10
58.4102843141
20
209.3184279575
30
0.0000000000
10
58.2907538767
20
209.3209534993
30
0.0000000000
10
58.2599651013
20
209.3219439827
30
0.0000000000
11
62.0105377955
21
209.3219439827
31
0.0000000000
11
61.9181612617
21
209.3198915923
31
0.0000000000
11
61.6518851223
21
209.3198915923
31
0.0000000000
11
61.2371503119
21
209.3198915923
31
0.0000000000
11
60.7145539634
21
209.3198915923
31
0.0000000000
11
60.1352514484
21
209.3198915923
31
0.0000000000
11
59.5559489335
21
209.3198915923
31
0.0000000000
11
59.0333525849
21
209.3198915923
31
0.0000000000
11
58.6186177745
21
209.3198915923
31
0.0000000000
11
58.3523416351
21
209.3198915923
31
0.0000000000
11
58.2599651013
21
209.3219439827
31
0.0000000000
0
SPLINE
5
490
100
AcDbEntity
8
0
100
AcDbSpline
62
7
6
CONTINUOUS
70
0
71
3
72
9
73
5
74
3
42
0.0000001000
43
0.0000001000
44
0.0000000001
12
0.0002738206
22
-0.2625916752
32
0.0000000000
13
0.0015247080
23
-0.2625873915
33
0.0000000000
40
0.0000000000
40
0.0000000000
40
0.0000000000
40
0.0000000000
40
0.4990618266
40
1.0000000000
40
1.0000000000
40
1.0000000000
40
1.0000000000
10
54.1398171887
20
209.5824742804
30
0.0000000000
10
54.1398627398
20
209.5387911200
30
0.0000000000
10
54.1400601451
20
209.4512606409
30
0.0000000000
10
54.1404666930
20
209.3637308881
30
0.0000000000
10
54.1407212878
20
209.3198842054
30
0.0000000000
11
54.1398171887
21
209.5824742804
31
0.0000000000
11
54.1401118643
21
209.4514250593
31
0.0000000000
11
54.1407212878
21
209.3198842054
31
0.0000000000
0
SPLINE
5
491
100
AcDbEntity
8
0
100
AcDbSpline
62
7
6
CONTINUOUS
70
0
71
3
72
19
73
15
74
13
42
0.0000001000
43
0.0000001000
44
0.0000000001
12
0.5116762364
22
-4.8138881975
32
0.0000000000
13
-0.3564611282
23
-4.8276084789
33
0.0000000000
40
0.0000000000
40
0.0000000000
40
0.0000000000
40
0.0000000000
40
0.0139005424
40
0.0545260906
40
0.1159384901
40
0.1942056294
40
0.2858025991
40
0.3859846251
40
0.4882869871
40
0.5905768013
40
0.6927000700
40
0.7948125931
40
0.8971403181
40
1.0000000000
40
1.0000000000
40
1.0000000000
40
1.0000000000
10
52.9760972991
20
146.8027522443
30
0.0000000000
10
52.9784681582
20
146.7804470253
30
0.0000000000
10
52.9870458845
20
146.6928822944
30
0.0000000000
10
52.9999839645
20
146.5062128799
30
0.0000000000
10
53.0108251456
20
146.2154225837
30
0.0000000000
10
53.0110971534
20
145.8421560675
30
0.0000000000
10
52.9976587982
20
145.4065705240
30
0.0000000000
10
52.9727960249
20
144.9326756723
30
0.0000000000
10
52.9407291289
20
144.4419371213
30
0.0000000000
10
52.9051767315
20
143.9483031793
30
0.0000000000
10
52.8680693565
20
143.4550921716
30
0.0000000000
10
52.8304728478
20
142.9618571423
30
0.0000000000
10
52.7929199928
20
142.4674270435
30
0.0000000000
10
52.7682300501
20
142.1372617246
30
0.0000000000
10
52.7560082240
20
141.9717396338
30
0.0000000000
11
52.9760972991
21
146.8027522443
31
0.0000000000
11
52.9826796444
21
146.7357859056
31
0.0000000000
11
52.9968317975
21
146.5396376293
31
0.0000000000
11
53.0082199952
21
146.2425737162
31
0.0000000000
11
53.0092444713
21
145.8637033852
31
0.0000000000
11
52.9965644224
21
145.4204866280
31
0.0000000000
11
52.9719506779
21
144.9361554398
31
0.0000000000
11
52.9401805579
21
144.4419553336
31
0.0000000000
11
52.9048940871
21
143.9480547429
31
0.0000000000
11
52.8679873451
21
143.4550810410
31
0.0000000000
11
52.8305214742
21
142.9622016843
31
0.0000000000
11
52.7930806253
21
142.4682756921
31
0.0000000000
11
52.7560082240
21
141.9717396338
31
0.0000000000
0
SPLINE
5
492
100
AcDbEntity
8
0
100
AcDbSpline
62
7
6
CONTINUOUS
70
0
71
3
72
28
73
24
74
22
42
0.0000001000
43
0.0000001000
44
0.0000000001
12
-5.5227171704
22
0.0000000000
32
0.0000000000
13
0.0057588761
23
-5.5227141678
33
0.0000000000
40
0.0000000000
40
0.0000000000
40
0.0000000000
40
0.0000000000
40
0.0156262280
40
0.0308880495
40
0.0463835898
40
0.0630273919
40
0.0818095828
40
0.1039175867
40
0.1305249202
40
0.1621282755
40
0.1988560245
40
0.2405272255
40
0.2862992214
40
0.3356172825
40
0.3882459204
40
0.4443886430
40
0.5049028458
40
0.5706714223
40
0.6425786644
40
0.7211434894
40
0.8066857929
40
0.8995195143
40
1.0000000000
40
1.0000000000
40
1.0000000000
40
1.0000000000
10
55.1863597816
20
214.7117396338
30
0.0000000000
10
55.1575933692
20
214.7117396338
30
0.0000000000
10
55.1006628922
20
214.7085823717
30
0.0000000000
10
55.0164473620
20
214.6929398769
30
0.0000000000
10
54.9337373077
20
214.6638946591
30
0.0000000000
10
54.8516082239
20
214.6176914153
30
0.0000000000
10
54.7696203384
20
214.5497189815
30
0.0000000000
10
54.6894524621
20
214.4539885469
30
0.0000000000
10
54.6129370452
20
214.3269104651
30
0.0000000000
10
54.5418345516
20
214.1668943283
30
0.0000000000
10
54.4767820088
20
213.9748953698
30
0.0000000000
10
54.4193947919
20
213.7534661513
30
0.0000000000
10
54.3695148066
20
213.5066113683
30
0.0000000000
10
54.3254781623
20
213.2382149642
30
0.0000000000
10
54.2874007279
20
212.9496496156
30
0.0000000000
10
54.2542853956
20
212.6397499310
30
0.0000000000
10
54.2255010344
20
212.3051380918
30
0.0000000000
10
54.2003837903
20
211.9411393347
30
0.0000000000
10
54.1790728154
20
211.5436174315
30
0.0000000000
10
54.1617818625
20
211.1094689090
30
0.0000000000
10
54.1489769175
20
210.6366265689
30
0.0000000000
10
54.1410846970
20
210.1233280167
30
0.0000000000
10
54.1396243038
20
209.7674492810
30
0.0000000000
10
54.1398171887
20
209.5824742804
30
0.0000000000
11
55.1863597816
21
214.7117396338
31
0.0000000000
11
55.1002085712
21
214.7066871770
31
0.0000000000
11
55.0174073954
21
214.6909322706
31
0.0000000000
11
54.9367273645
21
214.6623973995
31
0.0000000000
11
54.8565258240
21
214.6174884077
31
0.0000000000
11
54.7764071401
21
214.5516048322
31
0.0000000000
11
54.6971548382
21
214.4587255148
31
0.0000000000
11
54.6201740476
21
214.3335587235
31
0.0000000000
11
54.5479753518
21
214.1746552914
31
0.0000000000
11
54.4819286423
21
213.9828724234
31
0.0000000000
11
54.4232250366
21
213.7603471346
31
0.0000000000
11
54.3722757600
21
213.5127490212
31
0.0000000000
11
54.3278310027
21
213.2440299883
31
0.0000000000
11
54.2893991794
21
212.9559289486
31
0.0000000000
11
54.2561627155
21
212.6476550842
31
0.0000000000
11
54.2272306089
21
212.3147069461
31
0.0000000000
11
54.2020471552
21
211.9523597813
31
0.0000000000
11
54.1805979656
21
211.5558160940
31
0.0000000000
11
54.1631741571
21
211.1222747722
31
0.0000000000
11
54.1502236820
21
210.6500263611
31
0.0000000000
11
54.1422260598
21
210.1373943557
31
0.0000000000
11
54.1398171887
21
209.5824742804
31
0.0000000000
0
SPLINE
5
493
100
AcDbEntity
8
0
100
AcDbSpline
62
7
6
CONTINUOUS
70
0
71
3
72
29
73
25
74
23
42
0.0000001000
43
0.0000001000
44
0.0000000001
12
0.0057589833
22
5.5228169312
32
0.0000000000
13
-5.5228199338
23
0.0000000000
33
0.0000000000
40
0.0000000000
40
0.0000000000
40
0.0000000000
40
0.0000000000
40
0.0960638867
40
0.1852725665
40
0.2678314670
40
0.3439222428
40
0.4137222334
40
0.4775826650
40
0.5364758966
40
0.5914897857
40
0.6437073068
40
0.6935621885
40
0.7403155895
40
0.7831911765
40
0.8213030643
40
0.8542075310
40
0.8820709375
40
0.9053534734
40
0.9249075786
40
0.9418521169
40
0.9571270488
40
0.9714773105
40
0.9856059336
40
1.0000000000
40
1.0000000000
40
1.0000000000
40
1.0000000000
10
66.1306857082
20
209.5824742804
30
0.0000000000
10
66.1308701183
20
209.7593220338
30
0.0000000000
10
66.1295472261
20
210.1004025388
30
0.0000000000
10
66.1223386262
20
210.5934208427
30
0.0000000000
10
66.1105838396
20
211.0495719835
30
0.0000000000
10
66.0946990043
20
211.4698448502
30
0.0000000000
10
66.0751135990
20
211.8554991047
30
0.0000000000
10
66.0521020962
20
212.2092439491
30
0.0000000000
10
66.0257687251
20
212.5354574469
30
0.0000000000
10
65.9955682935
20
212.8398083826
30
0.0000000000
10
65.9606232604
20
213.1269054334
30
0.0000000000
10
65.9199221225
20
213.3978890096
30
0.0000000000
10
65.8732240941
20
213.6504461524
30
0.0000000000
10
65.8202277386
20
213.8796820716
30
0.0000000000
10
65.7598283504
20
214.0806442062
30
0.0000000000
10
65.6938547204
20
214.2505621078
30
0.0000000000
10
65.6230374274
20
214.3885282508
30
0.0000000000
10
65.5487898522
20
214.4959850262
30
0.0000000000
10
65.4723134538
20
214.5758498954
30
0.0000000000
10
65.3951819586
20
214.6326197880
30
0.0000000000
10
65.3183063689
20
214.6714368566
30
0.0000000000
10
65.2412148461
20
214.6958160359
30
0.0000000000
10
65.1632038938
20
214.7090560729
30
0.0000000000
10
65.1106417274
20
214.7117396338
30
0.0000000000
10
65.0841431152
20
214.7117396338
30
0.0000000000
11
66.1306857082
21
209.5824742804
31
0.0000000000
11
66.1285133301
21
210.1130133814
31
0.0000000000
11
66.1212093637
21
210.6056427131
31
0.0000000000
11
66.1093272828
21
211.0614458072
31
0.0000000000
11
66.0933154238
21
211.4813763072
31
0.0000000000
11
66.0736064434
21
211.8663649289
31
0.0000000000
11
66.0505574351
21
212.2183006375
31
0.0000000000
11
66.0241691317
21
212.5424851327
31
0.0000000000
11
65.9939122266
21
212.8448066248
31
0.0000000000
11
65.9587346601
21
213.1310410703
31
0.0000000000
11
65.9174965619
21
213.4032749377
31
0.0000000000
11
65.8699727796
21
213.6570744884
31
0.0000000000
11
65.8156308773
21
213.8875488371
31
0.0000000000
11
65.7542669193
21
214.0888904357
31
0.0000000000
11
65.6873671107
21
214.2578536058
31
0.0000000000
11
65.6160262185
21
214.3942022030
31
0.0000000000
11
65.5419752556
21
214.4993241434
31
0.0000000000
11
65.4667697565
21
214.5768276539
31
0.0000000000
11
65.3912600807
21
214.6321070451
31
0.0000000000
11
65.3159043583
21
214.6700312129
31
0.0000000000
11
65.2404074949
21
214.6941435779
31
0.0000000000
11
65.1635242781
21
214.7074712600
31
0.0000000000
11
65.0841431152
21
214.7117396338
31
0.0000000000
0
SPLINE
5
494
100
AcDbEntity
8
0
100
AcDbSpline
62
7
6
CONTINUOUS
70
0
71
3
72
9
73
5
74
3
42
0.0000001000
43
0.0000001000
44
0.0000000001
12
0.0015247075
22
0.2625873407
32
0.0000000000
13
0.0002738206
23
0.2625916244
33
0.0000000000
40
0.0000000000
40
0.0000000000
40
0.0000000000
40
0.0000000000
40
0.5009380769
40
1.0000000000
40
1.0000000000
40
1.0000000000
40
1.0000000000
10
66.1297816093
20
209.3198842562
30
0.0000000000
10
66.1300362040
20
209.3637309220
30
0.0000000000
10
66.1304427518
20
209.4512606578
30
0.0000000000
10
66.1306401570
20
209.5387911200
30
0.0000000000
10
66.1306857082
20
209.5824742804
30
0.0000000000
11
66.1297816093
21
209.3198842562
31
0.0000000000
11
66.1303910325
21
209.4514250593
31
0.0000000000
11
66.1306857082
21
209.5824742804
31
0.0000000000
0
SPLINE
5
495
100
AcDbEntity
8
0
100
AcDbSpline
62
7
6
CONTINUOUS
70
0
71
3
72
28
73
24
74
22
42
0.0000001000
43
0.0000001000
44
0.0000000001
12
-0.5758713342
22
-7.7215352770
32
0.0000000000
13
7.7429797106
23
-0.0001723580
33
0.0000000000
40
0.0000000000
40
0.0000000000
40
0.0000000000
40
0.0000000000
40
0.0953413290
40
0.1833742939
40
0.2644896602
40
0.3391332213
40
0.4078210192
40
0.4706820849
40
0.5277232905
40
0.5794306342
40
0.6271789854
40
0.6724187603
40
0.7164525063
40
0.7597014882
40
0.8013942145
40
0.8397685821
40
0.8722895268
40
0.8988368351
40
0.9210265899
40
0.9407686967
40
0.9600286588
40
0.9797226758
40
1.0000000000
40
1.0000000000
40
1.0000000000
40
1.0000000000
10
52.7560082240
20
141.9717396338
30
0.0000000000
10
52.7377067779
20
141.7263458219
30
0.0000000000
10
52.7045369709
20
141.2542139516
30
0.0000000000
10
52.6630961467
20
140.5728167434
30
0.0000000000
10
52.6312207109
20
139.9443876394
30
0.0000000000
10
52.6082532656
20
139.3655351048
30
0.0000000000
10
52.5933916678
20
138.8335484937
30
0.0000000000
10
52.5860344805
20
138.3468387295
30
0.0000000000
10
52.5859860112
20
137.9038970352
30
0.0000000000
10
52.5924945925
20
137.5000137870
30
0.0000000000
10
52.6050559894
20
137.1267442548
30
0.0000000000
10
52.6247503350
20
136.7736038317
30
0.0000000000
10
52.6533420193
20
136.4327090339
30
0.0000000000
10
52.6925353645
20
136.1020519016
30
0.0000000000
10
52.7451800043
20
135.7879843195
30
0.0000000000
10
52.8128381067
20
135.5050529905
30
0.0000000000
10
52.8946780943
20
135.2666864445
30
0.0000000000
10
52.9884191191
20
135.0782085465
30
0.0000000000
10
53.0935502097
20
134.9348069959
30
0.0000000000
10
53.2125704013
20
134.8289573198
30
0.0000000000
10
53.3477925377
20
134.7573648648
30
0.0000000000
10
53.4969143128
20
134.7189058042
30
0.0000000000
10
53.6003237379
20
134.7117407988
30
0.0000000000
10
53.6526593745
20
134.7117396338
30
0.0000000000
11
52.7560082240
21
141.9717396338
31
0.0000000000
11
52.7044147778
21
141.2353187564
31
0.0000000000
11
52.6632004745
21
140.5549284200
31
0.0000000000
11
52.6315750479
21
139.9276505070
31
0.0000000000
11
52.6088198225
21
139.3501350542
31
0.0000000000
11
52.5941575714
21
138.8184889750
31
0.0000000000
11
52.5870837994
21
138.3318084236
31
0.0000000000
11
52.5872372821
21
137.8901395526
31
0.0000000000
11
52.5938749775
21
137.4898256661
31
0.0000000000
11
52.6066693131
21
137.1203325979
31
0.0000000000
11
52.6265747314
21
136.7706079627
31
0.0000000000
11
52.6554691813
21
136.4308821157
31
0.0000000000
11
52.6957173986
21
136.0984336095
31
0.0000000000
11
52.7503748214
21
135.7802683224
31
0.0000000000
11
52.8213188191
21
135.4917300331
31
0.0000000000
11
52.9053127693
21
135.2543425936
31
0.0000000000
11
52.9989642709
21
135.0713607221
31
0.0000000000
11
53.1021200668
21
134.9339590684
31
0.0000000000
11
53.2170930398
21
134.8332206421
31
0.0000000000
11
53.3488290015
21
134.7633261304
31
0.0000000000
11
53.4961198722
21
134.7238455822
31
0.0000000000
11
53.6526593745
21
134.7117396338
31
0.0000000000
0
SPLINE
5
496
100
AcDbEntity
8
0
100
AcDbSpline
62
7
6
CONTINUOUS
70
0
71
3
72
16
73
12
74
10
42
0.0000001000
43
0.0000001000
44
0.0000000001
12
-0.2186852060
22
3.1602018245
32
0.0000000000
13
0.0183914425
23
3.1674009291
33
0.0000000000
40
0.0000000000
40
0.0000000000
40
0.0000000000
40
0.0000000000
40
0.0174481419
40
0.0723839179
40
0.1576952874
40
0.2640552924
40
0.3853300631
40
0.5200453704
40
0.6674118210
40
0.8272861059
40
1.0000000000
40
1.0000000000
40
1.0000000000
40
1.0000000000
10
66.1111224296
20
206.1528325278
30
0.0000000000
10
66.1098505461
20
206.1712124111
30
0.0000000000
10
66.1052743441
20
206.2475000400
30
0.0000000000
10
66.1005335689
20
206.4139666011
30
0.0000000000
10
66.0984722059
20
206.6743344697
30
0.0000000000
10
66.1009124558
20
207.0047499941
30
0.0000000000
10
66.1060514943
20
207.3872899293
30
0.0000000000
10
66.1128226679
20
207.8131078892
30
0.0000000000
10
66.1197339127
20
208.2796819338
30
0.0000000000
10
66.1258990527
20
208.7863902049
30
0.0000000000
10
66.1287227901
20
209.1375328733
30
0.0000000000
10
66.1297816093
20
209.3198842562
30
0.0000000000
11
66.1111224296
21
206.1528325278
31
0.0000000000
11
66.1077838192
21
206.2079977861
31
0.0000000000
11
66.1019137890
21
206.3819053078
31
0.0000000000
11
66.0992616364
21
206.6521121584
31
0.0000000000
11
66.1011134548
21
206.9889975266
31
0.0000000000
11
66.1060105142
21
207.3730986071
31
0.0000000000
11
66.1125363557
21
207.7997532851
31
0.0000000000
11
66.1193409261
21
208.2664801857
31
0.0000000000
11
66.1253994329
21
208.7728384371
31
0.0000000000
11
66.1297816093
21
209.3198842562
31
0.0000000000
0
SPLINE
5
497
100
AcDbEntity
8
0
100
AcDbSpline
62
9
6
CONTINUOUS
70
0
71
3
72
12
73
8
74
6
42
0.0000001000
43
0.0000001000
44
0.0000000001
12
-1.8746659536
22
0.0000000000
32
0.0000000000
13
-1.8746658003
23
-0.0000865221
33
0.0000000000
40
0.0000000000
40
0.0000000000
40
0.0000000000
40
0.0000000000
40
0.3090183344
40
0.5877860517
40
0.8090173648
40
0.9510566112
40
1.0000000000
40
1.0000000000
40
1.0000000000
40
1.0000000000
10
53.1352514484
20
209.3219439827
30
0.0000000000
10
52.9421493982
20
209.3219439827
30
0.0000000000
10
52.5748537327
20
209.3190268415
30
0.0000000000
10
52.0693061227
20
209.3200656182
30
0.0000000000
10
51.6681040436
20
209.3198659322
30
0.0000000000
10
51.4105161800
20
209.3198915923
30
0.0000000000
10
51.2911732962
20
209.3198930038
30
0.0000000000
10
51.2605891305
20
209.3198915923
30
0.0000000000
11
53.1352514484
21
209.3219439827
31
0.0000000000
11
52.5559489335
21
209.3198915923
31
0.0000000000
11
52.0333525849
21
209.3198915923
31
0.0000000000
11
51.6186177745
21
209.3198915923
31
0.0000000000
11
51.3523416351
21
209.3198915923
31
0.0000000000
11
51.2605891305
21
209.3198915923
31
0.0000000000
0
SPLINE
5
498
100
AcDbEntity
8
0
100
AcDbSpline
62
9
6
CONTINUOUS
70
0
71
3
72
12
73
8
74
6
42
0.0000001000
43
0.0000001000
44
0.0000000001
12
-1.8746658003
22
0.0000865221
32
0.0000000000
13
-1.8746659536
23
0.0000000000
33
0.0000000000
40
0.0000000000
40
0.0000000000
40
0.0000000000
40
0.0000000000
40
0.0489433888
40
0.1909826352
40
0.4122139483
40
0.6909816656
40
1.0000000000
40
1.0000000000
40
1.0000000000
40
1.0000000000
10
69.0099137663
20
209.3198915923
30
0.0000000000
10
68.9793296006
20
209.3198930038
30
0.0000000000
10
68.8599867168
20
209.3198915923
30
0.0000000000
10
68.6023988532
20
209.3198659322
30
0.0000000000
10
68.2011967741
20
209.3200656182
30
0.0000000000
10
67.6956491642
20
209.3190268416
30
0.0000000000
10
67.3283534986
20
209.3219439827
30
0.0000000000
10
67.1352514484
20
209.3219439827
30
0.0000000000
11
69.0099137663
21
209.3198915923
31
0.0000000000
11
68.9181612617
21
209.3198915923
31
0.0000000000
11
68.6518851223
21
209.3198915923
31
0.0000000000
11
68.2371503119
21
209.3198915923
31
0.0000000000
11
67.7145539634
21
209.3198915923
31
0.0000000000
11
67.1352514484
21
209.3219439827
31
0.0000000000
0
SPLINE
5
499
100
AcDbEntity
8
0
100
AcDbSpline
62
7
6
CONTINUOUS
70
0
71
3
72
16
73
12
74
10
42
0.0000001000
43
0.0000001000
44
0.0000000001
12
0.0183914444
22
-3.1674008759
32
0.0000000000
13
-0.2186908952
23
-3.1602012003
33
0.0000000000
40
0.0000000000
40
0.0000000000
40
0.0000000000
40
0.0000000000
40
0.1727203802
40
0.3325882707
40
0.4799450821
40
0.6146593323
40
0.7359447141
40
0.8423292747
40
0.9275797043
40
0.9825641523
40
1.0000000000
40
1.0000000000
40
1.0000000000
40
1.0000000000
10
54.1407212878
20
209.3198842054
30
0.0000000000
10
54.1417801469
20
209.1375259775
30
0.0000000000
10
54.1446039143
20
208.7863832184
30
0.0000000000
10
54.1507689679
20
208.2796850357
30
0.0000000000
10
54.1576798964
20
207.8131290419
30
0.0000000000
10
54.1644510950
20
207.3873111764
30
0.0000000000
10
54.1695906494
20
207.0047352479
30
0.0000000000
10
54.1720307110
20
206.6743469102
30
0.0000000000
10
54.1699686317
20
206.4139661373
30
0.0000000000
10
54.1652306492
20
206.2475253835
30
0.0000000000
10
54.1606514876
20
206.1711994567
30
0.0000000000
10
54.1593804673
20
206.1528325278
30
0.0000000000
11
54.1407212878
21
209.3198842054
31
0.0000000000
11
54.1451036727
21
208.7728178522
31
0.0000000000
11
54.1511619751
21
208.2664798621
31
0.0000000000
11
54.1579660783
21
207.7997834975
31
0.0000000000
11
54.1644918915
21
207.3731321752
31
0.0000000000
11
54.1693894424
21
206.9889974940
31
0.0000000000
11
54.1712411772
21
206.6520343513
31
0.0000000000
11
54.1685915668
21
206.3820205139
31
0.0000000000
11
54.1627171511
21
206.2079588892
31
0.0000000000
11
54.1593804673
21
206.1528325278
31
0.0000000000
0
SPLINE
5
49A
100
AcDbEntity
8
0
100
AcDbSpline
62
7
6
CONTINUOUS
70
0
71
3
72
28
73
24
74
22
42
0.0000001000
43
0.0000001000
44
0.0000000001
12
7.7430170678
22
0.0001723583
32
0.0000000000
13
-0.5758741126
23
7.7215725308
33
0.0000000000
40
0.0000000000
40
0.0000000000
40
0.0000000000
40
0.0000000000
40
0.0203627025
40
0.0401379419
40
0.0595598820
40
0.0796145229
40
0.1021555360
40
0.1288812191
40
0.1611595142
40
0.1987600270
40
0.2393224728
40
0.2814341861
40
0.3248101161
40
0.3699685091
40
0.4179965943
40
0.4700731277
40
0.5273519969
40
0.5903628451
40
0.6592511541
40
0.7342169342
40
0.8156900861
40
0.9041251385
40
1.0000000000
40
1.0000000000
40
1.0000000000
40
1.0000000000
10
66.6177934549
20
134.7117396338
30
0.0000000000
10
66.6703497059
20
134.7117408037
30
0.0000000000
10
66.7741935314
20
134.7189567054
30
0.0000000000
10
66.9241092058
20
134.7578154893
30
0.0000000000
10
67.0604125413
20
134.8305201437
30
0.0000000000
10
67.1804560362
20
134.9384990021
30
0.0000000000
10
67.2858459520
20
135.0844234845
30
0.0000000000
10
67.3787684411
20
135.2741103981
30
0.0000000000
10
67.4591033516
20
135.5106742167
30
0.0000000000
10
67.5252055263
20
135.7882590604
30
0.0000000000
10
67.5767760026
20
136.0945370805
30
0.0000000000
10
67.6155749736
20
136.4176350372
30
0.0000000000
10
67.6443377517
20
136.7536557177
30
0.0000000000
10
67.6645233580
20
137.1055832913
30
0.0000000000
10
67.6775388900
20
137.4803060834
30
0.0000000000
10
67.6843927653
20
137.8864747693
30
0.0000000000
10
67.6846007371
20
138.3313719066
30
0.0000000000
10
67.6774231910
20
138.8196047516
30
0.0000000000
10
67.6626726671
20
139.3533336793
30
0.0000000000
10
67.6397433299
20
139.9344651385
30
0.0000000000
10
67.6078162244
20
140.5656913472
30
0.0000000000
10
67.5662264225
20
141.2504274149
30
0.0000000000
10
67.5328986231
20
141.7249714015
30
0.0000000000
10
67.5144946728
20
141.9717396338
30
0.0000000000
11
66.6177934549
21
134.7117396338
31
0.0000000000
11
66.7749890797
21
134.7239450135
31
0.0000000000
11
66.9228370160
21
134.7637787569
31
0.0000000000
11
67.0554715600
21
134.8346557595
31
0.0000000000
11
67.1717218098
21
134.9376063400
31
0.0000000000
11
67.2755568375
21
135.0778950071
31
0.0000000000
11
67.3687134109
21
135.2626785261
31
0.0000000000
11
67.4512025964
21
135.4986048580
31
0.0000000000
11
67.5203622195
21
135.7814126877
31
0.0000000000
11
67.5737043439
21
136.0909254809
31
0.0000000000
11
67.6133676300
21
136.4145758896
31
0.0000000000
11
67.6424078855
21
136.7491786145
31
0.0000000000
11
67.6628252664
21
137.0982442109
31
0.0000000000
11
67.6761150058
21
137.4698889548
31
0.0000000000
11
67.6831161388
21
137.8730576579
31
0.0000000000
11
67.6835260902
21
138.3165687302
31
0.0000000000
11
67.6766418664
21
138.8044142326
31
0.0000000000
11
67.6621013402
21
139.3376193616
31
0.0000000000
11
67.6393773263
21
139.9176357042
31
0.0000000000
11
67.6077043293
21
140.5476881047
31
0.0000000000
11
67.5663576030
21
141.2311927890
31
0.0000000000
11
67.5144946728
21
141.9717396338
31
0.0000000000
0
SPLINE
5
49B
100
AcDbEntity
8
0
100
AcDbSpline
62
7
6
CONTINUOUS
70
0
71
3
72
19
73
15
74
13
42
0.0000001000
43
0.0000001000
44
0.0000000001
12
-0.3564611337
22
4.8276085540
32
0.0000000000
13
0.5116947353
23
4.8138859616
33
0.0000000000
40
0.0000000000
40
0.0000000000
40
0.0000000000
40
0.0000000000
40
0.1029528872
40
0.2054170545
40
0.3076514524
40
0.4098304915
40
0.5120961724
40
0.6143520156
40
0.7144852819
40
0.8060188230
40
0.8842042422
40
0.9455454535
40
0.9861145116
40
1.0000000000
40
1.0000000000
40
1.0000000000
40
1.0000000000
10
67.5144946728
20
141.9717396338
30
0.0000000000
10
67.5022617718
20
142.1374117133
30
0.0000000000
10
67.4775438571
20
142.4679465363
30
0.0000000000
10
67.4399475311
20
142.9629421852
30
0.0000000000
10
67.4023121137
20
143.4566825342
30
0.0000000000
10
67.3651907095
20
143.9501408982
30
0.0000000000
10
67.3296470208
20
144.4437514141
30
0.0000000000
10
67.2976109481
20
144.9342989131
30
0.0000000000
10
67.2727855616
20
145.4079393456
30
0.0000000000
10
67.2593911963
20
145.8432132708
30
0.0000000000
10
67.2596939106
20
146.2161305555
30
0.0000000000
10
67.2705409905
20
146.5065823838
30
0.0000000000
10
67.2834699190
20
146.6930214373
30
0.0000000000
10
67.2920372206
20
146.7804711917
30
0.0000000000
10
67.2944055977
20
146.8027522443
30
0.0000000000
11
67.5144946728
21
141.9717396338
31
0.0000000000
11
67.4773883584
21
142.4687256072
31
0.0000000000
11
67.4398971134
21
142.9633101651
31
0.0000000000
11
67.4023869648
21
143.4567778314
31
0.0000000000
11
67.3654643302
21
143.9500210771
31
0.0000000000
11
67.3301948284
21
144.4438057669
31
0.0000000000
11
67.2984568343
21
144.9377822947
31
0.0000000000
11
67.2738810826
21
145.4218790824
31
0.0000000000
11
67.2612436648
21
145.8647898977
31
0.0000000000
11
67.2622973643
21
146.2432645661
31
0.0000000000
11
67.2736907466
21
146.5399834270
31
0.0000000000
11
67.2878297558
21
146.7358584889
31
0.0000000000
11
67.2944055977
21
146.8027522443
31
0.0000000000
0
SPLINE
5
49C
100
AcDbEntity
8
0
100
AcDbSpline
62
7
6
CONTINUOUS
70
0
71
3
72
28
73
24
74
22
42
0.0000001000
43
0.0000001000
44
0.0000000001
12
2.6508946250
22
2.6998402951
32
0.0000000000
13
-1.0990030037
23
3.6205762427
33
0.0000000000
40
0.0000000000
40
0.0000000000
40
0.0000000000
40
0.0000000000
40
0.0606148805
40
0.1205236829
40
0.1775622260
40
0.2311777433
40
0.2832208942
40
0.3349045378
40
0.3867979966
40
0.4375697273
40
0.4846202928
40
0.5277795082
40
0.5680116626
40
0.6064004018
40
0.6442794418
40
0.6828583988
40
0.7228789028
40
0.7645119838
40
0.8078454546
40
0.8529299127
40
0.8998748798
40
0.9488497581
40
1.0000000000
40
1.0000000000
40
1.0000000000
40
1.0000000000
10
66.6177934549
20
254.3084842748
30
0.0000000000
10
66.6713546752
20
254.3630344404
30
0.0000000000
10
66.7756398351
20
254.4737022903
30
0.0000000000
10
66.9219296831
20
254.6433693261
30
0.0000000000
10
67.0543530569
20
254.8130165048
30
0.0000000000
10
67.1721527871
20
254.9811498668
30
0.0000000000
10
67.2769989386
20
255.1497621345
30
0.0000000000
10
67.3706752600
20
255.3223773016
30
0.0000000000
10
67.4526005611
20
255.4991197614
30
0.0000000000
10
67.5206891258
20
255.6753904957
30
0.0000000000
10
67.5740024992
20
255.8451412512
30
0.0000000000
10
67.6139234495
20
256.0048286437
30
0.0000000000
10
67.6432793222
20
256.1556591525
30
0.0000000000
10
67.6639166294
20
256.3011991812
30
0.0000000000
10
67.6772377669
20
256.4454848559
30
0.0000000000
10
67.6842832666
20
256.5922690620
30
0.0000000000
10
67.6846987924
20
256.7439650956
30
0.0000000000
10
67.6776938131
20
256.9015033066
30
0.0000000000
10
67.6630912525
20
257.0649298805
30
0.0000000000
10
67.6403297148
20
257.2341888648
30
0.0000000000
10
67.6085420596
20
257.4092286193
30
0.0000000000
10
67.5670952930
20
257.5900908812
30
0.0000000000
10
67.5332327627
20
257.7118041502
30
0.0000000000
10
67.5144946728
20
257.7735352671
30
0.0000000000
11
66.6177934549
21
254.3084842748
31
0.0000000000
11
66.7749890797
21
254.4754880457
31
0.0000000000
11
66.9228370160
21
254.6473117934
31
0.0000000000
11
67.0554715600
21
254.8175613818
31
0.0000000000
11
67.1717218098
21
254.9838144553
31
0.0000000000
11
67.2755568375
21
255.1511286882
31
0.0000000000
11
67.3687134109
21
255.3230698200
31
0.0000000000
11
67.4512025964
21
255.5012510720
31
0.0000000000
11
67.5203622195
21
255.6804751265
31
0.0000000000
11
67.5737043439
21
255.8503208964
31
0.0000000000
11
67.6133676300
21
256.0087323877
31
0.0000000000
11
67.6424078855
21
256.1581630805
31
0.0000000000
11
67.6628252664
21
256.3019723718
31
0.0000000000
11
67.6761150058
21
256.4446777852
31
0.0000000000
11
67.6831161388
21
256.5904809631
31
0.0000000000
11
67.6835260902
21
256.7419059589
31
0.0000000000
11
67.6766418664
21
256.8992825172
31
0.0000000000
11
67.6621013402
21
257.0625973167
31
0.0000000000
11
67.6393773263
21
257.2316630220
31
0.0000000000
11
67.6077043293
21
257.4064419910
31
0.0000000000
11
67.5663576030
21
257.5870765378
31
0.0000000000
11
67.5144946728
21
257.7735352671
31
0.0000000000
0
SPLINE
5
49D
100
AcDbEntity
8
0
100
AcDbSpline
62
7
6
CONTINUOUS
70
0
71
3
72
30
73
26
74
24
42
0.0000001000
43
0.0000001000
44
0.0000000001
12
-1.6750650592
22
5.6166343129
32
0.0000000000
13
1.6750650592
23
5.6166343129
33
0.0000000000
40
0.0000000000
40
0.0000000000
40
0.0000000000
40
0.0000000000
40
0.0228605616
40
0.0460607901
40
0.0699486243
40
0.0950654073
40
0.1223319864
40
0.1534997480
40
0.1909903367
40
0.2369328309
40
0.2941840960
40
0.3646694784
40
0.4488256927
40
0.5375481650
40
0.6238701721
40
0.6974418004
40
0.7566080870
40
0.8035443465
40
0.8417531642
40
0.8738726344
40
0.9017279822
40
0.9263049184
40
0.9491947942
40
0.9729046064
40
1.0000000000
40
1.0000000000
40
1.0000000000
40
1.0000000000
10
67.5144946728
20
257.7735352671
30
0.0000000000
10
67.5017303635
20
257.8163350721
30
0.0000000000
10
67.4758073448
20
257.9025093957
30
0.0000000000
10
67.4365979068
20
258.0334221759
30
0.0000000000
10
67.3972046300
20
258.1688808422
30
0.0000000000
10
67.3583507854
20
258.3127512624
30
0.0000000000
10
67.3209456864
20
258.4716924431
30
0.0000000000
10
67.2881958984
20
258.6563498496
30
0.0000000000
10
67.2651890324
20
258.8792864998
30
0.0000000000
10
67.2576473186
20
259.1542325038
30
0.0000000000
10
67.2649429002
20
259.4935170683
30
0.0000000000
10
67.2805423233
20
259.9071894266
30
0.0000000000
10
67.2942809141
20
260.3824784398
30
0.0000000000
10
67.2955229121
20
260.8889567414
30
0.0000000000
10
67.2829272807
20
261.3745536602
30
0.0000000000
10
67.2667383016
20
261.8022161958
30
0.0000000000
10
67.2578549703
20
262.1531649118
30
0.0000000000
10
67.2632823215
20
262.4352319184
30
0.0000000000
10
67.2844690108
20
262.6635744472
30
0.0000000000
10
67.3162157965
20
262.8529020366
30
0.0000000000
10
67.3532574918
20
263.0139433704
30
0.0000000000
10
67.3910262076
20
263.1561852882
30
0.0000000000
10
67.4295663035
20
263.2898010314
30
0.0000000000
10
67.4707198923
20
263.4277721891
30
0.0000000000
10
67.4993658238
20
263.5228069613
30
0.0000000000
10
67.5144946728
20
263.5735352671
30
0.0000000000
11
67.5144946728
21
257.7735352671
31
0.0000000000
11
67.4760240820
21
257.9018815632
31
0.0000000000
11
67.4371544549
21
258.0321864553
31
0.0000000000
11
67.3982961724
21
258.1666948574
31
0.0000000000
11
67.3601892925
21
258.3088890490
31
0.0000000000
11
67.3240444301
21
258.4645599187
31
0.0000000000
11
67.2923446572
21
258.6444656655
31
0.0000000000
11
67.2693647363
21
258.8629966130
31
0.0000000000
11
67.2602092174
21
259.1321142014
31
0.0000000000
11
67.2651981803
21
259.4676321640
31
0.0000000000
11
67.2789843729
21
259.8805235298
31
0.0000000000
11
67.2919067479
21
260.3736017173
31
0.0000000000
11
67.2930406432
21
260.8936112394
31
0.0000000000
11
67.2811983025
21
261.3994140322
31
0.0000000000
11
67.2666711761
21
261.8303794954
31
0.0000000000
11
67.2601223473
21
262.1770968263
31
0.0000000000
11
67.2673121772
21
262.4521006883
31
0.0000000000
11
67.2885307523
21
262.6750386802
31
0.0000000000
11
67.3195685099
21
262.8607176824
31
0.0000000000
11
67.3556309980
21
263.0199478409
31
0.0000000000
11
67.3923816952
21
263.1592286239
31
0.0000000000
11
67.4293130150
21
263.2882050050
31
0.0000000000
11
67.4688891181
21
263.4214158366
31
0.0000000000
11
67.5144946728
21
263.5735352671
31
0.0000000000
0
SPLINE
5
49E
100
AcDbEntity
8
0
100
AcDbSpline
62
7
6
CONTINUOUS
70
0
71
3
72
24
73
20
74
18
42
0.0000001000
43
0.0000001000
44
0.0000000001
12
1.0989195517
22
3.6203013168
32
0.0000000000
13
-2.6506720958
23
2.6996561348
33
0.0000000000
40
0.0000000000
40
0.0000000000
40
0.0000000000
40
0.0000000000
40
0.0594791775
40
0.1166252230
40
0.1717432595
40
0.2251170873
40
0.2770491731
40
0.3280051589
40
0.3782854987
40
0.4284594736
40
0.4793625675
40
0.5317277693
40
0.5858135137
40
0.6418862015
40
0.7004848487
40
0.7642985466
40
0.8370859444
40
0.9174768209
40
1.0000000000
40
1.0000000000
40
1.0000000000
40
1.0000000000
10
67.5144946728
20
263.5735352671
30
0.0000000000
10
67.5362822832
20
263.6453127820
30
0.0000000000
10
67.5751877322
20
263.7872435198
30
0.0000000000
10
67.6211650374
20
263.9990007376
30
0.0000000000
10
67.6543221976
20
264.2053524434
30
0.0000000000
10
67.6754778035
20
264.4066566668
30
0.0000000000
10
67.6854280966
20
264.6035807969
30
0.0000000000
10
67.6836668114
20
264.7968508601
30
0.0000000000
10
67.6709495660
20
264.9874841652
30
0.0000000000
10
67.6465370508
20
265.1769338254
30
0.0000000000
10
67.6090869381
20
265.3669290537
30
0.0000000000
10
67.5580168228
20
265.5588464186
30
0.0000000000
10
67.4914225949
20
265.7528770955
30
0.0000000000
10
67.4080445709
20
265.9488870681
30
0.0000000000
10
67.3053031508
20
266.1493790918
30
0.0000000000
10
67.1775323403
20
266.3600393329
30
0.0000000000
10
67.0191468898
20
266.5834916658
30
0.0000000000
10
66.8306680256
20
266.8136286193
30
0.0000000000
10
66.6907574848
20
266.9642738653
30
0.0000000000
10
66.6178435221
20
267.0385352676
30
0.0000000000
11
67.5144946728
21
263.5735352671
31
0.0000000000
11
67.5739674817
21
263.7905684201
31
0.0000000000
11
67.6197435346
21
264.0018739639
31
0.0000000000
11
67.6527586558
21
264.2077781395
31
0.0000000000
11
67.6738230705
21
264.4086116678
31
0.0000000000
11
67.6835197087
21
264.6048527221
31
0.0000000000
11
67.6817997411
21
264.7976325339
31
0.0000000000
11
67.6689952752
21
264.9874323475
31
0.0000000000
11
67.6445930312
21
265.1756861908
31
0.0000000000
11
67.6074242241
21
265.3646527906
31
0.0000000000
11
67.5563806462
21
265.5560835678
31
0.0000000000
11
67.4899976152
21
265.7496453870
31
0.0000000000
11
67.4070563228
21
265.9449059805
31
0.0000000000
11
67.3060909072
21
266.1422841090
31
0.0000000000
11
67.1811599783
21
266.3488813032
31
0.0000000000
11
67.0222847691
21
266.5738155290
31
0.0000000000
11
66.8300267271
21
266.8094957429
31
0.0000000000
11
66.6178435221
21
267.0385352676
31
0.0000000000
0
SPLINE
5
49F
100
AcDbEntity
8
0
100
AcDbSpline
62
7
6
CONTINUOUS
70
0
71
3
72
19
73
15
74
13
42
0.0000001000
43
0.0000001000
44
0.0000000001
12
-1.8313786408
22
1.7981773974
32
0.0000000000
13
-2.5653597495
23
0.0794923513
33
0.0000000000
40
0.0000000000
40
0.0000000000
40
0.0000000000
40
0.0000000000
40
0.1449800219
40
0.2802508402
40
0.3986975728
40
0.4990128180
40
0.5850116129
40
0.6604216936
40
0.7275027598
40
0.7881731672
40
0.8440173824
40
0.8966595708
40
0.9481029258
40
1.0000000000
40
1.0000000000
40
1.0000000000
40
1.0000000000
10
66.5003024403
20
267.1560772739
30
0.0000000000
10
66.4117980019
20
267.2429772067
30
0.0000000000
10
66.2351122950
20
267.4054017092
30
0.0000000000
10
65.9671054389
20
267.6169699964
30
0.0000000000
10
65.7144238801
20
267.7846321563
30
0.0000000000
10
65.4857360803
20
267.9104476349
30
0.0000000000
10
65.2816089384
20
268.0029652065
30
0.0000000000
10
65.0981978946
20
268.0710077547
30
0.0000000000
10
64.9316160001
20
268.1209792351
30
0.0000000000
10
64.7787854788
20
268.1575437018
30
0.0000000000
10
64.6364783244
20
268.1841645026
30
0.0000000000
10
64.5008777973
20
268.2028021325
30
0.0000000000
10
64.3679531099
20
268.2150259855
30
0.0000000000
10
64.2796296701
20
268.2195433927
30
0.0000000000
10
64.2352514484
20
268.2209185329
30
0.0000000000
11
66.5003024403
21
267.1560772739
31
0.0000000000
11
66.2258597418
21
267.4073598057
31
0.0000000000
11
65.9528019189
21
267.6217817296
31
0.0000000000
11
65.6991318665
21
267.7893231702
31
0.0000000000
11
65.4733973050
21
267.9131528426
31
0.0000000000
11
65.2723068083
21
268.0041560341
31
0.0000000000
11
65.0908241467
21
268.0714198613
31
0.0000000000
11
64.9259199372
21
268.1209071844
31
0.0000000000
11
64.7744886224
21
268.1571848445
31
0.0000000000
11
64.6335947627
21
268.1834945019
31
0.0000000000
11
64.4997468312
21
268.2019256035
31
0.0000000000
11
64.3682755321
21
268.2141030111
31
0.0000000000
11
64.2352514484
21
268.2209185329
31
0.0000000000
0
SPLINE
5
4A0
100
AcDbEntity
8
0
100
AcDbSpline
62
7
6
CONTINUOUS
70
0
71
3
72
21
73
17
74
15
42
0.0000001000
43
0.0000001000
44
0.0000000001
12
-2.5654805813
22
-0.0794960955
32
0.0000000000
13
-1.8314701123
23
-1.7982567864
33
0.0000000000
40
0.0000000000
40
0.0000000000
40
0.0000000000
40
0.0000000000
40
0.0551659378
40
0.1099607035
40
0.1662958582
40
0.2262690792
40
0.2912059983
40
0.3622809744
40
0.4380278050
40
0.5146365611
40
0.5899876158
40
0.6651496623
40
0.7425486846
40
0.8250448047
40
0.9120518811
40
1.0000000000
40
1.0000000000
40
1.0000000000
40
1.0000000000
10
56.0352514484
20
268.2209185329
30
0.0000000000
10
55.9880757344
20
268.2194567073
30
0.0000000000
10
55.8940919438
20
268.2145323130
30
0.0000000000
10
55.7524183628
20
268.2009340725
30
0.0000000000
10
55.6074860226
20
268.1798842911
30
0.0000000000
10
55.4553065289
20
268.1497340900
30
0.0000000000
10
55.2927231213
20
268.1083445136
30
0.0000000000
10
55.1200728266
20
268.0530186093
30
0.0000000000
10
54.9420951228
20
267.9828728850
30
0.0000000000
10
54.7657926247
20
267.8996564287
30
0.0000000000
10
54.5954910700
20
267.8058347226
30
0.0000000000
10
54.4303220834
20
267.7020049235
30
0.0000000000
10
54.2659322025
20
267.5860056930
30
0.0000000000
10
54.0996148994
20
267.4556278923
30
0.0000000000
10
53.9328882021
20
267.3115689373
30
0.0000000000
10
53.8239428983
20
267.2088451079
30
0.0000000000
10
53.7702514478
20
267.1561273407
30
0.0000000000
11
56.0352514484
21
268.2209185329
31
0.0000000000
11
55.8938512680
21
268.2134920038
31
0.0000000000
11
55.7538628008
21
268.1999454860
31
0.0000000000
11
55.6107699323
21
268.1791496362
31
0.0000000000
11
55.4597639657
21
268.1492687185
31
0.0000000000
11
55.2982569928
21
268.1080881148
31
0.0000000000
11
55.1245269138
21
268.0524266717
31
0.0000000000
11
54.9436220893
21
267.9812038123
31
0.0000000000
11
54.7657622965
21
267.8973570631
31
0.0000000000
11
54.5962969408
21
267.8041541898
31
0.0000000000
11
54.4328816989
21
267.7016196886
31
0.0000000000
11
54.2704614788
21
267.5872262307
31
0.0000000000
11
54.1036979150
21
267.4567450403
31
0.0000000000
11
53.9345750693
21
267.3109018894
31
0.0000000000
11
53.7702514478
21
267.1561273407
31
0.0000000000
0
SPLINE
5
4A1
100
AcDbEntity
8
0
100
AcDbSpline
62
7
6
CONTINUOUS
70
0
71
3
72
14
73
10
74
8
42
0.0000001000
43
0.0000001000
44
0.0000000001
12
-0.1629059269
22
3.0659436353
32
0.0000000000
13
-0.1234339632
23
3.0677884228
33
0.0000000000
40
0.0000000000
40
0.0000000000
40
0.0000000000
40
0.0000000000
40
0.2254433344
40
0.4390294952
40
0.6296172148
40
0.7874358939
40
0.9047558966
40
0.9762516031
40
1.0000000000
40
1.0000000000
40
1.0000000000
40
1.0000000000
10
55.4352514484
20
277.0109157181
30
0.0000000000
10
55.4230094300
20
277.2413145702
30
0.0000000000
10
55.3991528098
20
277.6899944214
30
0.0000000000
10
55.3676873858
20
278.3335917388
30
0.0000000000
10
55.3407647442
20
278.9081174693
30
0.0000000000
10
55.3194373377
20
279.3842755611
30
0.0000000000
10
55.3042156410
20
279.7387023515
30
0.0000000000
10
55.2948555177
20
279.9560440045
30
0.0000000000
10
55.2908677433
20
280.0534373859
30
0.0000000000
10
55.2898906237
20
280.0777224049
30
0.0000000000
11
55.4352514484
21
277.0109157181
31
0.0000000000
11
55.3990136964
21
277.7021380469
31
0.0000000000
11
55.3667716447
21
278.3571118092
31
0.0000000000
11
55.3394150937
21
278.9416274613
31
0.0000000000
11
55.3177530256
21
279.4256887281
31
0.0000000000
11
55.3021945077
21
279.7855564665
31
0.0000000000
11
55.2928692082
21
280.0048693138
31
0.0000000000
11
55.2898906237
21
280.0777224049
31
0.0000000000
0
SPLINE
5
4A2
100
AcDbEntity
8
0
100
AcDbSpline
62
7
6
CONTINUOUS
70
0
71
3
72
26
73
22
74
20
42
0.0000001000
43
0.0000001000
44
0.0000000001
12
-2.6507426007
22
-2.6996854640
32
0.0000000000
13
1.0989399778
23
-3.6203686089
33
0.0000000000
40
0.0000000000
40
0.0000000000
40
0.0000000000
40
0.0000000000
40
0.1017303992
40
0.1961804285
40
0.2782500147
40
0.3473300629
40
0.4064918993
40
0.4583127297
40
0.5043773038
40
0.5459722698
40
0.5842460451
40
0.6206892745
40
0.6569615384
40
0.6942945584
40
0.7332806075
40
0.7737996042
40
0.8157441553
40
0.8590961880
40
0.9040816955
40
0.9509687940
40
1.0000000000
40
1.0000000000
40
1.0000000000
40
1.0000000000
10
53.6527094414
20
267.0385862589
30
0.0000000000
10
53.5628224071
20
266.9470395655
30
0.0000000000
10
53.3953999669
20
266.7645189690
30
0.0000000000
10
53.1788361407
20
266.4878975216
30
0.0000000000
10
53.0092150860
20
266.2282563827
30
0.0000000000
10
52.8835195444
20
265.9943533744
30
0.0000000000
10
52.7920970425
20
265.7862481091
30
0.0000000000
10
52.7255879353
20
265.5995242667
30
0.0000000000
10
52.6773847365
20
265.4302387084
30
0.0000000000
10
52.6425923483
20
265.2751991949
30
0.0000000000
10
52.6177502729
20
265.1305685313
30
0.0000000000
10
52.6008852151
20
264.9915608892
30
0.0000000000
10
52.5903227237
20
264.8531333130
30
0.0000000000
10
52.5854606459
20
264.7111777226
30
0.0000000000
10
52.5869477915
20
264.5637828859
30
0.0000000000
10
52.5954000197
20
264.4107995924
30
0.0000000000
10
52.6108967870
20
264.2528368539
30
0.0000000000
10
52.6339578510
20
264.0901041515
30
0.0000000000
10
52.6652860135
20
263.9224102415
30
0.0000000000
10
52.7054974220
20
263.7492627045
30
0.0000000000
10
52.7380474399
20
263.6327056134
30
0.0000000000
10
52.7560082240
20
263.5735352671
30
0.0000000000
11
53.6527094414
21
267.0385862589
31
0.0000000000
11
53.3931487665
21
266.7543811568
31
0.0000000000
11
53.1736307644
21
266.4724044275
31
0.0000000000
11
53.0043871429
21
266.2120732429
31
0.0000000000
11
52.8809384975
21
265.9817015414
31
0.0000000000
11
52.7910261832
21
265.7767158891
31
0.0000000000
11
52.7252874619
21
265.5920020678
31
0.0000000000
11
52.6775179636
21
265.4243919206
31
0.0000000000
11
52.6430328975
21
265.2708429121
31
0.0000000000
11
52.6185675895
21
265.1281164294
31
0.0000000000
11
52.6018815316
21
264.9912474872
31
0.0000000000
11
52.5913682677
21
264.8544153104
31
0.0000000000
11
52.5865530997
21
264.7132485904
31
0.0000000000
11
52.5880154023
21
264.5657528141
31
0.0000000000
11
52.5963674672
21
264.4126775919
31
0.0000000000
11
52.6118339050
21
264.2547365992
31
0.0000000000
11
52.6348317471
21
264.0923352457
31
0.0000000000
11
52.6660284775
21
263.9250168654
31
0.0000000000
11
52.7061224865
21
263.7522106433
31
0.0000000000
11
52.7560082240
21
263.5735352671
31
0.0000000000
0
SPLINE
5
4A3
100
AcDbEntity
8
0
100
AcDbSpline
62
7
6
CONTINUOUS
70
0
71
3
72
30
73
26
74
24
42
0.0000001000
43
0.0000001000
44
0.0000000001
12
1.6750650844
22
-5.6166343975
32
0.0000000000
13
-1.6750650844
23
-5.6166343975
33
0.0000000000
40
0.0000000000
40
0.0000000000
40
0.0000000000
40
0.0000000000
40
0.0269380122
40
0.0507425978
40
0.0738119883
40
0.0985051170
40
0.1263735586
40
0.1585134534
40
0.1967980684
40
0.2438359909
40
0.3031052595
40
0.3767890563
40
0.4631693222
40
0.5518815772
40
0.6359522676
40
0.7063250056
40
0.7634742469
40
0.8093264667
40
0.8467463596
40
0.8778698332
40
0.9051074274
40
0.9301852709
40
0.9540247826
40
0.9771764379
40
1.0000000000
40
1.0000000000
40
1.0000000000
40
1.0000000000
10
52.7560082240
20
263.5735352671
30
0.0000000000
10
52.7710491986
20
263.5231016118
30
0.0000000000
10
52.7996580021
20
263.4281833984
30
0.0000000000
10
52.8408817613
20
263.2899948511
30
0.0000000000
10
52.8796344408
20
263.1556463019
30
0.0000000000
10
52.9175299469
20
263.0128135170
30
0.0000000000
10
52.9545773612
20
262.8514728383
30
0.0000000000
10
52.9862529412
20
262.6619160540
30
0.0000000000
10
53.0073350869
20
262.4331752315
30
0.0000000000
10
53.0126259439
20
262.1505584678
30
0.0000000000
10
53.0036468478
20
261.7989940277
30
0.0000000000
10
52.9874430924
20
261.3707973795
30
0.0000000000
10
52.9749241927
20
260.8848847884
30
0.0000000000
10
52.9762955885
20
260.3784801349
30
0.0000000000
10
52.9900928148
20
259.9036006523
30
0.0000000000
10
53.0056632731
20
259.4905141209
30
0.0000000000
10
53.0128604138
20
259.1518222570
30
0.0000000000
10
53.0051880196
20
258.8773932434
30
0.0000000000
10
52.9820942723
20
258.6548692751
30
0.0000000000
10
52.9493027532
20
258.4705059113
30
0.0000000000
10
52.9119067180
20
258.3117882978
30
0.0000000000
10
52.8730870929
20
258.1681440020
30
0.0000000000
10
52.8337622817
20
258.0329418794
30
0.0000000000
10
52.7946262470
20
257.9022801738
30
0.0000000000
10
52.7687518747
20
257.8162658018
30
0.0000000000
10
52.7560082240
20
257.7735352671
30
0.0000000000
11
52.7560082240
21
263.5735352671
31
0.0000000000
11
52.8013487604
21
263.4222993709
31
0.0000000000
11
52.8410867382
21
263.2885571571
31
0.0000000000
11
52.8783047222
21
263.1585684208
31
0.0000000000
11
52.9152003146
21
263.0186215481
31
0.0000000000
11
52.9512190074
21
262.8593027925
31
0.0000000000
11
52.9821785381
21
262.6734893663
31
0.0000000000
11
53.0033094413
21
262.4500968018
31
0.0000000000
11
53.0103785153
21
262.1744937524
31
0.0000000000
11
53.0037320548
21
261.8271745759
31
0.0000000000
11
52.9891800619
21
261.3955521413
31
0.0000000000
11
52.9774115084
21
260.8894060660
31
0.0000000000
11
52.9786636117
21
260.3694566923
31
0.0000000000
11
52.9916409373
21
259.8768813780
31
0.0000000000
11
53.0053907247
21
259.4646493777
31
0.0000000000
11
53.0102805750
21
259.1297279862
31
0.0000000000
11
53.0010098800
21
258.8611437577
31
0.0000000000
11
52.9779532917
21
258.6430375419
31
0.0000000000
11
52.9462159117
21
258.4634020134
31
0.0000000000
11
52.9100657576
21
258.3079067785
31
0.0000000000
11
52.8719941922
21
258.1659394044
31
0.0000000000
11
52.8332065645
21
258.0317053932
31
0.0000000000
11
52.7944164500
21
257.9016738688
31
0.0000000000
11
52.7560082240
21
257.7735352671
31
0.0000000000
0
SPLINE
5
4A4
100
AcDbEntity
8
0
100
AcDbSpline
62
7
6
CONTINUOUS
70
0
71
3
72
28
73
24
74
22
42
0.0000001000
43
0.0000001000
44
0.0000000001
12
-1.0989816110
22
-3.6205057661
32
0.0000000000
13
2.6508217871
23
-2.6998085926
33
0.0000000000
40
0.0000000000
40
0.0000000000
40
0.0000000000
40
0.0000000000
40
0.0508610692
40
0.0995984347
40
0.1463113734
40
0.1911643621
40
0.2343225054
40
0.2757914481
40
0.3155624323
40
0.3537643454
40
0.3912801963
40
0.4295439129
40
0.4701780626
40
0.5143287054
40
0.5626288069
40
0.6145768130
40
0.6671759444
40
0.7188999628
40
0.7704361617
40
0.8233696273
40
0.8799775223
40
0.9396420112
40
1.0000000000
40
1.0000000000
40
1.0000000000
40
1.0000000000
10
52.7560082240
20
257.7735352671
30
0.0000000000
10
52.7373764308
20
257.7121543356
30
0.0000000000
10
52.7036767770
20
257.5910887420
30
0.0000000000
10
52.6623767729
20
257.4111792152
30
0.0000000000
10
52.6306384595
20
257.2370336889
30
0.0000000000
10
52.6078356850
20
257.0685975013
30
0.0000000000
10
52.5931199965
20
256.9059080551
30
0.0000000000
10
52.5859312662
20
256.7491258369
30
0.0000000000
10
52.5860859065
20
256.5984305287
30
0.0000000000
10
52.5927787877
20
256.4528835269
30
0.0000000000
10
52.6056317694
20
256.3096559177
30
0.0000000000
10
52.6257908997
20
256.1641622116
30
0.0000000000
10
52.6550182517
20
256.0116782327
30
0.0000000000
10
52.6954191371
20
255.8486729385
30
0.0000000000
10
52.7499241314
20
255.6747729856
30
0.0000000000
10
52.8196221338
20
255.4948840195
30
0.0000000000
10
52.9029509705
20
255.3161189876
30
0.0000000000
10
52.9971980934
20
255.1434759665
30
0.0000000000
10
53.1016101735
20
254.9763090757
30
0.0000000000
10
53.2184354866
20
254.8099969273
30
0.0000000000
10
53.3499045651
20
254.6417842496
30
0.0000000000
10
53.4954697538
20
254.4730514929
30
0.0000000000
10
53.5993266173
20
254.3628536057
30
0.0000000000
10
53.6526593745
20
254.3085352668
30
0.0000000000
11
52.7560082240
21
257.7735352671
31
0.0000000000
11
52.7044147778
21
257.5881411504
31
0.0000000000
11
52.6632004745
21
257.4084019074
31
0.0000000000
11
52.6315750479
21
257.2345100750
31
0.0000000000
11
52.6088198225
21
257.0663356509
31
0.0000000000
11
52.5941575714
21
256.9037009921
31
0.0000000000
11
52.5870837994
21
256.7469575768
31
0.0000000000
11
52.5872372821
21
256.5964791416
31
0.0000000000
11
52.5938749775
21
256.4520898953
31
0.0000000000
11
52.6066693131
21
256.3107217485
31
0.0000000000
11
52.6265747314
21
256.1673211136
31
0.0000000000
11
52.6554691813
21
256.0163162992
31
0.0000000000
11
52.6957173986
21
255.8541879023
31
0.0000000000
11
52.7503748214
21
255.6798034256
31
0.0000000000
11
52.8213188191
21
255.4965015943
31
0.0000000000
11
52.9053127693
21
255.3160794407
31
0.0000000000
11
52.9989642709
21
255.1442377202
31
0.0000000000
11
53.1021200668
21
254.9787644073
31
0.0000000000
11
53.2170930398
21
254.8147721511
31
0.0000000000
11
53.3488290015
21
254.6458934129
31
0.0000000000
11
53.4961198722
21
254.4748156584
31
0.0000000000
11
53.6526593745
21
254.3085352668
31
0.0000000000
0
SPLINE
5
4A5
100
AcDbEntity
8
0
100
AcDbSpline
62
7
6
CONTINUOUS
70
0
71
3
72
13
73
9
74
7
42
0.0000001000
43
0.0000001000
44
0.0000000001
12
0.0000000000
22
-1.2355257584
32
0.0000000000
13
1.2345629639
23
-0.0487666678
33
0.0000000000
40
0.0000000000
40
0.0000000000
40
0.0000000000
40
0.0000000000
40
0.2224290923
40
0.4197892487
40
0.5924464864
40
0.7360317015
40
0.8663146815
40
1.0000000000
40
1.0000000000
40
1.0000000000
40
1.0000000000
10
55.4352514484
20
273.2657637106
30
0.0000000000
10
55.4352514484
20
273.1741580863
30
0.0000000000
10
55.4443012147
20
273.0009967373
30
0.0000000000
10
55.4923275642
20
272.7606010386
30
0.0000000000
10
55.5814672105
20
272.5652894032
30
0.0000000000
10
55.7140800525
20
272.4313505374
30
0.0000000000
10
55.8713447437
20
272.3640146900
30
0.0000000000
10
55.9802371341
20
272.3507449424
30
0.0000000000
10
56.0352514484
20
272.3485718132
30
0.0000000000
11
55.4352514484
21
273.2657637106
31
0.0000000000
11
55.4518548571
21
272.9914488542
31
0.0000000000
11
55.5040666737
21
272.7532606796
31
0.0000000000
11
55.5981480488
21
272.5618052835
31
0.0000000000
11
55.7247220187
21
272.4375034862
31
0.0000000000
11
55.8717452388
21
272.3719682853
31
0.0000000000
11
56.0352514484
21
272.3485718132
31
0.0000000000
0
SPLINE
5
4A6
100
AcDbEntity
8
0
100
AcDbSpline
62
7
6
CONTINUOUS
70
0
71
3
72
14
73
10
74
8
42
0.0000001000
43
0.0000001000
44
0.0000000001
12
-0.1234339632
22
-3.0677884228
32
0.0000000000
13
-0.1629059269
23
-3.0659436353
33
0.0000000000
40
0.0000000000
40
0.0000000000
40
0.0000000000
40
0.0000000000
40
0.0237483969
40
0.0952441034
40
0.2125641061
40
0.3703827852
40
0.5609705048
40
0.7745566656
40
1.0000000000
40
1.0000000000
40
1.0000000000
40
1.0000000000
10
64.9806122732
20
280.0777224049
30
0.0000000000
10
64.9796351536
20
280.0534373859
30
0.0000000000
10
64.9756473791
20
279.9560440045
30
0.0000000000
10
64.9662872558
20
279.7387023515
30
0.0000000000
10
64.9510655591
20
279.3842755611
30
0.0000000000
10
64.9297381527
20
278.9081174693
30
0.0000000000
10
64.9028155110
20
278.3335917388
30
0.0000000000
10
64.8713500870
20
277.6899944214
30
0.0000000000
10
64.8474934669
20
277.2413145702
30
0.0000000000
10
64.8352514484
20
277.0109157181
30
0.0000000000
11
64.9806122732
21
280.0777224049
31
0.0000000000
11
64.9776336886
21
280.0048693138
31
0.0000000000
11
64.9683083891
21
279.7855564665
31
0.0000000000
11
64.9527498712
21
279.4256887281
31
0.0000000000
11
64.9310878031
21
278.9416274613
31
0.0000000000
11
64.9037312521
21
278.3571118092
31
0.0000000000
11
64.8714892004
21
277.7021380469
31
0.0000000000
11
64.8352514484
21
277.0109157181
31
0.0000000000
0
SPLINE
5
4A7
100
AcDbEntity
8
0
100
AcDbSpline
62
7
6
CONTINUOUS
70
0
71
3
72
13
73
9
74
7
42
0.0000001000
43
0.0000001000
44
0.0000000001
12
1.2344967158
22
0.0487640509
32
0.0000000000
13
0.0000000000
23
1.2354594587
33
0.0000000000
40
0.0000000000
40
0.0000000000
40
0.0000000000
40
0.0000000000
40
0.1481795938
40
0.2901351270
40
0.4368854874
40
0.6009087695
40
0.7890048835
40
1.0000000000
40
1.0000000000
40
1.0000000000
40
1.0000000000
10
64.2352514484
20
272.3485718132
30
0.0000000000
10
64.2962271891
20
272.3509804257
30
0.0000000000
10
64.4161886631
20
272.3665560427
30
0.0000000000
10
64.5815013137
20
272.4481233134
30
0.0000000000
10
64.7053181284
20
272.5933848161
30
0.0000000000
10
64.7843401904
20
272.7853684026
30
0.0000000000
10
64.8270697837
20
273.0143058136
30
0.0000000000
10
64.8352514484
20
273.1788717398
30
0.0000000000
10
64.8352514484
20
273.2657637106
30
0.0000000000
11
64.2352514484
21
272.3485718132
31
0.0000000000
11
64.4161073885
21
272.3769568479
31
0.0000000000
11
64.5723651505
21
272.4565920386
31
0.0000000000
11
64.6926189385
21
272.5922762701
31
0.0000000000
11
64.7742219668
21
272.7777636909
31
0.0000000000
11
64.8204226453
21
273.0055099154
31
0.0000000000
11
64.8352514484
21
273.2657637106
31
0.0000000000
0
SPLINE
5
4A8
100
AcDbEntity
8
0
100
AcDbSpline
62
7
6
CONTINUOUS
70
0
71
3
72
28
73
24
74
22
42
0.0000001000
43
0.0000001000
44
0.0000000001
12
2.6998270436
22
-2.6509079570
32
0.0000000000
13
3.6205761327
23
1.0990029704
33
0.0000000000
40
0.0000000000
40
0.0000000000
40
0.0000000000
40
0.0000000000
40
0.0606413298
40
0.1205754654
40
0.1776367838
40
0.2312773363
40
0.2833473690
40
0.3350572043
40
0.3869744693
40
0.4377599892
40
0.4848193552
40
0.5279858559
40
0.5682116814
40
0.6065903876
40
0.6444804713
40
0.6831124723
40
0.7232308140
40
0.7649328843
40
0.8082091936
40
0.8530808140
40
0.8998012883
40
0.9487188768
40
1.0000000000
40
1.0000000000
40
1.0000000000
40
1.0000000000
10
53.7702004569
20
254.1909932599
30
0.0000000000
10
53.8247741576
20
254.1374083987
30
0.0000000000
10
53.9354909028
20
254.0330797843
30
0.0000000000
10
54.1052334259
20
253.8867333407
30
0.0000000000
10
54.2749608222
20
253.7542625895
30
0.0000000000
10
54.4431814457
20
253.6364229665
30
0.0000000000
10
54.6118903852
20
253.5315453330
30
0.0000000000
10
54.7846064940
20
253.4378512691
30
0.0000000000
10
54.9614389113
20
253.3559282392
30
0.0000000000
10
55.1377805614
20
253.2878604655
30
0.0000000000
10
55.3075811123
20
253.2345797191
30
0.0000000000
10
55.4672908829
20
253.1946975811
30
0.0000000000
10
55.6181176800
20
253.1653826194
30
0.0000000000
10
55.7636563744
20
253.1447840770
30
0.0000000000
10
55.9080130570
20
253.1314907287
30
0.0000000000
10
56.0550032636
20
253.1244732818
30
0.0000000000
10
56.2069771225
20
253.1241110175
30
0.0000000000
10
56.3646506190
20
253.1311900024
30
0.0000000000
10
56.5278186134
20
253.1458346192
30
0.0000000000
10
56.6964528314
20
253.1685566278
30
0.0000000000
10
56.8708768390
20
253.2002388216
30
0.0000000000
10
57.0515573290
20
253.2416257592
30
0.0000000000
10
57.1733623782
20
253.2755060071
30
0.0000000000
10
57.2352514484
20
253.2942920427
30
0.0000000000
11
53.7702004569
21
254.1909932599
31
0.0000000000
11
53.9372785829
21
254.0337306285
31
0.0000000000
11
54.1091795369
21
253.8858254699
31
0.0000000000
11
54.2795045523
21
253.7531475352
31
0.0000000000
11
54.4458452410
21
253.6368572958
31
0.0000000000
11
54.6132586962
21
253.5329892732
31
0.0000000000
11
54.7853023592
21
253.4398139267
31
0.0000000000
11
54.9635822628
21
253.3573234515
31
0.0000000000
11
55.1428714076
21
253.2881876135
31
0.0000000000
11
55.3127626173
21
253.2348790793
31
0.0000000000
11
55.4712112278
21
253.1952505959
31
0.0000000000
11
55.6206259517
21
253.1662537478
31
0.0000000000
11
55.7644028239
21
253.1458781535
31
0.0000000000
11
55.9071529888
21
253.1326184025
31
0.0000000000
11
56.0531584649
21
253.1256458839
31
0.0000000000
11
56.2049537775
21
253.1252880803
31
0.0000000000
11
56.3625881633
21
253.1322508945
31
0.0000000000
11
56.5256816588
21
253.1468380113
31
0.0000000000
11
56.6939433658
21
253.1694982803
31
0.0000000000
11
56.8678853147
21
253.2010265147
31
0.0000000000
11
57.0483124942
21
253.2423076531
31
0.0000000000
11
57.2352514484
21
253.2942920427
31
0.0000000000
0
SPLINE
5
4A9
100
AcDbEntity
8
0
100
AcDbSpline
62
7
6
CONTINUOUS
70
0
71
3
72
30
73
26
74
24
42
0.0000001000
43
0.0000001000
44
0.0000000001
12
5.6166301363
22
1.6750638136
32
0.0000000000
13
5.6166301363
23
-1.6750638136
33
0.0000000000
40
0.0000000000
40
0.0000000000
40
0.0000000000
40
0.0000000000
40
0.0229821991
40
0.0463089479
40
0.0703349977
40
0.0956160260
40
0.1230931149
40
0.1545770038
40
0.1925261462
40
0.2391176932
40
0.2973412733
40
0.3691881494
40
0.4546485817
40
0.5441734938
40
0.6305470218
40
0.7032689747
40
0.7615702438
40
0.8078750880
40
0.8455573973
40
0.8770184136
40
0.9045179071
40
0.9297923854
40
0.9537880720
40
0.9770695866
40
1.0000000000
40
1.0000000000
40
1.0000000000
40
1.0000000000
10
57.2352514484
20
253.2942920427
30
0.0000000000
10
57.2782789524
20
253.3071242594
30
0.0000000000
10
57.3649170208
20
253.3331884980
30
0.0000000000
10
57.4965543545
20
253.3726092617
30
0.0000000000
10
57.6328227064
20
253.4122201247
30
0.0000000000
10
57.7776816621
20
253.4512584339
30
0.0000000000
10
57.9379728745
20
253.4888280915
30
0.0000000000
10
58.1245968369
20
253.5215407177
30
0.0000000000
10
58.3503671120
20
253.5442266360
30
0.0000000000
10
58.6293936240
20
253.5511255054
30
0.0000000000
10
58.9744876560
20
253.5431872166
30
0.0000000000
10
59.3952599636
20
253.5272684291
30
0.0000000000
10
59.8773425936
20
253.5138915432
30
0.0000000000
10
60.3880409105
20
253.5137829566
30
0.0000000000
10
60.8736194304
20
253.5271891142
30
0.0000000000
10
61.2980323960
20
253.5432815405
30
0.0000000000
10
61.6444323655
20
253.5511480911
30
0.0000000000
10
61.9225237659
20
253.5440492385
30
0.0000000000
10
62.1471567919
20
253.5213486059
30
0.0000000000
10
62.3332568579
20
253.4886762237
30
0.0000000000
10
62.4935279103
20
253.4510810018
30
0.0000000000
10
62.6383535008
20
253.4120281590
30
0.0000000000
10
62.7744658271
20
253.3724557370
30
0.0000000000
10
62.9058641534
20
253.3331043451
30
0.0000000000
10
62.9923208982
20
253.3070953446
30
0.0000000000
10
63.0352514484
20
253.2942920427
30
0.0000000000
11
57.2352514484
21
253.2942920427
31
0.0000000000
11
57.3642804598
21
253.3329676313
31
0.0000000000
11
57.4952975433
21
253.3720435609
31
0.0000000000
11
57.6305908492
21
253.4111033266
31
0.0000000000
11
57.7737345655
21
253.4493854628
31
0.0000000000
11
57.9306434092
21
253.4856529012
31
0.0000000000
11
58.1124339488
21
253.5173306979
31
0.0000000000
11
58.3336960427
21
253.5400292283
31
0.0000000000
11
58.6066377402
21
253.5486319780
31
0.0000000000
11
58.9478456393
21
253.5430455513
31
0.0000000000
11
59.3687096166
21
253.5289191801
31
0.0000000000
11
59.8694433121
21
253.5163564169
31
0.0000000000
11
60.3941568462
21
253.5162575113
31
0.0000000000
11
60.9002427612
21
253.5288678286
31
0.0000000000
11
61.3262332413
21
253.5431517721
31
0.0000000000
11
61.6678984930
21
253.5486176717
31
0.0000000000
11
61.9391544184
21
253.5398728782
31
0.0000000000
11
62.1588490835
21
253.5172205759
31
0.0000000000
11
62.3404995465
21
253.4855198651
31
0.0000000000
11
62.4975296515
21
253.4491939625
31
0.0000000000
11
62.6406308233
21
253.4109013425
31
0.0000000000
11
62.7757507868
21
253.3718827516
31
0.0000000000
11
62.9065131358
21
253.3328803442
31
0.0000000000
11
63.0352514484
21
253.2942920427
31
0.0000000000
0
SPLINE
5
4AA
100
AcDbEntity
8
0
100
AcDbSpline
62
7
6
CONTINUOUS
70
0
71
3
72
24
73
20
74
18
42
0.0000001000
43
0.0000001000
44
0.0000000001
12
3.6203013436
22
-1.0989195599
32
0.0000000000
13
2.6996561546
23
2.6506721156
33
0.0000000000
40
0.0000000000
40
0.0000000000
40
0.0000000000
40
0.0000000000
40
0.0596085367
40
0.1167895590
40
0.1718795969
40
0.2252185752
40
0.2771356497
40
0.3280834109
40
0.3783520604
40
0.4285126101
40
0.4794030578
40
0.5317578620
40
0.5858354407
40
0.6419024277
40
0.7004982920
40
0.7643112106
40
0.8370967216
40
0.9174825045
40
1.0000000000
40
1.0000000000
40
1.0000000000
40
1.0000000000
10
63.0352514484
20
253.2942920427
30
0.0000000000
10
63.1071850703
20
253.2724570471
30
0.0000000000
10
63.2493184813
20
253.2335050320
30
0.0000000000
10
63.4612502447
20
253.1875202839
30
0.0000000000
10
63.6675721387
20
253.1543998397
30
0.0000000000
10
63.8687810635
20
253.1332785334
30
0.0000000000
10
64.0656330081
20
253.1233522695
30
0.0000000000
10
64.2588587897
20
253.1251318521
30
0.0000000000
10
64.4494490487
20
253.1378619299
30
0.0000000000
10
64.6388494530
20
253.1622834475
30
0.0000000000
10
64.8287972314
20
253.1997358607
30
0.0000000000
10
65.0206741259
20
253.2508047065
30
0.0000000000
10
65.2146734979
20
253.3173956281
30
0.0000000000
10
65.4106620708
20
253.4007701688
30
0.0000000000
10
65.6111418264
20
253.5035098443
30
0.0000000000
10
65.8217943248
20
253.6312801358
30
0.0000000000
10
66.0452368551
20
253.7896624414
30
0.0000000000
10
66.2753601526
20
253.9781327010
30
0.0000000000
10
66.4259951611
20
254.1180342523
30
0.0000000000
10
66.5002514493
20
254.1909431938
30
0.0000000000
11
63.0352514484
21
253.2942920427
31
0.0000000000
11
63.2527601694
21
253.2347028395
31
0.0000000000
11
63.4642014021
21
253.1889281165
31
0.0000000000
11
63.6700059006
21
253.1559604366
31
0.0000000000
11
63.8707108415
21
253.1349340269
31
0.0000000000
11
64.0668961657
21
253.1252603108
31
0.0000000000
11
64.2596446989
21
253.1269983276
31
0.0000000000
11
64.4493993012
21
253.1398158706
31
0.0000000000
11
64.6376009011
21
253.1642260317
31
0.0000000000
11
64.8265183249
21
253.2013969471
31
0.0000000000
11
65.0179087509
21
253.2524391742
31
0.0000000000
11
65.2114390839
21
253.3188187842
31
0.0000000000
11
65.4066778093
21
253.4017563954
31
0.0000000000
11
65.6040447541
21
253.5027205580
31
0.0000000000
11
65.8106376188
21
253.6276529523
31
0.0000000000
11
66.0355641948
21
253.7865266212
31
0.0000000000
11
66.2712281391
21
253.9787741240
31
0.0000000000
11
66.5002514493
21
254.1909431938
31
0.0000000000
0
SPLINE
5
4AB
100
AcDbEntity
8
0
100
AcDbSpline
62
7
6
CONTINUOUS
70
0
71
3
72
14
73
10
74
8
42
0.0000001000
43
0.0000001000
44
0.0000000001
12
0.1232674728
22
3.0677952490
32
0.0000000000
13
0.1627552140
23
3.0659516356
33
0.0000000000
40
0.0000000000
40
0.0000000000
40
0.0000000000
40
0.0000000000
40
0.0237525811
40
0.0952580203
40
0.2125872844
40
0.3704107453
40
0.5609971848
40
0.7745739411
40
1.0000000000
40
1.0000000000
40
1.0000000000
40
1.0000000000
10
55.2898906237
20
73.7283658266
30
0.0000000000
10
55.2908665972
20
73.7526551785
30
0.0000000000
10
55.2948518347
20
73.8500629181
30
0.0000000000
10
55.3042194995
20
74.0674279979
30
0.0000000000
10
55.3194391893
20
74.4218792248
30
0.0000000000
10
55.3407691611
20
74.8980502811
30
0.0000000000
10
55.3676904869
20
75.4725700177
30
0.0000000000
10
55.3991552155
20
76.1161387398
30
0.0000000000
10
55.4230216929
20
76.5647907154
30
0.0000000000
10
55.4352514484
20
76.7951725134
30
0.0000000000
11
55.2898906237
21
73.7283658266
31
0.0000000000
11
55.2928672351
21
73.8012318558
31
0.0000000000
11
55.3021959119
21
74.0205744682
31
0.0000000000
11
55.3177560935
21
74.3804705955
31
0.0000000000
11
55.3394192210
21
74.8645465107
31
0.0000000000
11
55.3667754451
21
75.4490582425
31
0.0000000000
11
55.3990190302
21
76.1040030192
31
0.0000000000
11
55.4352514484
21
76.7951725134
31
0.0000000000
0
SPLINE
5
4AC
100
AcDbEntity
8
0
100
AcDbSpline
62
9
6
CONTINUOUS
70
0
71
3
72
17
73
13
74
11
42
0.0000001000
43
0.0000001000
44
0.0000000001
12
-5.8654318236
22
0.0000000000
32
0.0000000000
13
5.8654318236
23
-0.0000000000
33
0.0000000000
40
0.0000000000
40
0.0000000000
40
0.0000000000
40
0.0000000000
40
0.1000133587
40
0.2000100191
40
0.3000066794
40
0.4000033397
40
0.5000000000
40
0.5999966603
40
0.6999933206
40
0.7999899809
40
0.8999866413
40
1.0000000000
40
1.0000000000
40
1.0000000000
40
1.0000000000
10
53.1352514484
20
95.0078393115
30
0.0000000000
10
52.9397109360
20
95.0078393115
30
0.0000000000
10
52.5460471348
20
94.9447627958
30
0.0000000000
10
52.0151642445
20
94.6744163798
30
0.0000000000
10
51.5934409457
20
94.2527065626
30
0.0000000000
10
51.3227786198
20
93.7214683373
30
0.0000000000
10
51.2294943859
20
93.1325529644
30
0.0000000000
10
51.3227786198
20
92.5436375915
30
0.0000000000
10
51.5934409457
20
92.0123993662
30
0.0000000000
10
52.0151642445
20
91.5906895491
30
0.0000000000
10
52.5460471348
20
91.3203431330
30
0.0000000000
10
52.9397109360
20
91.2572666173
30
0.0000000000
10
53.1352514484
20
91.2572666173
30
0.0000000000
11
53.1352514484
21
95.0078393115
31
0.0000000000
11
52.5559489335
21
94.9154627777
31
0.0000000000
11
52.0333525849
21
94.6491866383
31
0.0000000000
11
51.6186177745
21
94.2344518279
31
0.0000000000
11
51.3523416351
21
93.7118554794
31
0.0000000000
11
51.2605891305
21
93.1325529644
31
0.0000000000
11
51.3523416351
21
92.5532504495
31
0.0000000000
11
51.6186177745
21
92.0306541009
31
0.0000000000
11
52.0333525849
21
91.6159192905
31
0.0000000000
11
52.5559489335
21
91.3496431511
31
0.0000000000
11
53.1352514484
21
91.2572666173
31
0.0000000000
0
SPLINE
5
4AD
100
AcDbEntity
8
0
100
AcDbSpline
62
7
6
CONTINUOUS
70
0
71
3
72
14
73
10
74
8
42
0.0000001000
43
0.0000001000
44
0.0000000001
12
0.1627552140
22
-3.0659516356
32
0.0000000000
13
0.1232674728
23
-3.0677952490
33
0.0000000000
40
0.0000000000
40
0.0000000000
40
0.0000000000
40
0.0000000000
40
0.2254260589
40
0.4390028152
40
0.6295892547
40
0.7874127156
40
0.9047419797
40
0.9762474189
40
1.0000000000
40
1.0000000000
40
1.0000000000
40
1.0000000000
10
64.8352514484
20
76.7951725134
30
0.0000000000
10
64.8474812039
20
76.5647907154
30
0.0000000000
10
64.8713476813
20
76.1161387398
30
0.0000000000
10
64.9028124100
20
75.4725700177
30
0.0000000000
10
64.9297337358
20
74.8980502811
30
0.0000000000
10
64.9510637075
20
74.4218792248
30
0.0000000000
10
64.9662833974
20
74.0674279979
30
0.0000000000
10
64.9756510622
20
73.8500629181
30
0.0000000000
10
64.9796362996
20
73.7526551785
30
0.0000000000
10
64.9806122732
20
73.7283658266
30
0.0000000000
11
64.8352514484
21
76.7951725134
31
0.0000000000
11
64.8714838666
21
76.1040030192
31
0.0000000000
11
64.9037274518
21
75.4490582425
31
0.0000000000
11
64.9310836758
21
74.8645465107
31
0.0000000000
11
64.9527468033
21
74.3804705955
31
0.0000000000
11
64.9683069849
21
74.0205744682
31
0.0000000000
11
64.9776356618
21
73.8012318558
31
0.0000000000
11
64.9806122732
21
73.7283658266
31
0.0000000000
0
SPLINE
5
4AE
100
AcDbEntity
8
0
100
AcDbSpline
62
7
6
CONTINUOUS
70
0
71
3
72
9
73
5
74
3
42
0.0000001000
43
0.0000001000
44
0.0000000001
12
-0.0015328829
22
-0.0802645339
32
0.0000000000
13
-0.0002723165
23
-0.0802787081
33
0.0000000000
40
0.0000000000
40
0.0000000000
40
0.0000000000
40
0.0000000000
40
0.4995690562
40
1.0000000000
40
1.0000000000
40
1.0000000000
40
1.0000000000
10
54.1407212877
20
91.2578928820
30
0.0000000000
10
54.1404660274
20
91.2445269895
30
0.0000000000
10
54.1400588973
20
91.2177700569
30
0.0000000000
10
54.1398626139
20
91.1910107398
30
0.0000000000
10
54.1398171887
20
91.1776194232
30
0.0000000000
11
54.1407212877
21
91.2578928820
31
0.0000000000
11
54.1401118690
21
91.2177925233
31
0.0000000000
11
54.1398171887
21
91.1776194232
31
0.0000000000
0
SPLINE
5
4AF
100
AcDbEntity
8
0
100
AcDbSpline
62
7
6
CONTINUOUS
70
0
71
3
72
24
73
20
74
18
42
0.0000001000
43
0.0000001000
44
0.0000000001
12
0.0716143274
22
-3.7498560261
32
0.0000000000
13
-0.0716143227
23
-3.7498560261
33
0.0000000000
40
0.0000000000
40
0.0000000000
40
0.0000000000
40
0.0000000000
40
0.0476645960
40
0.0937773424
40
0.1393070441
40
0.1856998211
40
0.2355662647
40
0.2936143130
40
0.3652112394
40
0.4525662279
40
0.5434586730
40
0.6322888800
40
0.7048775127
40
0.7633580778
40
0.8135178159
40
0.8601757622
40
0.9059069153
40
0.9521878375
40
1.0000000000
40
1.0000000000
40
1.0000000000
40
1.0000000000
10
54.1407212878
20
95.0072130386
30
0.0000000000
10
54.1418591105
20
94.9476345811
30
0.0000000000
10
54.1449887013
20
94.8304330746
30
0.0000000000
10
54.1517368918
20
94.6564031762
30
0.0000000000
10
54.1592562737
20
94.4839985898
30
0.0000000000
10
54.1663694222
20
94.3068778343
30
0.0000000000
10
54.1712445028
20
94.1140150575
30
0.0000000000
10
54.1716109121
20
93.8895704757
30
0.0000000000
10
54.1661439730
20
93.6183299328
30
0.0000000000
10
54.1592625386
20
93.3060519922
30
0.0000000000
10
54.1590492768
20
92.9721183985
30
0.0000000000
10
54.1658967900
20
92.6567530057
30
0.0000000000
10
54.1715498727
20
92.3818914880
30
0.0000000000
10
54.1713162579
20
92.1552991453
30
0.0000000000
10
54.1664743404
20
91.9611957824
30
0.0000000000
10
54.1593456848
20
91.7831247742
30
0.0000000000
10
54.1517874611
20
91.6099275249
30
0.0000000000
10
54.1450056960
20
91.4352518541
30
0.0000000000
10
54.1418626329
20
91.3176557905
30
0.0000000000
10
54.1407212877
20
91.2578928820
30
0.0000000000
11
54.1407212878
21
95.0072130386
31
0.0000000000
11
54.1454055517
21
94.8285064556
31
0.0000000000
11
54.1519051248
21
94.6556809385
31
0.0000000000
11
54.1591121260
21
94.4850721342
31
0.0000000000
11
54.1657798600
21
94.3112019809
31
0.0000000000
11
54.1703050508
21
94.1242306516
31
0.0000000000
11
54.1708754126
21
93.9065198830
31
0.0000000000
11
54.1664651963
21
93.6380289793
31
0.0000000000
11
54.1605049156
21
93.3104548375
31
0.0000000000
11
54.1603318595
21
92.9695591481
31
0.0000000000
11
54.1662675919
21
92.6364508017
31
0.0000000000
11
54.1708272656
21
92.3642424315
31
0.0000000000
11
54.1703646277
21
92.1449092322
31
0.0000000000
11
54.1658758175
21
91.9568366985
31
0.0000000000
11
54.1591933842
21
91.7819718512
31
0.0000000000
11
54.1519538689
21
91.6106081951
31
0.0000000000
11
54.1454236604
21
91.4371526345
31
0.0000000000
11
54.1407212877
21
91.2578928820
31
0.0000000000
0
SPLINE
5
4B0
100
AcDbEntity
8
0
100
AcDbSpline
62
7
6
CONTINUOUS
70
0
71
3
72
9
73
5
74
3
42
0.0000001000
43
0.0000001000
44
0.0000000001
12
0.0002723165
22
-0.0802787164
32
0.0000000000
13
0.0015328832
23
-0.0802645422
33
0.0000000000
40
0.0000000000
40
0.0000000000
40
0.0000000000
40
0.0000000000
40
0.5004257006
40
1.0000000000
40
1.0000000000
40
1.0000000000
40
1.0000000000
10
54.1398171887
20
95.0874865056
30
0.0000000000
10
54.1398626134
20
95.0740953280
30
0.0000000000
10
54.1400588957
20
95.0473360081
30
0.0000000000
10
54.1404660248
20
95.0205790727
30
0.0000000000
10
54.1407212878
20
95.0072130386
30
0.0000000000
11
54.1398171887
21
95.0874865056
31
0.0000000000
11
54.1401118643
21
95.0473138223
31
0.0000000000
11
54.1407212878
21
95.0072130386
31
0.0000000000
0
SPLINE
5
4B1
100
AcDbEntity
8
0
100
AcDbSpline
62
7
6
CONTINUOUS
70
0
71
3
72
28
73
24
74
22
42
0.0000001000
43
0.0000001000
44
0.0000000001
12
-2.0457179914
22
-2.1708976278
32
0.0000000000
13
0.0101183885
23
-2.9828939352
33
0.0000000000
40
0.0000000000
40
0.0000000000
40
0.0000000000
40
0.0000000000
40
0.0427143897
40
0.0850207467
40
0.1276436309
40
0.1716601007
40
0.2176274466
40
0.2655870387
40
0.3152225032
40
0.3653541334
40
0.4152326276
40
0.4640408537
40
0.5111358986
40
0.5569892806
40
0.6017398514
40
0.6459464804
40
0.6905718118
40
0.7364967984
40
0.7843363166
40
0.8344159252
40
0.8869155745
40
0.9420522612
40
1.0000000000
40
1.0000000000
40
1.0000000000
40
1.0000000000
10
55.1863597816
20
97.7960785911
30
0.0000000000
10
55.1572325831
20
97.7651690686
30
0.0000000000
10
55.1000575607
20
97.7028843299
30
0.0000000000
10
55.0167497055
20
97.6071168891
30
0.0000000000
10
54.9353521738
20
97.5080347818
30
0.0000000000
10
54.8547770896
20
97.4036408059
30
0.0000000000
10
54.7745684088
20
97.2923465664
30
0.0000000000
10
54.6954340459
20
97.1735021733
30
0.0000000000
10
54.6190000437
20
97.0480193340
30
0.0000000000
10
54.5471318868
20
96.9176798690
30
0.0000000000
10
54.4813760636
20
96.7850683065
30
0.0000000000
10
54.4228920695
20
96.6523832994
30
0.0000000000
10
54.3718452023
20
96.5209587026
30
0.0000000000
10
54.3273242803
20
96.3914482106
30
0.0000000000
10
54.2887523706
20
96.2630406363
30
0.0000000000
10
54.2552933625
20
96.1344721087
30
0.0000000000
10
54.2262230517
20
96.0036467114
30
0.0000000000
10
54.2009449695
20
95.8683603810
30
0.0000000000
10
54.1794826387
20
95.7269271815
30
0.0000000000
10
54.1620662153
20
95.5783537514
30
0.0000000000
10
54.1491444259
20
95.4220387057
30
0.0000000000
10
54.1411598285
20
95.2575608489
30
0.0000000000
10
54.1396217428
20
95.1451038252
30
0.0000000000
10
54.1398171887
20
95.0874865056
30
0.0000000000
11
55.1863597816
21
97.7960785911
31
0.0000000000
11
55.1002085712
21
97.7022058081
31
0.0000000000
11
55.0174073954
21
97.6069722983
31
0.0000000000
11
54.9367273645
21
97.5087104952
31
0.0000000000
11
54.8565258240
21
97.4047553516
31
0.0000000000
11
54.7764071401
21
97.2934812185
31
0.0000000000
11
54.6971548382
21
97.1743803905
31
0.0000000000
11
54.6201740476
21
97.0479083308
31
0.0000000000
11
54.5479753518
21
96.9169540624
31
0.0000000000
11
54.4819286423
21
96.7836339696
31
0.0000000000
11
54.4232250366
21
96.6504029324
31
0.0000000000
11
54.3722757600
21
96.5194873302
31
0.0000000000
11
54.3278310027
21
96.3901331985
31
0.0000000000
11
54.2893991794
21
96.2622982765
31
0.0000000000
11
54.2561627155
21
96.1346911877
31
0.0000000000
11
54.2272306089
21
96.0047600158
31
0.0000000000
11
54.2020471552
21
95.8701045463
31
0.0000000000
11
54.1805979656
21
95.7290247244
31
0.0000000000
11
54.1631741571
21
95.5806613273
31
0.0000000000
11
54.1502236820
21
95.4245959411
31
0.0000000000
11
54.1422260598
21
95.2603226730
31
0.0000000000
11
54.1398171887
21
95.0874865056
31
0.0000000000
0
SPLINE
5
4B2
100
AcDbEntity
8
0
100
AcDbSpline
62
7
6
CONTINUOUS
70
0
71
3
72
23
73
19
74
17
42
0.0000001000
43
0.0000001000
44
0.0000000001
12
-2.9827659377
22
0.0101179544
32
0.0000000000
13
-2.1708044734
23
-2.0456302085
33
0.0000000000
40
0.0000000000
40
0.0000000000
40
0.0000000000
40
0.0000000000
40
0.0652435175
40
0.1274098972
40
0.1868823390
40
0.2441191138
40
0.2995701973
40
0.3537279777
40
0.4073201714
40
0.4611478454
40
0.5155594017
40
0.5708984724
40
0.6278795687
40
0.6874407525
40
0.7531727962
40
0.8290280304
40
0.9132471341
40
1.0000000000
40
1.0000000000
40
1.0000000000
40
1.0000000000
10
58.1803179072
20
99.1279872242
30
0.0000000000
10
58.1154491933
20
99.1282072678
30
0.0000000000
10
57.9887473693
20
99.1261994086
30
0.0000000000
10
57.8031760320
20
99.1159434514
30
0.0000000000
10
57.6260673585
20
99.0992364193
30
0.0000000000
10
57.4563778980
20
99.0764113455
30
0.0000000000
10
57.2929459693
20
99.0477109581
30
0.0000000000
10
57.1343593247
20
99.0131368885
30
0.0000000000
10
56.9789751318
20
98.9721312328
30
0.0000000000
10
56.8253788475
20
98.9240059359
30
0.0000000000
10
56.6725348632
20
98.8682405276
30
0.0000000000
10
56.5196980733
20
98.8038486818
30
0.0000000000
10
56.3658443083
20
98.7292819099
30
0.0000000000
10
56.2069175661
20
98.6420192058
30
0.0000000000
10
56.0369865110
20
98.5363670467
30
0.0000000000
10
55.8533665674
20
98.4069537718
30
0.0000000000
10
55.6613068703
20
98.2539618771
30
0.0000000000
10
55.5345003249
20
98.1405993923
30
0.0000000000
10
55.4717258218
20
98.0814446312
30
0.0000000000
11
58.1803179072
21
99.1279872242
31
0.0000000000
11
57.9857360328
21
99.1248439257
31
0.0000000000
11
57.8005919490
21
99.1145717347
31
0.0000000000
11
57.6239893644
21
99.0978402223
31
0.0000000000
11
57.4547954152
21
99.0750280827
31
0.0000000000
11
57.2918983346
21
99.0463710945
31
0.0000000000
11
57.1340834841
21
99.0118755981
31
0.0000000000
11
56.9795373005
21
98.9710253463
31
0.0000000000
11
56.8263274468
21
98.9230143205
31
0.0000000000
11
56.6738793947
21
98.8673349691
31
0.0000000000
11
56.5217907321
21
98.8031842897
31
0.0000000000
11
56.3688003134
21
98.7291498481
31
0.0000000000
11
56.2130654597
21
98.6436568477
31
0.0000000000
11
56.0465038466
21
98.5402233459
31
0.0000000000
11
55.8614281256
21
98.4100679232
31
0.0000000000
11
55.6647898944
21
98.2537396684
31
0.0000000000
11
55.4717258218
21
98.0814446312
31
0.0000000000
0
SPLINE
5
4B3
100
AcDbEntity
8
0
100
AcDbSpline
62
7
6
CONTINUOUS
70
0
71
3
72
9
73
5
74
3
42
0.0000001000
43
0.0000001000
44
0.0000000001
12
-0.0802647194
22
0.0015328887
32
0.0000000000
13
-0.0802788936
23
0.0002723171
33
0.0000000000
40
0.0000000000
40
0.0000000000
40
0.0000000000
40
0.0000000000
40
0.4995702126
40
1.0000000000
40
1.0000000000
40
1.0000000000
40
1.0000000000
10
58.2605915514
20
99.1270831217
30
0.0000000000
10
58.2472255971
20
99.1273383836
30
0.0000000000
10
58.2204686028
20
99.1277455151
30
0.0000000000
10
58.1937092238
20
99.1279417990
30
0.0000000000
10
58.1803179072
20
99.1279872242
30
0.0000000000
11
58.2605915514
21
99.1270831217
31
0.0000000000
11
58.2204910073
21
99.1276925438
31
0.0000000000
11
58.1803179072
21
99.1279872242
31
0.0000000000
0
SPLINE
5
4B4
100
AcDbEntity
8
0
100
AcDbSpline
62
7
6
CONTINUOUS
70
0
71
3
72
25
73
21
74
19
42
0.0000001000
43
0.0000001000
44
0.0000000001
12
-3.7498594479
22
-0.0716144575
32
0.0000000000
13
-3.7498594473
23
0.0716144925
33
0.0000000000
40
0.0000000000
40
0.0000000000
40
0.0000000000
40
0.0000000000
40
0.0457103708
40
0.0899743342
40
0.1336135990
40
0.1778259586
40
0.2247392464
40
0.2779983231
40
0.3425985987
40
0.4225914725
40
0.5089319382
40
0.5947266581
40
0.6703377036
40
0.7307542166
40
0.7810379459
40
0.8262057670
40
0.8692581312
40
0.9119314519
40
0.9552761493
40
1.0000000000
40
1.0000000000
40
1.0000000000
40
1.0000000000
10
62.0099114076
20
99.1270831229
30
0.0000000000
10
61.9527755857
20
99.1259919484
30
0.0000000000
10
61.8403262775
20
99.1230257475
30
0.0000000000
10
61.6734047398
20
99.1166570122
30
0.0000000000
10
61.5083914670
20
99.1095069604
30
0.0000000000
10
61.3400536804
20
99.1025414566
30
0.0000000000
10
61.1596113061
20
99.0974093629
30
0.0000000000
10
60.9536029558
20
99.0957798834
30
0.0000000000
10
60.7062684447
20
99.0996230538
30
0.0000000000
10
60.4176452732
20
99.1064685890
30
0.0000000000
10
60.1024287906
20
99.1097388012
30
0.0000000000
10
59.7927141666
20
99.1051467210
30
0.0000000000
10
59.5154785429
20
99.0985710622
30
0.0000000000
10
59.2825576147
20
99.0957363381
30
0.0000000000
10
59.0876906523
20
99.0979474390
30
0.0000000000
10
58.9146072573
20
99.1031435144
30
0.0000000000
10
58.7511089834
20
99.1099919442
30
0.0000000000
10
58.5898980025
20
99.1169509912
30
0.0000000000
10
58.4265620440
20
99.1231298092
30
0.0000000000
10
58.3164942695
20
99.1260154964
30
0.0000000000
10
58.2605915514
20
99.1270831217
30
0.0000000000
11
62.0099114076
21
99.1270831229
31
0.0000000000
11
61.8385303558
21
99.1226367347
31
0.0000000000
11
61.6726305250
21
99.1164833731
31
0.0000000000
11
61.5091047748
21
99.1095907243
31
0.0000000000
11
61.3434143543
21
99.1030273139
31
0.0000000000
11
61.1675303120
21
99.0981985864
31
0.0000000000
11
60.9677862592
21
99.0965975345
31
0.0000000000
11
60.7255189732
21
99.0996189815
31
0.0000000000
11
60.4255626468
21
99.1056390382
31
0.0000000000
11
60.1017506104
21
99.1083814523
31
0.0000000000
11
59.7799978057
21
99.1044513760
31
0.0000000000
11
59.4964730919
21
99.0987270598
31
0.0000000000
11
59.2698887910
21
99.0965516071
31
0.0000000000
11
59.0813090319
21
99.0986380096
31
0.0000000000
11
58.9119768380
21
99.1035652472
31
0.0000000000
11
58.7506372044
21
99.1100462850
31
0.0000000000
11
58.5907305289
21
99.1167738630
31
0.0000000000
11
58.4282744504
21
99.1227554459
31
0.0000000000
11
58.2605915514
21
99.1270831217
31
0.0000000000
0
SPLINE
5
4B5
100
AcDbEntity
8
0
100
AcDbSpline
62
7
6
CONTINUOUS
70
0
71
3
72
9
73
5
74
3
42
0.0000001000
43
0.0000001000
44
0.0000000001
12
-0.0802788314
22
-0.0002723169
32
0.0000000000
13
-0.0802646571
23
-0.0015328868
33
0.0000000000
40
0.0000000000
40
0.0000000000
40
0.0000000000
40
0.0000000000
40
0.5004249839
40
1.0000000000
40
1.0000000000
40
1.0000000000
40
1.0000000000
10
62.0901849896
20
99.1279872242
30
0.0000000000
10
62.0767938120
20
99.1279417994
30
0.0000000000
10
62.0500344538
20
99.1277455168
30
0.0000000000
10
62.0232774801
20
99.1273383868
30
0.0000000000
10
62.0099114076
20
99.1270831229
30
0.0000000000
11
62.0901849896
21
99.1279872242
31
0.0000000000
11
62.0500123063
21
99.1276925485
31
0.0000000000
11
62.0099114076
21
99.1270831229
31
0.0000000000
0
SPLINE
5
4B6
100
AcDbEntity
8
0
100
AcDbSpline
62
7
6
CONTINUOUS
70
0
71
3
72
23
73
19
74
17
42
0.0000001000
43
0.0000001000
44
0.0000000001
12
-2.1707361521
22
2.0455658268
32
0.0000000000
13
-2.9826720616
23
-0.0101176359
33
0.0000000000
40
0.0000000000
40
0.0000000000
40
0.0000000000
40
0.0000000000
40
0.1150603188
40
0.2214289101
40
0.3126200373
40
0.3883703645
40
0.4532088186
40
0.5099791277
40
0.5612729680
40
0.6080861168
40
0.6521494063
40
0.6955500148
40
0.7400847489
40
0.7869784313
40
0.8364752825
40
0.8884981786
40
0.9430240367
40
1.0000000000
40
1.0000000000
40
1.0000000000
40
1.0000000000
10
64.7987770751
20
98.0814446312
30
0.0000000000
10
64.7155218772
20
98.1598991166
30
0.0000000000
10
64.5499725503
20
98.3053756961
30
0.0000000000
10
64.3013789400
20
98.4924577780
30
0.0000000000
10
64.0719811311
20
98.6386123911
30
0.0000000000
10
63.8690708054
20
98.7481937617
30
0.0000000000
10
63.6908469737
20
98.8305635691
30
0.0000000000
10
63.5308600335
20
98.8936609095
30
0.0000000000
10
63.3851244794
20
98.9435297499
30
0.0000000000
10
63.2495299216
20
98.9835879071
30
0.0000000000
10
63.1201297627
20
99.0165441106
30
0.0000000000
10
62.9918720030
20
99.0444641326
30
0.0000000000
10
62.8600006625
20
99.0686714226
30
0.0000000000
10
62.7214028760
20
99.0893911631
30
0.0000000000
10
62.5747943490
20
99.1063378329
30
0.0000000000
10
62.4201320471
20
99.1189399959
30
0.0000000000
10
62.2577062986
20
99.1266949445
30
0.0000000000
10
62.1468318609
20
99.1281793782
30
0.0000000000
10
62.0901849896
20
99.1279872242
30
0.0000000000
11
64.7987770751
21
98.0814446312
31
0.0000000000
11
64.5406311341
21
98.3075850333
31
0.0000000000
11
64.2867821377
21
98.4978937793
31
0.0000000000
11
64.0572223273
21
98.6437822997
31
0.0000000000
11
63.8583916036
21
98.7510906608
31
0.0000000000
11
63.6827916448
21
98.8321183769
31
0.0000000000
11
63.5253252155
21
98.8943787909
31
0.0000000000
11
63.3805657065
21
98.9438936530
31
0.0000000000
11
63.2466677213
21
98.9834866818
31
0.0000000000
11
63.1193140196
21
99.0159538493
31
0.0000000000
11
62.9928368177
21
99.0435392870
31
0.0000000000
11
62.8621902701
21
99.0675425699
31
0.0000000000
11
62.7238637122
21
99.0882592088
31
0.0000000000
11
62.5772101187
21
99.1052427362
31
0.0000000000
11
62.4225583568
21
99.1178911156
31
0.0000000000
11
62.2601107717
21
99.1256692306
31
0.0000000000
11
62.0901849896
21
99.1279872242
31
0.0000000000
0
SPLINE
5
4B7
100
AcDbEntity
8
0
100
AcDbSpline
62
7
6
CONTINUOUS
70
0
71
3
72
29
73
25
74
23
42
0.0000001000
43
0.0000001000
44
0.0000000001
12
0.0101184345
22
2.9829074800
32
0.0000000000
13
-2.0457272806
23
2.1709074854
33
0.0000000000
40
0.0000000000
40
0.0000000000
40
0.0000000000
40
0.0000000000
40
0.0553668304
40
0.1082403298
40
0.1587138696
40
0.2069143535
40
0.2529366164
40
0.2969700093
40
0.3396570999
40
0.3819447758
40
0.4249904276
40
0.4696242942
40
0.5156029894
40
0.5628913159
40
0.6112305070
40
0.6595586640
40
0.7073176333
40
0.7537354029
40
0.7983039225
40
0.8409922535
40
0.8819305990
40
0.9215499147
40
0.9606877950
40
1.0000000000
40
1.0000000000
40
1.0000000000
40
1.0000000000
10
66.1306857082
20
95.0874865056
30
0.0000000000
10
66.1308724500
20
95.1425378831
30
0.0000000000
10
66.1294823414
20
95.2501769246
30
0.0000000000
10
66.1221930408
20
95.4078460155
30
0.0000000000
10
66.1103394738
20
95.5580910116
30
0.0000000000
10
66.0943454405
20
95.7010974596
30
0.0000000000
10
66.0746378948
20
95.8371711110
30
0.0000000000
10
66.0514948277
20
95.9671364973
30
0.0000000000
10
66.0249484673
20
96.0926566385
30
0.0000000000
10
65.9944433728
20
96.2162646462
30
0.0000000000
10
65.9590601359
20
96.3405835469
30
0.0000000000
10
65.9178788228
20
96.4669735746
30
0.0000000000
10
65.8703937001
20
96.5956426551
30
0.0000000000
10
65.8161857085
20
96.7256387626
30
0.0000000000
10
65.7551862809
20
96.8551782648
30
0.0000000000
10
65.6885223075
20
96.9824194581
30
0.0000000000
10
65.6175129592
20
97.1050826851
30
0.0000000000
10
65.5436885278
20
97.2216635421
30
0.0000000000
10
65.4684452190
20
97.3312623705
30
0.0000000000
10
65.3928108722
20
97.4338893559
30
0.0000000000
10
65.3171650237
20
97.5303208562
30
0.0000000000
10
65.2411031719
20
97.6218764422
30
0.0000000000
10
65.1637658352
20
97.7102156514
30
0.0000000000
10
65.1109504653
20
97.7676308710
30
0.0000000000
10
65.0841431152
20
97.7960785911
30
0.0000000000
11
66.1306857082
21
95.0874865056
31
0.0000000000
11
66.1285133301
21
95.2526273003
31
0.0000000000
11
66.1212093637
21
95.4101757492
31
0.0000000000
11
66.1093272828
21
95.5602649161
31
0.0000000000
11
66.0933154238
21
95.7031489666
31
0.0000000000
11
66.0736064434
21
95.8390077652
31
0.0000000000
11
66.0505574351
21
95.9683179243
31
0.0000000000
11
66.0241691317
21
96.0928859418
31
0.0000000000
11
65.9939122266
21
96.2153443392
31
0.0000000000
11
65.9587346601
21
96.3388335932
31
0.0000000000
11
65.9174965619
21
96.4654255963
31
0.0000000000
11
65.8699727796
21
96.5940797148
31
0.0000000000
11
65.8156308773
21
96.7242495269
31
0.0000000000
11
65.7542669193
21
96.8547326482
31
0.0000000000
11
65.6873671107
21
96.9824287917
31
0.0000000000
11
65.6160262185
21
97.1057403054
31
0.0000000000
11
65.5419752556
21
97.2227352743
31
0.0000000000
11
65.4667697565
21
97.3323636575
31
0.0000000000
11
65.3912600807
21
97.4348954315
31
0.0000000000
11
65.3159043583
21
97.5309882639
31
0.0000000000
11
65.2404074949
21
97.6219117193
31
0.0000000000
11
65.1635242781
21
97.7097664127
31
0.0000000000
11
65.0841431152
21
97.7960785911
31
0.0000000000
0
SPLINE
5
4B8
100
AcDbEntity
8
0
100
AcDbSpline
62
7
6
CONTINUOUS
70
0
71
3
72
9
73
5
74
3
42
0.0000001000
43
0.0000001000
44
0.0000000001
12
0.0015328827
22
0.0802645267
32
0.0000000000
13
0.0002723165
23
0.0802787009
33
0.0000000000
40
0.0000000000
40
0.0000000000
40
0.0000000000
40
0.0000000000
40
0.4995742029
40
1.0000000000
40
1.0000000000
40
1.0000000000
40
1.0000000000
10
66.1297816093
20
95.0072130541
30
0.0000000000
10
66.1300368722
20
95.0205790831
30
0.0000000000
10
66.1304440012
20
95.0473360132
30
0.0000000000
10
66.1306402834
20
95.0740953280
30
0.0000000000
10
66.1306857082
20
95.0874865056
30
0.0000000000
11
66.1297816093
21
95.0072130541
31
0.0000000000
11
66.1303910325
21
95.0473138223
31
0.0000000000
11
66.1306857082
21
95.0874865056
31
0.0000000000
0
SPLINE
5
4B9
100
AcDbEntity
8
0
100
AcDbSpline
62
7
6
CONTINUOUS
70
0
71
3
72
24
73
20
74
18
42
0.0000001000
43
0.0000001000
44
0.0000000001
12
-0.0716143290
22
3.7498560329
32
0.0000000000
13
0.0716143188
23
3.7498560331
33
0.0000000000
40
0.0000000000
40
0.0000000000
40
0.0000000000
40
0.0000000000
40
0.0476187261
40
0.0937023465
40
0.1392007936
40
0.1855377771
40
0.2351833570
40
0.2927896101
40
0.3640148778
40
0.4519086180
40
0.5430405925
40
0.6313829030
40
0.7041006980
40
0.7628618500
40
0.8131617197
40
0.8598735949
40
0.9056785025
40
0.9520581584
40
1.0000000000
40
1.0000000000
40
1.0000000000
40
1.0000000000
10
66.1297816090
20
91.2578928928
30
0.0000000000
10
66.1286448813
20
91.3174140153
30
0.0000000000
10
66.1255186954
20
91.4345218090
30
0.0000000000
10
66.1187778008
20
91.6084190612
30
0.0000000000
10
66.1112656039
20
91.7806785811
30
0.0000000000
10
66.1041631562
20
91.9574145116
30
0.0000000000
10
66.0992936416
20
92.1493786911
30
0.0000000000
10
66.0988655830
20
92.3725297186
30
0.0000000000
10
66.1042697193
20
92.6434283688
30
0.0000000000
10
66.1112114505
20
92.9562132333
30
0.0000000000
10
66.1114810483
20
93.2905100037
30
0.0000000000
10
66.1046756708
20
93.6057274384
30
0.0000000000
10
66.0989846282
20
93.8804900994
30
0.0000000000
10
66.0991516951
20
94.1077701017
30
0.0000000000
10
66.1039786220
20
94.3024676436
30
0.0000000000
10
66.1111083529
20
94.4808737223
30
0.0000000000
10
66.1186809870
20
94.6543536740
30
0.0000000000
10
66.1254839165
20
94.8294065675
30
0.0000000000
10
66.1286371685
20
94.9472880528
30
0.0000000000
10
66.1297816093
20
95.0072130541
30
0.0000000000
11
66.1297816090
21
91.2578928928
31
0.0000000000
11
66.1251029699
21
91.4364275277
31
0.0000000000
11
66.1186093444
21
91.6091439531
31
0.0000000000
11
66.1114074721
21
91.7796356485
31
0.0000000000
11
66.1047429993
21
91.9532965175
31
0.0000000000
11
66.1002195067
21
92.1394392863
31
0.0000000000
11
66.0996023194
21
92.3554929506
31
0.0000000000
11
66.1039434701
21
92.6225908766
31
0.0000000000
11
66.1099681413
21
92.9521847901
31
0.0000000000
11
66.1101884953
21
93.2939788178
31
0.0000000000
11
66.1043071280
21
93.6252579671
31
0.0000000000
11
66.0997014939
21
93.8979500615
31
0.0000000000
11
66.1001114210
21
94.1183357203
31
0.0000000000
11
66.1045836381
21
94.3069343669
31
0.0000000000
11
66.1112620679
21
94.4820017774
31
0.0000000000
11
66.1185137428
21
94.6536417859
31
0.0000000000
11
66.1250633060
21
94.8274671853
31
0.0000000000
11
66.1297816093
21
95.0072130541
31
0.0000000000
0
SPLINE
5
4BA
100
AcDbEntity
8
0
100
AcDbSpline
62
7
6
CONTINUOUS
70
0
71
3
72
9
73
5
74
3
42
0.0000001000
43
0.0000001000
44
0.0000000001
12
-0.0002723165
22
0.0802787190
32
0.0000000000
13
-0.0015328833
23
0.0802645448
33
0.0000000000
40
0.0000000000
40
0.0000000000
40
0.0000000000
40
0.0000000000
40
0.5004308762
40
1.0000000000
40
1.0000000000
40
1.0000000000
40
1.0000000000
10
66.1306857082
20
91.1776194232
30
0.0000000000
10
66.1306402830
20
91.1910107398
30
0.0000000000
10
66.1304439995
20
91.2177700605
30
0.0000000000
10
66.1300368693
20
91.2445269967
30
0.0000000000
10
66.1297816090
20
91.2578928928
30
0.0000000000
11
66.1306857082
21
91.1776194232
31
0.0000000000
11
66.1303910278
21
91.2177925233
31
0.0000000000
11
66.1297816090
21
91.2578928928
31
0.0000000000
0
SPLINE
5
4BB
100
AcDbEntity
8
0
100
AcDbSpline
62
7
6
CONTINUOUS
70
0
71
3
72
23
73
19
74
17
42
0.0000001000
43
0.0000001000
44
0.0000000001
12
2.0455618722
22
2.1707319555
32
0.0000000000
13
-0.0101176164
23
2.9826662954
33
0.0000000000
40
0.0000000000
40
0.0000000000
40
0.0000000000
40
0.0000000000
40
0.1163505245
40
0.2244919399
40
0.3156966306
40
0.3913008430
40
0.4558468662
40
0.5125095370
40
0.5637751832
40
0.6106391472
40
0.6546245554
40
0.6977552626
40
0.7418729252
40
0.7882648374
40
0.8373335219
40
0.8890051262
40
0.9432453302
40
1.0000000000
40
1.0000000000
40
1.0000000000
40
1.0000000000
10
65.0841431152
20
88.4690273377
30
0.0000000000
10
65.1634771808
20
88.5532159383
30
0.0000000000
10
65.3109035717
20
88.7211160264
30
0.0000000000
10
65.4994472718
20
88.9724584589
30
0.0000000000
10
65.6458837130
20
89.2036115733
30
0.0000000000
10
65.7547358715
20
89.4064340253
30
0.0000000000
10
65.8364143650
20
89.5843766173
30
0.0000000000
10
65.8989860570
20
89.7441113317
30
0.0000000000
10
65.9485143058
20
89.8898732317
30
0.0000000000
10
65.9882648223
20
90.0255008199
30
0.0000000000
10
66.0208804643
20
90.1546820819
30
0.0000000000
10
66.0484108803
20
90.2822453163
30
0.0000000000
10
66.0722119705
20
90.4129884483
30
0.0000000000
10
66.0925855993
20
90.5502826183
30
0.0000000000
10
66.1092799100
20
90.6956369180
30
0.0000000000
10
66.1217289964
20
90.8492482615
30
0.0000000000
10
66.1294066545
20
91.0108226500
30
0.0000000000
10
66.1308771155
20
91.1211926763
30
0.0000000000
10
66.1306857082
20
91.1776194232
30
0.0000000000
11
65.0841431152
21
88.4690273377
31
0.0000000000
11
65.3127077493
21
88.7301647303
31
0.0000000000
11
65.5057704225
21
88.9885565757
31
0.0000000000
11
65.6510959631
21
89.2185204363
31
0.0000000000
11
65.7576754727
21
89.4172479045
31
0.0000000000
11
65.8378911847
21
89.5922608378
31
0.0000000000
11
65.8996701477
21
89.7495715553
31
0.0000000000
11
65.9488444470
21
89.8943579846
31
0.0000000000
11
65.9881931636
21
90.0284856493
31
0.0000000000
11
66.0203411029
21
90.1556804594
31
0.0000000000
11
66.0475283027
21
90.2814200940
31
0.0000000000
11
66.0711159348
21
90.4108777874
31
0.0000000000
11
66.0914621319
21
90.5477461559
31
0.0000000000
11
66.1081925605
21
90.6931431123
31
0.0000000000
11
66.1206875372
21
90.8467558140
31
0.0000000000
11
66.1283880851
21
91.0083538018
31
0.0000000000
11
66.1306857082
21
91.1776194232
31
0.0000000000
0
SPLINE
5
4BC
100
AcDbEntity
8
0
100
AcDbSpline
62
7
6
CONTINUOUS
70
0
71
3
72
9
73
5
74
3
42
0.0000001000
43
0.0000001000
44
0.0000000001
12
0.6246517519
22
0.4027292377
32
0.0000000000
13
0.5738199621
23
0.4723465900
33
0.0000000000
40
0.0000000000
40
0.0000000000
40
0.0000000000
40
0.0000000000
40
0.5068369318
40
1.0000000000
40
1.0000000000
40
1.0000000000
40
1.0000000000
10
64.2352514484
20
87.7802058965
30
0.0000000000
10
64.3407836409
20
87.8482452468
30
0.0000000000
10
64.5451010698
20
87.9886387128
30
0.0000000000
10
64.7409225107
20
88.1406400498
30
0.0000000000
10
64.8352514484
20
88.2182880143
30
0.0000000000
11
64.2352514484
21
87.7802058965
31
0.0000000000
11
64.5457123979
21
87.9935403065
31
0.0000000000
11
64.8352514484
21
88.2182880143
31
0.0000000000
0
SPLINE
5
4BD
100
AcDbEntity
8
0
100
AcDbSpline
62
7
6
CONTINUOUS
70
0
71
3
72
9
73
5
74
3
42
0.0000001000
43
0.0000001000
44
0.0000000001
12
0.5738199904
22
-0.4723466133
32
0.0000000000
13
0.6246517827
23
-0.4027292575
33
0.0000000000
40
0.0000000000
40
0.0000000000
40
0.0000000000
40
0.0000000000
40
0.4959032331
40
1.0000000000
40
1.0000000000
40
1.0000000000
40
1.0000000000
10
55.4352514484
20
88.2182880143
30
0.0000000000
10
55.5301045112
20
88.1402086101
30
0.0000000000
10
55.7259519480
20
87.9882370721
30
0.0000000000
10
55.9302898004
20
87.8478774020
30
0.0000000000
10
56.0352514484
20
87.7802058965
30
0.0000000000
11
55.4352514484
21
88.2182880143
31
0.0000000000
11
55.7264352286
21
87.9923378468
31
0.0000000000
11
56.0352514484
21
87.7802058965
31
0.0000000000
0
SPLINE
5
4BE
100
AcDbEntity
8
0
100
AcDbSpline
62
7
6
CONTINUOUS
70
0
71
3
72
23
73
19
74
17
42
0.0000001000
43
0.0000001000
44
0.0000000001
12
-0.0101179544
22
-2.9827659377
32
0.0000000000
13
2.0456302085
23
-2.1708044734
33
0.0000000000
40
0.0000000000
40
0.0000000000
40
0.0000000000
40
0.0000000000
40
0.0652435175
40
0.1274098972
40
0.1868823390
40
0.2441191138
40
0.2995701973
40
0.3537279777
40
0.4073201714
40
0.4611478454
40
0.5155594017
40
0.5708984724
40
0.6278795687
40
0.6874407525
40
0.7531727962
40
0.8290280304
40
0.9132471341
40
1.0000000000
40
1.0000000000
40
1.0000000000
40
1.0000000000
10
54.1398171887
20
91.1776194232
30
0.0000000000
10
54.1395971450
20
91.1127507093
30
0.0000000000
10
54.1416050043
20
90.9860488853
30
0.0000000000
10
54.1518609614
20
90.8004775480
30
0.0000000000
10
54.1685679935
20
90.6233688745
30
0.0000000000
10
54.1913930673
20
90.4536794140
30
0.0000000000
10
54.2200934547
20
90.2902474853
30
0.0000000000
10
54.2546675244
20
90.1316608407
30
0.0000000000
10
54.2956731800
20
89.9762766478
30
0.0000000000
10
54.3437984770
20
89.8226803635
30
0.0000000000
10
54.3995638852
20
89.6698363792
30
0.0000000000
10
54.4639557310
20
89.5169995893
30
0.0000000000
10
54.5385225029
20
89.3631458243
30
0.0000000000
10
54.6257852071
20
89.2042190821
30
0.0000000000
10
54.7314373661
20
89.0342880269
30
0.0000000000
10
54.8608506411
20
88.8506680834
30
0.0000000000
10
55.0138425357
20
88.6586083862
30
0.0000000000
10
55.1272050206
20
88.5318018409
30
0.0000000000
10
55.1863597816
20
88.4690273377
30
0.0000000000
11
54.1398171887
21
91.1776194232
31
0.0000000000
11
54.1429604871
21
90.9830375488
31
0.0000000000
11
54.1532326782
21
90.7978934650
31
0.0000000000
11
54.1699641905
21
90.6212908804
31
0.0000000000
11
54.1927763301
21
90.4520969312
31
0.0000000000
11
54.2214333183
21
90.2891998506
31
0.0000000000
11
54.2559288147
21
90.1313850001
31
0.0000000000
11
54.2967790666
21
89.9768388165
31
0.0000000000
11
54.3447900923
21
89.8236289628
31
0.0000000000
11
54.4004694437
21
89.6711809107
31
0.0000000000
11
54.4646201231
21
89.5190922481
31
0.0000000000
11
54.5386545647
21
89.3661018294
31
0.0000000000
11
54.6241475651
21
89.2103669757
31
0.0000000000
11
54.7275810669
21
89.0438053626
31
0.0000000000
11
54.8577364897
21
88.8587296416
31
0.0000000000
11
55.0140647444
21
88.6620914104
31
0.0000000000
11
55.1863597816
21
88.4690273377
31
0.0000000000
0
SPLINE
5
4BF
100
AcDbEntity
8
0
100
AcDbSpline
62
9
6
CONTINUOUS
70
0
71
3
72
17
73
13
74
11
42
0.0000001000
43
0.0000001000
44
0.0000000001
12
5.8654318236
22
0.0000000000
32
0.0000000000
13
-5.8654318236
23
0.0000000000
33
0.0000000000
40
0.0000000000
40
0.0000000000
40
0.0000000000
40
0.0000000000
40
0.1000133587
40
0.2000100191
40
0.3000066794
40
0.4000033397
40
0.5000000000
40
0.5999966603
40
0.6999933206
40
0.7999899809
40
0.8999866413
40
1.0000000000
40
1.0000000000
40
1.0000000000
40
1.0000000000
10
67.1352514484
20
91.2572666173
30
0.0000000000
10
67.3307919608
20
91.2572666173
30
0.0000000000
10
67.7244557620
20
91.3203431330
30
0.0000000000
10
68.2553386523
20
91.5906895491
30
0.0000000000
10
68.6770619511
20
92.0123993662
30
0.0000000000
10
68.9477242771
20
92.5436375915
30
0.0000000000
10
69.0410085110
20
93.1325529644
30
0.0000000000
10
68.9477242771
20
93.7214683373
30
0.0000000000
10
68.6770619511
20
94.2527065626
30
0.0000000000
10
68.2553386523
20
94.6744163798
30
0.0000000000
10
67.7244557620
20
94.9447627958
30
0.0000000000
10
67.3307919608
20
95.0078393115
30
0.0000000000
10
67.1352514484
20
95.0078393115
30
0.0000000000
11
67.1352514484
21
91.2572666173
31
0.0000000000
11
67.7145539634
21
91.3496431511
31
0.0000000000
11
68.2371503119
21
91.6159192905
31
0.0000000000
11
68.6518851223
21
92.0306541009
31
0.0000000000
11
68.9181612617
21
92.5532504495
31
0.0000000000
11
69.0099137663
21
93.1325529644
31
0.0000000000
11
68.9181612617
21
93.7118554794
31
0.0000000000
11
68.6518851223
21
94.2344518279
31
0.0000000000
11
68.2371503119
21
94.6491866383
31
0.0000000000
11
67.7145539634
21
94.9154627777
31
0.0000000000
11
67.1352514484
21
95.0078393115
31
0.0000000000
0
SPLINE
5
4C0
100
AcDbEntity
8
0
100
AcDbSpline
62
9
6
CONTINUOUS
70
0
71
3
72
17
73
13
74
11
42
0.0000001000
43
0.0000001000
44
0.0000000001
12
0.0000000000
22
5.8654318236
32
0.0000000000
13
0.0000000000
23
-5.8654318236
33
0.0000000000
40
0.0000000000
40
0.0000000000
40
0.0000000000
40
0.0000000000
40
0.1000133587
40
0.2000100191
40
0.3000066794
40
0.4000033397
40
0.5000000000
40
0.5999966603
40
0.6999933206
40
0.7999899809
40
0.8999866413
40
1.0000000000
40
1.0000000000
40
1.0000000000
40
1.0000000000
10
62.0105377955
20
100.1325529644
30
0.0000000000
10
62.0105377955
20
100.3280934768
30
0.0000000000
10
61.9474612798
20
100.7217572780
30
0.0000000000
10
61.6771148638
20
101.2526401683
30
0.0000000000
10
61.2554050466
20
101.6743634671
30
0.0000000000
10
60.7241668213
20
101.9450257931
30
0.0000000000
10
60.1352514484
20
102.0383100270
30
0.0000000000
10
59.5463360755
20
101.9450257931
30
0.0000000000
10
59.0150978502
20
101.6743634671
30
0.0000000000
10
58.5933880331
20
101.2526401683
30
0.0000000000
10
58.3230416170
20
100.7217572780
30
0.0000000000
10
58.2599651013
20
100.3280934768
30
0.0000000000
10
58.2599651013
20
100.1325529644
30
0.0000000000
11
62.0105377955
21
100.1325529644
31
0.0000000000
11
61.9181612617
21
100.7118554794
31
0.0000000000
11
61.6518851223
21
101.2344518279
31
0.0000000000
11
61.2371503119
21
101.6491866383
31
0.0000000000
11
60.7145539634
21
101.9154627777
31
0.0000000000
11
60.1352514484
21
102.0072152823
31
0.0000000000
11
59.5559489335
21
101.9154627777
31
0.0000000000
11
59.0333525849
21
101.6491866383
31
0.0000000000
11
58.6186177745
21
101.2344518279
31
0.0000000000
11
58.3523416351
21
100.7118554794
31
0.0000000000
11
58.2599651013
21
100.1325529644
31
0.0000000000
0
ENDSEC
0
SECTION
2
OBJECTS
0
DICTIONARY
5
4C1
100
AcDbDictionary
3
ACAD_GROUP
350
4C2
3
ACAD_MLINESTYLE
350
4C3
0
DICTIONARY
5
4C2
102
{ACAD_REACTORS
330
4C1
102
}
100
AcDbDictionary
0
DICTIONARY
5
4C3
102
{ACAD_REACTORS
330
4C1
102
}
100
AcDbDictionary
3
STANDARD
350
4C4
0
MLINESTYLE
5
4C4
102
{ACAD_REACTORS
330
4C3
102
}
100
AcDbMlineStyle
2
STANDARD
70
0
3

62
256
51
90.0
52
90.0
71
2
49
0.5
62
256
6
BYLAYER
49
-0.5
62
256
6
BYLAYER
0
ENDSEC
0
EOF
