999
DXF file: st-htx.dxf
999
Pro/ENGINEER 2019080 by Parametric Technology Corporation
  0
SECTION
  2
HEADER
  9
$ACADVER
  1
AC1018
  9
$DWGCODEPAGE
  3
ANSI_1252
  9
$EXTMAX
 10
210.0
 20
297.0
 30
0.0
  9
$EXTMIN
 10
0.0
 20
0.0
 30
0.0
  9
$LIMMIN
 10
0.0
 20
0.0
  9
$LIMMAX
 10
210.0
 20
297.0
  9
$VIEWCTR
 10
105.0
 20
148.5
  9
$VIEWSIZE
 40
297.0
  9
$CLAYER
  8
0
  9
$LTSCALE
 40
19.36
  9
$CELTYPE
  6
BYLAYER
  9
$DIMSCALE
 40
1.0
  9
$DIMASZ
 40
3.5
  9
$DIMEXO
 40
0.0
  9
$DIMDLI
 40
13.376
  9
$DIMEXE
 40
1.5
  9
$DIMCEN
 40
3.168
  9
$DIMLFAC
 40
1.0
  9
$DIMBLK
  1
_FILLED
  9
$DIMALT
 70
1
  9
$DIMALTD
 70
2
  9
$DIMALTTD
 70
2
  9
$DIMALTF
 40
0.0393700787
  9
$DIMTXT
 40
3.5
  9
$DIMTOL
 70
1
  9
$DIMLIM
 70
0
  9
$DIMTFAC
 40
1.0
  9
$DIMTP
 40
0.005
  9
$DIMTM
 40
0.005
  9
$DIMGAP
 40
0.625
  9
$DIMDSEP
 70
46
  9
$AUNITS
 70
0
  9
$PDMODE
 70
3
  9
$PDSIZE
 40
0.3125
  9
$HANDSEED
  5
479
  9
$TILEMODE
 70
1
  9
$MEASUREMENT
 70
1
  9
$INSUNITS
 70
4
  0
ENDSEC
  0
SECTION
  2
CLASSES
  0
CLASS
  1
ACDBDICTIONARYWDFLT
  2
AcDbDictionaryWithDefault
  3
AutoCAD 2000
 90
0
 91
1
280
0
281
0
  0
CLASS
  1
ACDBPLACEHOLDER
  2
AcDbPlaceHolder
  3
AutoCAD 2000
 90
0
 91
1
280
0
281
0
  0
CLASS
  1
LAYOUT
  2
AcDbLayout
  3
AutoCAD 2000
 90
0
 91
0
280
0
281
0
  0
CLASS
  1
TABLESTYLE
  2
AcDbTableStyle
  3
ObjectDBX Classes
 90
2047
 91
1
280
0
281
0
  0
CLASS
  1
ACAD_TABLE
  2
AcDbTable
  3
ObjectDBX Classes
 90
1025
 91
1
280
0
281
1
  0
ENDSEC
  0
SECTION
  2
TABLES
  0
TABLE
  2
VPORT
  5
8
100
AcDbSymbolTable
 70
2
  0
VPORT
  5
1F4
100
AcDbSymbolTableRecord
100
AcDbViewportTableRecord
  2
*ACTIVE
 70
0
 10
0.0
 20
0.0
 11
1.0
 21
1.0
 12
105.0
 22
148.5
 13
0.0
 23
0.0
 14
1.0
 24
1.0
 15
0.0
 25
0.0
 16
0.0
 26
0.0
 36
1.0
 17
0.0
 27
0.0
 37
0.0
 40
297.0
 41
0.7070707071
 42
50.0
 43
0.0
 44
0.0
 50
0.0
 51
0.0
 71
0
 72
100
 73
1
 74
1
 75
0
 76
0
 77
0
 78
0
  0
ENDTAB
  0
TABLE
  2
LTYPE
  5
5
100
AcDbSymbolTable
 70
6
  0
LTYPE
  5
14
100
AcDbSymbolTableRecord
100
AcDbLinetypeTableRecord
  2
BYBLOCK
 70
0
  3

 72
65
 73
0
 40
0.0
  0
LTYPE
  5
15
100
AcDbSymbolTableRecord
100
AcDbLinetypeTableRecord
  2
BYLAYER
 70
0
  3

 72
65
 73
0
 40
0.0
  0
LTYPE
  5
16
100
AcDbSymbolTableRecord
100
AcDbLinetypeTableRecord
  2
CONTINUOUS
 70
64
  3
Solid line
 72
65
 73
0
 40
0.0
  0
LTYPE
  5
1F5
100
AcDbSymbolTableRecord
100
AcDbLinetypeTableRecord
  2
CENTER
 70
64
  3
____ _ ____ _ ____ _ ____ _ ____ _ ____ _ ____
 72
65
 73
4
 40
0.6
 49
0.375
 74
0
 49
-0.075
 74
0
 49
0.075
 74
0
 49
-0.075
 74
0
  0
LTYPE
  5
1F6
100
AcDbSymbolTableRecord
100
AcDbLinetypeTableRecord
  2
HIDDEN
 70
64
  3
- - - - - - - - - - - - - - - - - - - -
 72
65
 73
2
 40
0.2
 49
0.1
 74
0
 49
-0.1
 74
0
  0
LTYPE
  5
1F7
100
AcDbSymbolTableRecord
100
AcDbLinetypeTableRecord
  2
PHANTOM
 70
64
  3
_____ _ _ _____ _ _ _____ _ _ _____
 72
65
 73
6
 40
0.8
 49
0.45
 74
0
 49
-0.05
 74
0
 49
0.1
 74
0
 49
-0.05
 74
0
 49
0.1
 74
0
 49
-0.05
 74
0
  0
LTYPE
  5
1F8
100
AcDbSymbolTableRecord
100
AcDbLinetypeTableRecord
  2
DOT
 70
64
  3
. . . . . . . . . . . . . . . . . . . .
 72
65
 73
2
 40
0.2
 49
0.1
 74
0
 49
-0.1
 74
0
  0
LTYPE
  5
1F9
100
AcDbSymbolTableRecord
100
AcDbLinetypeTableRecord
  2
DASHED
 70
64
  3
- - - - - - - - - - - - - - - - - - - -
 72
65
 73
2
 40
0.2
 49
0.1
 74
0
 49
-0.1
 74
0
  0
ENDTAB
  0
TABLE
  2
LAYER
  5
2
100
AcDbSymbolTable
 70
36
  0
LAYER
  5
10
100
AcDbSymbolTableRecord
100
AcDbLayerTableRecord
  2
0
 70
0
 62
7
  6
CONTINUOUS
370
-3
390
F
  0
LAYER
  5
1FA
100
AcDbSymbolTableRecord
100
AcDbLayerTableRecord
  2
DEFAULT_1
 70
0
 62
7
  6
CENTER
370
-3
390
F
  0
LAYER
  5
1FB
100
AcDbSymbolTableRecord
100
AcDbLayerTableRecord
  2
DEFAULT_2
 70
0
 62
8
  6
HIDDEN
370
-3
390
F
  0
LAYER
  5
1FC
100
AcDbSymbolTableRecord
100
AcDbLayerTableRecord
  2
DEFAULT_3
 70
0
 62
7
  6
PHANTOM
370
-3
390
F
  0
LAYER
  5
1FD
100
AcDbSymbolTableRecord
100
AcDbLayerTableRecord
  2
BEZUGSACHSEN
 70
0
 62
7
  6
CONTINUOUS
370
-3
390
F
  0
LAYER
  5
1FE
100
AcDbSymbolTableRecord
100
AcDbLayerTableRecord
  2
BEZUGSEBENEN
 70
0
 62
7
  6
CONTINUOUS
370
-3
390
F
  0
LAYER
  5
1FF
100
AcDbSymbolTableRecord
100
AcDbLayerTableRecord
  2
BOHRUNGEN
 70
0
 62
7
  6
CONTINUOUS
370
-3
390
F
  0
LAYER
  5
200
100
AcDbSymbolTableRecord
100
AcDbLayerTableRecord
  2
FASEN
 70
0
 62
7
  6
CONTINUOUS
370
-3
390
F
  0
LAYER
  5
201
100
AcDbSymbolTableRecord
100
AcDbLayerTableRecord
  2
GEWINDE
 70
0
 62
7
  6
CONTINUOUS
370
-3
390
F
  0
LAYER
  5
202
100
AcDbSymbolTableRecord
100
AcDbLayerTableRecord
  2
HILFEN
 70
0
 62
7
  6
CONTINUOUS
370
-3
390
F
  0
LAYER
  5
203
100
AcDbSymbolTableRecord
100
AcDbLayerTableRecord
  2
KURVEN
 70
0
 62
7
  6
CONTINUOUS
370
-3
390
F
  0
LAYER
  5
204
100
AcDbSymbolTableRecord
100
AcDbLayerTableRecord
  2
PLAZIERUNG
 70
0
 62
7
  6
CONTINUOUS
370
-3
390
F
  0
LAYER
  5
205
100
AcDbSymbolTableRecord
100
AcDbLayerTableRecord
  2
RUNDUNGEN
 70
0
 62
7
  6
CONTINUOUS
370
-3
390
F
  0
LAYER
  5
206
100
AcDbSymbolTableRecord
100
AcDbLayerTableRecord
  2
TEIL_STARTBEZUEGE
 70
0
 62
7
  6
CONTINUOUS
370
-3
390
F
  0
LAYER
  5
207
100
AcDbSymbolTableRecord
100
AcDbLayerTableRecord
  2
XSEC_DATUMS
 70
0
 62
7
  6
CONTINUOUS
370
-3
390
F
  0
LAYER
  5
208
100
AcDbSymbolTableRecord
100
AcDbLayerTableRecord
  2
ZEICHNUNGSBEMASSUNGEN
 70
0
 62
7
  6
CONTINUOUS
370
-3
390
F
  0
ENDTAB
  0
TABLE
  2
STYLE
  5
3
100
AcDbSymbolTable
 70
1
  0
STYLE
  5
11
100
AcDbSymbolTableRecord
100
AcDbTextStyleTableRecord
  2
STANDARD
 70
0
 40
0.0
 41
0.7
 50
0.0
 71
0
 42
0.2
  3
txt
  4

  0
STYLE
  5
209
100
AcDbSymbolTableRecord
100
AcDbTextStyleTableRecord
  2
TEXTSTYLE_1
 70
0
 40
0.0
 41
0.8
 50
0.0
 71
0
 42
0.2
  3
gdt
  4

  0
STYLE
  5
20A
100
AcDbSymbolTableRecord
100
AcDbTextStyleTableRecord
  2
TEXTSTYLE_2
 70
0
 40
0.0
 41
0.7
 50
0.0
 71
0
 42
0.2
  3
gdt
  4

  0
STYLE
  5
20B
100
AcDbSymbolTableRecord
100
AcDbTextStyleTableRecord
  2
TEXTSTYLE_3
 70
0
 40
0.0
 41
0.8
 50
0.0
 71
0
 42
0.2
  3
txt
  4

  0
STYLE
  5
20C
100
AcDbSymbolTableRecord
100
AcDbTextStyleTableRecord
  2
TEXTSTYLE_4
 70
0
 40
0.0
 41
1.0
 50
0.0
 71
0
 42
0.2
  3
trium.ttf
  4

  0
ENDTAB
  0
TABLE
  2
VIEW
  5
6
100
AcDbSymbolTable
 70
0
  0
ENDTAB
  0
TABLE
  2
UCS
  5
7
100
AcDbSymbolTable
 70
0
  0
ENDTAB
  0
TABLE
  2
APPID
  5
9
100
AcDbSymbolTable
 70
1
  0
APPID
  5
20D
100
AcDbSymbolTableRecord
100
AcDbRegAppTableRecord
  2
ACAD
 70
0
  0
ENDTAB
  0
TABLE
  2
BLOCK_RECORD
  5
1
100
AcDbSymbolTable
 70
0
  0
BLOCK_RECORD
  5
20E
100
AcDbSymbolTableRecord
100
AcDbBlockTableRecord
  2
*Model_Space
  0
BLOCK_RECORD
  5
20F
100
AcDbSymbolTableRecord
100
AcDbBlockTableRecord
  2
*Paper_Space
  0
BLOCK_RECORD
  5
210
100
AcDbSymbolTableRecord
100
AcDbBlockTableRecord
  2
_FILLED
  0
BLOCK_RECORD
  5
211
100
AcDbSymbolTableRecord
100
AcDbBlockTableRecord
  2
*D0
  0
BLOCK_RECORD
  5
212
100
AcDbSymbolTableRecord
100
AcDbBlockTableRecord
  2
*D1
  0
BLOCK_RECORD
  5
213
100
AcDbSymbolTableRecord
100
AcDbBlockTableRecord
  2
NEUTRIK_LOGO_BL0
  0
BLOCK_RECORD
  5
214
100
AcDbSymbolTableRecord
100
AcDbBlockTableRecord
  2
*T1
  0
ENDTAB
  0
TABLE
  2
DIMSTYLE
  5
A
100
AcDbSymbolTable
 70
1
100
AcDbDimStyleTable
 71
0
  0
DIMSTYLE
105
215
100
AcDbSymbolTableRecord
100
AcDbDimStyleTableRecord
  2
STANDARD
 70
0
  3

  4

 40
1.0
 41
3.5
 42
0.0
 43
0.38
 44
1.5
 45
0.0
 46
0.0
 47
0.005
 48
0.005
140
3.5
141
0.09
142
0.0
143
0.0393700787
144
1.0
145
0.0
146
1.0
147
0.625
 71
1.0
 72
0.0
 73
0
 74
0
 75
0
 76
0
 77
1
 78
8
 79
2
170
1
171
2
172
0
173
0
174
0
175
0
176
0
177
0
178
5
270
2
179
3
271
3
272
3
273
2
274
2
275
0
280
0
281
0
282
0
283
1
284
8
285
0
286
0
287
3
288
0
340
11
278
46
341
210
342
210
343
210
344
210
  0
DIMSTYLE
105
216
100
AcDbSymbolTableRecord
100
AcDbDimStyleTableRecord
  2
DIMSTYLE_1
 70
0
  3

  4

 40
1.0
 41
3.5
 42
0.0
 43
0.38
 44
1.5
 45
0.0
 46
0.0
 47
0.3
 48
0.3
140
3.5
141
0.09
142
0.0
143
0.0393700787
144
1.0
145
0.0
146
1.0
147
0.875
 71
0.0
 72
0.0
 73
0
 74
0
 75
0
 76
0
 77
1
 78
8
 79
2
170
1
171
2
172
0
173
0
174
0
175
0
176
0
177
0
178
5
270
2
179
3
271
3
272
3
273
2
274
-14
275
0
280
0
281
0
282
0
283
1
284
8
285
0
286
0
287
3
288
0
340
11
278
46
341
210
342
210
343
210
344
210
  0
ENDTAB
  0
ENDSEC
  0
SECTION
  2
BLOCKS
  0
BLOCK
  5
20
100
AcDbEntity
  8
0
100
AcDbBlockBegin
  2
*Model_Space
 70
0
 10
0.0
 20
0.0
 30
0.0
  3
*Model_Space
  1

  0
ENDBLK
  5
21
100
AcDbEntity
  8
0
100
AcDbBlockEnd
  0
BLOCK
  5
1C
100
AcDbEntity
  8
0
100
AcDbBlockBegin
  2
*Paper_Space
 70
0
 10
0.0
 20
0.0
 30
0.0
  3
*Paper_Space
  1

  0
ENDBLK
  5
1D
100
AcDbEntity
  8
0
100
AcDbBlockEnd
  0
BLOCK
  5
217
100
AcDbEntity
  8
0
100
AcDbBlockBegin
 62
2
  6
CONTINUOUS
  2
NEUTRIK_LOGO_BL0
 70
64
 10
98.0245925022
 20
9.2066660654
  3
NEUTRIK_LOGO_BL0
  1

  0
LINE
  5
218
100
AcDbEntity
  8
0
100
AcDbLine
 62
2
  6
CONTINUOUS
 10
77.5544360471
 20
8.0329859648
 11
75.0539855722
 21
9.5420032339
  0
LINE
  5
219
100
AcDbEntity
  8
0
100
AcDbLine
 62
2
  6
CONTINUOUS
 10
75.2018073047
 20
10.3803457168
 11
77.7022587796
 21
8.8713284476
  0
LINE
  5
21A
100
AcDbEntity
  8
0
100
AcDbLine
 62
2
  6
CONTINUOUS
 10
107.6509415813
 20
8.0329859648
 11
106.0530264731
 21
8.9551632959
  0
LINE
  5
21B
100
AcDbEntity
  8
0
100
AcDbLine
 62
2
  6
CONTINUOUS
 10
97.3194792782
 20
8.8713284476
 11
98.5968389666
 21
8.0329859648
  0
LINE
  5
21C
100
AcDbEntity
  8
0
100
AcDbLine
 62
2
  6
CONTINUOUS
 10
100.5250274771
 20
8.0329859648
 11
99.2476677888
 21
8.8713284476
  0
LINE
  5
21D
100
AcDbEntity
  8
0
100
AcDbLine
 62
2
  6
CONTINUOUS
 10
107.8554912111
 20
9.2904996891
 11
109.7467977884
 21
8.0329859648
  0
LINE
  5
21E
100
AcDbEntity
  8
0
100
AcDbLine
 62
2
  6
CONTINUOUS
 10
115.1413990258
 20
10.1843850714
 11
115.471200429
 21
8.8651804588
  0
LINE
  5
21F
100
AcDbEntity
  8
0
100
AcDbLine
 62
2
  6
CONTINUOUS
 10
115.5621982643
 20
8.5011891175
 11
115.6792490525
 21
8.0329859648
  0
LINE
  5
220
100
AcDbEntity
  8
0
100
AcDbLine
 62
2
  6
CONTINUOUS
 10
116.611688365
 20
10.3803457168
 11
117.198528303
 21
8.0329859648
  0
LINE
  5
221
100
AcDbEntity
  8
0
100
AcDbLine
 62
2
  6
CONTINUOUS
 10
73.1950539363
 20
8.0329859648
 11
73.6089561873
 21
10.3803457168
  0
LINE
  5
222
100
AcDbEntity
  8
0
100
AcDbLine
 62
2
  6
CONTINUOUS
 10
75.0539855722
 20
9.5420032339
 11
74.7879050537
 21
8.0329859648
  0
LINE
  5
223
100
AcDbEntity
  8
0
100
AcDbLine
 62
2
  6
CONTINUOUS
 10
77.7022587796
 20
8.8713284476
 11
77.9683382981
 21
10.3803457168
  0
LINE
  5
224
100
AcDbEntity
  8
0
100
AcDbLine
 62
2
  6
CONTINUOUS
 10
79.5611904155
 20
10.3803457168
 11
79.1472871645
 21
8.0329859648
  0
LINE
  5
225
100
AcDbEntity
  8
0
100
AcDbLine
 62
2
  6
CONTINUOUS
 10
80.4048008888
 20
8.0329859648
 11
80.8187041397
 21
10.3803457168
  0
LINE
  5
226
100
AcDbEntity
  8
0
100
AcDbLine
 62
2
  6
CONTINUOUS
 10
82.2390275694
 20
9.8773396271
 11
82.1651167031
 21
9.4581683856
  0
LINE
  5
227
100
AcDbEntity
  8
0
100
AcDbLine
 62
2
  6
CONTINUOUS
 10
82.0764228636
 20
8.9551632959
 11
82.0025119974
 21
8.5359920545
  0
LINE
  5
228
100
AcDbEntity
  8
0
100
AcDbLine
 62
2
  6
CONTINUOUS
 10
84.3448077585
 20
9.4581683856
 11
84.256113919
 21
8.9551632959
  0
LINE
  5
229
100
AcDbEntity
  8
0
100
AcDbLine
 62
2
  6
CONTINUOUS
 10
85.010417554
 20
10.3803457168
 11
84.9217247145
 21
9.8773396271
  0
LINE
  5
22A
100
AcDbEntity
  8
0
100
AcDbLine
 62
2
  6
CONTINUOUS
 10
84.6852081425
 20
8.5359920545
 11
84.596515303
 21
8.0329859648
  0
LINE
  5
22B
100
AcDbEntity
  8
0
100
AcDbLine
 62
2
  6
CONTINUOUS
 10
85.5789415251
 20
8.850126486
 11
85.8487610368
 21
10.3803457168
  0
LINE
  5
22C
100
AcDbEntity
  8
0
100
AcDbLine
 62
2
  6
CONTINUOUS
 10
87.357777306
 20
10.3803457168
 11
87.1119527508
 21
8.9862012398
  0
LINE
  5
22D
100
AcDbEntity
  8
0
100
AcDbLine
 62
2
  6
CONTINUOUS
 10
88.9423444384
 20
8.907020383
 11
89.2021319682
 21
10.3803457168
  0
LINE
  5
22E
100
AcDbEntity
  8
0
100
AcDbLine
 62
2
  6
CONTINUOUS
 10
90.7111492373
 20
10.3803457168
 11
90.4145627741
 21
8.6983237607
  0
LINE
  5
22F
100
AcDbEntity
  8
0
100
AcDbLine
 62
2
  6
CONTINUOUS
 10
91.1945133626
 20
9.7935057788
 11
91.2979891753
 21
10.3803457168
  0
LINE
  5
230
100
AcDbEntity
  8
0
100
AcDbLine
 62
2
  6
CONTINUOUS
 10
92.0577658004
 20
8.0329859648
 11
92.3681932386
 21
9.7935057788
  0
LINE
  5
231
100
AcDbEntity
  8
0
100
AcDbLine
 62
2
  6
CONTINUOUS
 10
94.0448782043
 20
9.7935057788
 11
93.7344517661
 21
8.0329859648
  0
LINE
  5
232
100
AcDbEntity
  8
0
100
AcDbLine
 62
2
  6
CONTINUOUS
 10
95.322033893
 20
10.3803457168
 11
95.2185580803
 21
9.7935057788
  0
LINE
  5
233
100
AcDbEntity
  8
0
100
AcDbLine
 62
2
  6
CONTINUOUS
 10
95.908873831
 20
10.3803457168
 11
95.49497158
 21
8.0329859648
  0
LINE
  5
234
100
AcDbEntity
  8
0
100
AcDbLine
 62
2
  6
CONTINUOUS
 10
97.1716565457
 20
8.0329859648
 11
97.3194792782
 21
8.8713284476
  0
LINE
  5
235
100
AcDbEntity
  8
0
100
AcDbLine
 62
2
  6
CONTINUOUS
 10
97.4081721177
 20
9.3743345373
 11
97.5116479304
 21
9.9611744753
  0
LINE
  5
236
100
AcDbEntity
  8
0
100
AcDbLine
 62
2
  6
CONTINUOUS
 10
101.1957022634
 20
8.0329859648
 11
101.6096045144
 21
10.3803457168
  0
LINE
  5
237
100
AcDbEntity
  8
0
100
AcDbLine
 62
2
  6
CONTINUOUS
 10
103.28629048
 20
10.3803457168
 11
102.8723872291
 21
8.0329859648
  0
LINE
  5
238
100
AcDbEntity
  8
0
100
AcDbLine
 62
2
  6
CONTINUOUS
 10
104.2137358016
 20
8.0329859648
 11
104.6276390526
 21
10.3803457168
  0
LINE
  5
239
100
AcDbEntity
  8
0
100
AcDbLine
 62
2
  6
CONTINUOUS
 10
106.3043240183
 20
10.3803457168
 11
106.1121553661
 21
9.2904996891
  0
LINE
  5
23A
100
AcDbEntity
  8
0
100
AcDbLine
 62
2
  6
CONTINUOUS
 10
106.0530264731
 20
8.9551632959
 11
105.8904217673
 21
8.0329859648
  0
LINE
  5
23B
100
AcDbEntity
  8
0
100
AcDbLine
 62
2
  6
CONTINUOUS
 10
117.8923160475
 20
8.5313940628
 11
118.1405795982
 21
9.9393685148
  0
LINE
  5
23C
100
AcDbEntity
  8
0
100
AcDbLine
 62
2
  6
CONTINUOUS
 10
119.4637212037
 20
8.8526434815
 11
119.6196779214
 21
9.7371138808
  0
LINE
  5
23D
100
AcDbEntity
  8
0
100
AcDbLine
 62
2
  6
CONTINUOUS
 10
120.5561772267
 20
8.8812524297
 11
120.5944831573
 21
9.0984910365
  0
LINE
  5
23E
100
AcDbEntity
  8
0
100
AcDbLine
 62
2
  6
CONTINUOUS
 10
121.0125094008
 20
8.0329859648
 11
121.017391392
 21
8.0606719147
  0
LINE
  5
23F
100
AcDbEntity
  8
0
100
AcDbLine
 62
2
  6
CONTINUOUS
 10
121.1430231646
 20
8.7731656253
 11
121.1620821301
 21
8.8812524297
  0
LINE
  5
240
100
AcDbEntity
  8
0
100
AcDbLine
 62
2
  6
CONTINUOUS
 10
122.5272706596
 20
8.0329859648
 11
122.7151483196
 21
9.0984910365
  0
LINE
  5
241
100
AcDbEntity
  8
0
100
AcDbLine
 62
2
  6
CONTINUOUS
 10
122.8291061133
 20
9.7447798669
 11
122.854131068
 21
9.8867056101
  0
LINE
  5
242
100
AcDbEntity
  8
0
100
AcDbLine
 62
2
  6
CONTINUOUS
 10
109.7467977884
 20
8.0329859648
 11
107.6509415813
 21
8.0329859648
  0
LINE
  5
243
100
AcDbEntity
  8
0
100
AcDbLine
 62
2
  6
CONTINUOUS
 10
73.1950539363
 20
8.0329859648
 11
74.7879050537
 21
8.0329859648
  0
LINE
  5
244
100
AcDbEntity
  8
0
100
AcDbLine
 62
2
  6
CONTINUOUS
 10
105.8904217673
 20
8.0329859648
 11
104.2137358016
 21
8.0329859648
  0
LINE
  5
245
100
AcDbEntity
  8
0
100
AcDbLine
 62
2
  6
CONTINUOUS
 10
102.8723872291
 20
8.0329859648
 11
101.1957022634
 21
8.0329859648
  0
LINE
  5
246
100
AcDbEntity
  8
0
100
AcDbLine
 62
2
  6
CONTINUOUS
 10
93.7344517661
 20
8.0329859648
 11
92.0577658004
 21
8.0329859648
  0
LINE
  5
247
100
AcDbEntity
  8
0
100
AcDbLine
 62
2
  6
CONTINUOUS
 10
95.49497158
 20
8.0329859648
 11
97.1716565457
 21
8.0329859648
  0
LINE
  5
248
100
AcDbEntity
  8
0
100
AcDbLine
 62
2
  6
CONTINUOUS
 10
84.596515303
 20
8.0329859648
 11
80.4048008888
 21
8.0329859648
  0
LINE
  5
249
100
AcDbEntity
  8
0
100
AcDbLine
 62
2
  6
CONTINUOUS
 10
98.5968389666
 20
8.0329859648
 11
100.5250274771
 21
8.0329859648
  0
LINE
  5
24A
100
AcDbEntity
  8
0
100
AcDbLine
 62
2
  6
CONTINUOUS
 10
79.1472871645
 20
8.0329859648
 11
77.5544360471
 21
8.0329859648
  0
LINE
  5
24B
100
AcDbEntity
  8
0
100
AcDbLine
 62
2
  6
CONTINUOUS
 10
111.8930159044
 20
8.0329859648
 11
113.5278499458
 21
8.0329859648
  0
LINE
  5
24C
100
AcDbEntity
  8
0
100
AcDbLine
 62
2
  6
CONTINUOUS
 10
115.6792490525
 20
8.0329859648
 11
117.198528303
 21
8.0329859648
  0
LINE
  5
24D
100
AcDbEntity
  8
0
100
AcDbLine
 62
2
  6
CONTINUOUS
 10
121.0125094008
 20
8.0329859648
 11
122.5272706596
 21
8.0329859648
  0
LINE
  5
24E
100
AcDbEntity
  8
0
100
AcDbLine
 62
2
  6
CONTINUOUS
 10
113.8790013104
 20
8.5011891175
 11
115.5621982643
 21
8.5011891175
  0
LINE
  5
24F
100
AcDbEntity
  8
0
100
AcDbLine
 62
2
  6
CONTINUOUS
 10
82.0025119974
 20
8.5359920545
 11
84.6852081425
 21
8.5359920545
  0
LINE
  5
250
100
AcDbEntity
  8
0
100
AcDbLine
 62
2
  6
CONTINUOUS
 10
114.1519948163
 20
8.8651804588
 11
115.471200429
 21
8.8651804588
  0
LINE
  5
251
100
AcDbEntity
  8
0
100
AcDbLine
 62
2
  6
CONTINUOUS
 10
120.5561772267
 20
8.8812524297
 11
121.1620821301
 21
8.8812524297
  0
LINE
  5
252
100
AcDbEntity
  8
0
100
AcDbLine
 62
2
  6
CONTINUOUS
 10
84.256113919
 20
8.9551632959
 11
82.0764228636
 21
8.9551632959
  0
LINE
  5
253
100
AcDbEntity
  8
0
100
AcDbLine
 62
2
  6
CONTINUOUS
 10
120.5944831573
 20
9.0984910365
 11
122.7151483196
 21
9.0984910365
  0
LINE
  5
254
100
AcDbEntity
  8
0
100
AcDbLine
 62
2
  6
CONTINUOUS
 10
98.4693321973
 20
9.3743345373
 11
97.4081721177
 21
9.3743345373
  0
LINE
  5
255
100
AcDbEntity
  8
0
100
AcDbLine
 62
2
  6
CONTINUOUS
 10
82.1651167031
 20
9.4581683856
 11
84.3448077585
 21
9.4581683856
  0
LINE
  5
256
100
AcDbEntity
  8
0
100
AcDbLine
 62
2
  6
CONTINUOUS
 10
121.2929528933
 20
9.7447798669
 11
122.8291061133
 21
9.7447798669
  0
LINE
  5
257
100
AcDbEntity
  8
0
100
AcDbLine
 62
2
  6
CONTINUOUS
 10
95.2185580803
 20
9.7935057788
 11
94.0448782043
 21
9.7935057788
  0
LINE
  5
258
100
AcDbEntity
  8
0
100
AcDbLine
 62
2
  6
CONTINUOUS
 10
92.3681932386
 20
9.7935057788
 11
91.1945133626
 21
9.7935057788
  0
LINE
  5
259
100
AcDbEntity
  8
0
100
AcDbLine
 62
2
  6
CONTINUOUS
 10
84.9217247145
 20
9.8773396271
 11
82.2390275694
 21
9.8773396271
  0
LINE
  5
25A
100
AcDbEntity
  8
0
100
AcDbLine
 62
2
  6
CONTINUOUS
 10
97.5116479304
 20
9.9611744753
 11
98.7657596609
 21
9.9611744753
  0
LINE
  5
25B
100
AcDbEntity
  8
0
100
AcDbLine
 62
2
  6
CONTINUOUS
 10
73.6089561873
 20
10.3803457168
 11
75.2018073047
 21
10.3803457168
  0
LINE
  5
25C
100
AcDbEntity
  8
0
100
AcDbLine
 62
2
  6
CONTINUOUS
 10
77.9683382981
 20
10.3803457168
 11
79.5611904155
 21
10.3803457168
  0
LINE
  5
25D
100
AcDbEntity
  8
0
100
AcDbLine
 62
2
  6
CONTINUOUS
 10
80.8187041397
 20
10.3803457168
 11
85.010417554
 21
10.3803457168
  0
LINE
  5
25E
100
AcDbEntity
  8
0
100
AcDbLine
 62
2
  6
CONTINUOUS
 10
99.0107422175
 20
10.3803457168
 11
95.908873831
 21
10.3803457168
  0
LINE
  5
25F
100
AcDbEntity
  8
0
100
AcDbLine
 62
2
  6
CONTINUOUS
 10
85.8487610368
 20
10.3803457168
 11
87.357777306
 21
10.3803457168
  0
LINE
  5
260
100
AcDbEntity
  8
0
100
AcDbLine
 62
2
  6
CONTINUOUS
 10
89.2021319682
 20
10.3803457168
 11
90.7111492373
 21
10.3803457168
  0
LINE
  5
261
100
AcDbEntity
  8
0
100
AcDbLine
 62
2
  6
CONTINUOUS
 10
91.2979891753
 20
10.3803457168
 11
95.322033893
 21
10.3803457168
  0
LINE
  5
262
100
AcDbEntity
  8
0
100
AcDbLine
 62
2
  6
CONTINUOUS
 10
101.6096045144
 20
10.3803457168
 11
103.28629048
 21
10.3803457168
  0
LINE
  5
263
100
AcDbEntity
  8
0
100
AcDbLine
 62
2
  6
CONTINUOUS
 10
104.6276390526
 20
10.3803457168
 11
106.3043240183
 21
10.3803457168
  0
LINE
  5
264
100
AcDbEntity
  8
0
100
AcDbLine
 62
2
  6
CONTINUOUS
 10
108.0476608634
 20
10.3803457168
 11
110.1607010394
 21
10.3803457168
  0
LINE
  5
265
100
AcDbEntity
  8
0
100
AcDbLine
 62
2
  6
CONTINUOUS
 10
113.6535357184
 20
10.3803457168
 11
116.611688365
 21
10.3803457168
  0
LINE
  5
266
100
AcDbEntity
  8
0
100
AcDbLine
 62
2
  6
CONTINUOUS
 10
111.8930159044
 20
8.0329859648
 11
113.6535357184
 21
10.3803457168
  0
LINE
  5
267
100
AcDbEntity
  8
0
100
AcDbLine
 62
2
  6
CONTINUOUS
 10
113.5278499458
 20
8.0329859648
 11
113.8790013104
 21
8.5011891175
  0
LINE
  5
268
100
AcDbEntity
  8
0
100
AcDbLine
 62
2
  6
CONTINUOUS
 10
114.1519948163
 20
8.8651804588
 11
115.1413990258
 21
10.1843850714
  0
LINE
  5
269
100
AcDbEntity
  8
0
100
AcDbLine
 62
2
  6
CONTINUOUS
 10
106.1121553661
 20
9.2904996891
 11
108.0476608634
 21
10.3803457168
  0
LINE
  5
26A
100
AcDbEntity
  8
0
100
AcDbLine
 62
2
  6
CONTINUOUS
 10
110.1607010394
 20
10.3803457168
 11
107.8554912111
 21
9.2904996891
  0
ARC
  5
26B
100
AcDbEntity
  8
0
100
AcDbCircle
 62
2
  6
CONTINUOUS
 10
87.4421951532
 20
8.9279703451
 40
0.335336967
100
AcDbArc
 50
169.9999581174
 51
257.3876854477
  0
ARC
  5
26C
100
AcDbEntity
  8
0
100
AcDbCircle
 62
2
  6
CONTINUOUS
 10
87.9547452256
 20
11.2186881996
 40
2.6826964808
100
AcDbArc
 50
257.3877479741
 51
286.262665946
  0
ARC
  5
26D
100
AcDbEntity
  8
0
100
AcDbCircle
 62
2
  6
CONTINUOUS
 10
88.612102036
 20
8.9652512777
 40
0.3353371135
100
AcDbArc
 50
286.2627744417
 51
349.9999581174
  0
ARC
  5
26E
100
AcDbEntity
  8
0
100
AcDbCircle
 62
2
  6
CONTINUOUS
 10
89.9191986705
 20
8.7856696027
 40
0.5030061094
100
AcDbArc
 50
284.4613069912
 51
350.0000240953
  0
ARC
  5
26F
100
AcDbEntity
  8
0
100
AcDbCircle
 62
2
  6
CONTINUOUS
 10
87.9512572319
 20
16.4164137933
 40
8.3834278607
100
AcDbArc
 50
256.2209051549
 51
284.4612653568
  0
ARC
  5
270
100
AcDbEntity
  8
0
100
AcDbCircle
 62
2
  6
CONTINUOUS
 10
86.0743056287
 20
8.7627806441
 40
0.503005856
100
AcDbArc
 50
170.0000240953
 51
256.2208762229
  0
ARC
  5
271
100
AcDbEntity
  8
0
100
AcDbCircle
 62
2
  6
CONTINUOUS
 10
99.5460702487
 20
10.1920990574
 40
1.3167024847
100
AcDbArc
 50
270.8139664646
 51
287.332045501
  0
ARC
  5
272
100
AcDbEntity
  8
0
100
AcDbCircle
 62
2
  6
CONTINUOUS
 10
99.6328970916
 20
9.9138785609
 40
1.025248295
100
AcDbArc
 50
287.332041554
 51
306.9952583027
  0
ARC
  5
273
100
AcDbEntity
  8
0
100
AcDbCircle
 62
2
  6
CONTINUOUS
 10
99.765875851
 20
9.7373788803
 40
0.8042604703
100
AcDbArc
 50
306.9952804959
 51
331.1991469186
  0
ARC
  5
274
100
AcDbEntity
  8
0
100
AcDbCircle
 62
2
  6
CONTINUOUS
 10
99.9698034819
 20
9.6252650832
 40
0.5715468569
100
AcDbArc
 50
331.1991187457
 51
28.8007934081
  0
ARC
  5
275
100
AcDbEntity
  8
0
100
AcDbCircle
 62
2
  6
CONTINUOUS
 10
99.765875851
 20
9.5131502861
 40
0.8042612359
100
AcDbArc
 50
28.8008530814
 51
53.0047195041
  0
ARC
  5
276
100
AcDbEntity
  8
0
100
AcDbCircle
 62
2
  6
CONTINUOUS
 10
99.6328970916
 20
9.3366506055
 40
1.0252479986
100
AcDbArc
 50
53.0047416973
 51
72.667958446
  0
ARC
  5
277
100
AcDbEntity
  8
0
100
AcDbCircle
 62
2
  6
CONTINUOUS
 10
99.5460702487
 20
9.058430109
 40
1.3167024858
100
AcDbArc
 50
72.667954499
 51
88.2637233921
  0
ARC
  5
278
100
AcDbEntity
  8
0
100
AcDbCircle
 62
2
  6
CONTINUOUS
 10
99.1751869199
 20
-1.8011792383
 40
12.1826353158
100
AcDbArc
 50
88.0677150838
 51
90.7734183662
  0
ARC
  5
279
100
AcDbEntity
  8
0
100
AcDbCircle
 62
2
  6
CONTINUOUS
 10
97.8450613271
 20
126.7276131626
 40
117.8646306221
100
AcDbArc
 50
270.6818443076
 51
270.8360085966
  0
ARC
  5
27A
100
AcDbEntity
  8
0
100
AcDbCircle
 62
2
  6
CONTINUOUS
 10
98.7233307377
 20
9.4400284185
 40
0.5228699142
100
AcDbArc
 50
74.2117758502
 51
85.3455498836
  0
ARC
  5
27B
100
AcDbEntity
  8
0
100
AcDbCircle
 62
2
  6
CONTINUOUS
 10
98.7726766484
 20
9.6145531026
 40
0.3415029724
100
AcDbArc
 50
49.80595642
 51
74.2116374161
  0
ARC
  5
27C
100
AcDbEntity
  8
0
100
AcDbCircle
 62
2
  6
CONTINUOUS
 10
98.8829964487
 20
9.7451268663
 40
0.1705654939
100
AcDbArc
 50
340.1939680669
 51
49.8058745946
  0
ARC
  5
27D
100
AcDbEntity
  8
0
100
AcDbCircle
 62
2
  6
CONTINUOUS
 10
98.7221697398
 20
9.8030467615
 40
0.3415041793
100
AcDbArc
 50
315.7883508031
 51
340.1940327095
  0
ARC
  5
27E
100
AcDbEntity
  8
0
100
AcDbCircle
 62
2
  6
CONTINUOUS
 10
98.592172975
 20
9.9295155326
 40
0.5228695114
100
AcDbArc
 50
298.8638229053
 51
315.7882717965
  0
ARC
  5
27F
100
AcDbEntity
  8
0
100
AcDbCircle
 62
2
  6
CONTINUOUS
 10
98.4693321973
 20
10.1523731293
 40
0.777340892
100
AcDbArc
 50
285.0000006491
 51
298.8638426666
  0
ARC
  5
280
100
AcDbEntity
  8
0
100
AcDbCircle
 62
2
  6
CONTINUOUS
 10
98.4666332022
 20
10.1523751293
 40
0.7780452733
100
AcDbArc
 50
270.1987562222
 51
285.191946156
  0
ARC
  5
281
100
AcDbEntity
  8
0
100
AcDbCircle
 62
2
  6
CONTINUOUS
 10
120.6619260353
 20
-2.9792851063
 40
13.3596308353
100
AcDbArc
 50
81.6598945895
 51
99.8027888696
  0
ARC
  5
282
100
AcDbEntity
  8
0
100
AcDbCircle
 62
2
  6
CONTINUOUS
 10
120.1292479993
 20
21.3907487912
 40
13.3596309136
100
AcDbArc
 50
261.4614728694
 51
273.8118136955
  0
ARC
  5
283
100
AcDbEntity
  8
0
100
AcDbCircle
 62
2
  6
CONTINUOUS
 10
118.4389290582
 20
9.88676061
 40
0.302952678
100
AcDbArc
 50
99.8027796749
 51
169.9998425607
  0
ARC
  5
284
100
AcDbEntity
  8
0
100
AcDbCircle
 62
2
  6
CONTINUOUS
 10
118.1906655075
 20
8.478787158
 40
0.3029519545
100
AcDbArc
 50
170.000028812
 51
261.4614258048
  0
ARC
  5
285
100
AcDbEntity
  8
0
100
AcDbCircle
 62
2
  6
CONTINUOUS
 10
122.555781608
 20
9.9393125149
 40
0.3029519545
100
AcDbArc
 50
350.000028812
 51
81.6598857953
  0
ARC
  5
286
100
AcDbEntity
  8
0
100
AcDbCircle
 62
2
  6
CONTINUOUS
 10
120.4567834065
 20
6.5595326313
 40
3.4740280808
100
AcDbArc
 50
80.2083456985
 51
99.7818280968
  0
ARC
  5
287
100
AcDbEntity
  8
0
100
AcDbCircle
 62
2
  6
CONTINUOUS
 10
120.2291178185
 20
11.9365299005
 40
3.4740282835
100
AcDbArc
 50
261.5304821195
 51
281.1930777907
  0
ARC
  5
288
100
AcDbEntity
  8
0
100
AcDbCircle
 62
2
  6
CONTINUOUS
 10
119.9180273815
 20
9.684506976
 40
0.3029528628
100
AcDbArc
 50
99.7818543358
 51
170.000028812
  0
ARC
  5
289
100
AcDbEntity
  8
0
100
AcDbCircle
 62
2
  6
CONTINUOUS
 10
120.9960754306
 20
9.6844149762
 40
0.3029523856
100
AcDbArc
 50
11.4934186918
 51
80.2083192078
  0
ARC
  5
28A
100
AcDbEntity
  8
0
100
AcDbCircle
 62
2
  6
CONTINUOUS
 10
119.7620716637
 20
8.8000365767
 40
0.3029529393
100
AcDbArc
 50
170.000061653
 51
261.5304593161
  0
ARC
  5
28B
100
AcDbEntity
  8
0
100
AcDbCircle
 62
2
  6
CONTINUOUS
 10
120.8446737046
 20
8.8257725301
 40
0.3029520503
100
AcDbArc
 50
281.1930976978
 51
350.000028812
  0
ENDBLK
  5
28C
100
AcDbEntity
  8
0
  6
BYBLOCK
 62
0
100
AcDbBlockEnd
  0
BLOCK
  5
28D
100
AcDbEntity
  8
0
100
AcDbBlockBegin
  2
_FILLED
 70
64
 10
0.0
 20
0.0
  3
_FILLED
  1

  0
SOLID
  5
28E
100
AcDbEntity
  8
0
  6
BYBLOCK
 62
0
100
AcDbTrace
 10
0.0
 20
0.0
 11
-1.0
 21
0.125
 12
-1.0
 22
-0.125
 13
-1.0
 23
-0.125
  0
ENDBLK
  5
28F
100
AcDbEntity
  8
0
  6
BYBLOCK
 62
0
100
AcDbBlockEnd
  0
BLOCK
  5
290
100
AcDbEntity
  8
ZEICHNUNGSBEMASSUNGEN
100
AcDbBlockBegin
 62
2
  6
CONTINUOUS
  2
*D0
 70
65
 10
0.0
 20
0.0
  3
*D0
  1

  0
MTEXT
  5
291
100
AcDbEntity
  8
ZEICHNUNGSBEMASSUNGEN
100
AcDbMText
 62
5
  6
CONTINUOUS
  7
STANDARD
 71
2
 72
1
 10
23.7475812551
 20
177.6815416789
 30
0.0
 11
0.0
 21
1.0
 31
0.0
 73
2
 44
0.9
  1
\Q15.0;80{\ftxt.shx;\W1.000000;\H3.500000; }[3.15]
 40
3.5
 41
31.5
  0
LINE
  5
292
100
AcDbEntity
  8
ZEICHNUNGSBEMASSUNGEN
100
AcDbLine
 62
2
  6
CONTINUOUS
 10
43.1352514482
 20
134.7117398025
 11
26.653447913
 21
134.7117398025
  0
LINE
  5
293
100
AcDbEntity
  8
ZEICHNUNGSBEMASSUNGEN
100
AcDbLine
 62
2
  6
CONTINUOUS
 10
43.1352514482
 20
214.7117398025
 11
26.653447913
 21
214.7117398025
  0
LINE
  5
294
100
AcDbEntity
  8
ZEICHNUNGSBEMASSUNGEN
100
AcDbLine
 62
2
  6
CONTINUOUS
 10
28.153447913
 20
134.7117398025
 11
28.153447913
 21
174.7117398025
  0
LINE
  5
295
100
AcDbEntity
  8
ZEICHNUNGSBEMASSUNGEN
100
AcDbLine
 62
2
  6
CONTINUOUS
 10
28.153447913
 20
214.7117398025
 11
28.153447913
 21
174.7117398025
  0
INSERT
  5
296
100
AcDbEntity
  8
ZEICHNUNGSBEMASSUNGEN
100
AcDbBlockReference
 62
2
  6
CONTINUOUS
  2
_FILLED
 10
28.153447913
 20
134.7117398025
 41
3.5
 42
3.5
 43
3.5
 50
270.0
  0
INSERT
  5
297
100
AcDbEntity
  8
ZEICHNUNGSBEMASSUNGEN
100
AcDbBlockReference
 62
2
  6
CONTINUOUS
  2
_FILLED
 10
28.153447913
 20
214.7117398025
 41
3.5
 42
3.5
 43
3.5
 50
90.0
  0
ENDBLK
  5
298
100
AcDbEntity
  8
0
  6
BYBLOCK
 62
0
100
AcDbBlockEnd
  0
BLOCK
  5
299
100
AcDbEntity
  8
ZEICHNUNGSBEMASSUNGEN
100
AcDbBlockBegin
 62
2
  6
CONTINUOUS
  2
*D1
 70
65
 10
0.0
 20
0.0
  3
*D1
  1

  0
MTEXT
  5
29A
100
AcDbEntity
  8
ZEICHNUNGSBEMASSUNGEN
100
AcDbMText
 62
5
  6
CONTINUOUS
  7
TEXTSTYLE_2
 71
2
 72
1
 10
59.2480731972
 20
231.1177485439
 30
0.0
 11
1.0
 21
0.0
 31
0.0
 73
2
 44
0.9
  1
\Q15.0;{\fgdt;n}\ftxt;{\W0.7;40}{\W0.7;{\ftxt.shx;\W1.000000;\H3.500000; }[}{\W0.7;1.57}{\W0.7;]}
 40
3.5
 41
38.875
  0
LINE
  5
29B
100
AcDbEntity
  8
ZEICHNUNGSBEMASSUNGEN
100
AcDbLine
 62
2
  6
CONTINUOUS
 10
40.1352514482
 20
211.7117398025
 11
40.1352514482
 21
228.2118818861
  0
LINE
  5
29C
100
AcDbEntity
  8
ZEICHNUNGSBEMASSUNGEN
100
AcDbLine
 62
2
  6
CONTINUOUS
 10
80.1352514482
 20
211.7117398025
 11
80.1352514482
 21
228.2118818861
  0
LINE
  5
29D
100
AcDbEntity
  8
ZEICHNUNGSBEMASSUNGEN
100
AcDbLine
 62
2
  6
CONTINUOUS
 10
40.1352514482
 20
226.7118818861
 11
60.1352514482
 21
226.7118818861
  0
LINE
  5
29E
100
AcDbEntity
  8
ZEICHNUNGSBEMASSUNGEN
100
AcDbLine
 62
2
  6
CONTINUOUS
 10
80.1352514482
 20
226.7118818861
 11
60.1352514482
 21
226.7118818861
  0
INSERT
  5
29F
100
AcDbEntity
  8
ZEICHNUNGSBEMASSUNGEN
100
AcDbBlockReference
 62
2
  6
CONTINUOUS
  2
_FILLED
 10
40.1352514482
 20
226.7118818861
 41
3.5
 42
3.5
 43
3.5
 50
180.0
  0
INSERT
  5
2A0
100
AcDbEntity
  8
ZEICHNUNGSBEMASSUNGEN
100
AcDbBlockReference
 62
2
  6
CONTINUOUS
  2
_FILLED
 10
80.1352514482
 20
226.7118818861
 41
3.5
 42
3.5
 43
3.5
  0
ENDBLK
  5
2A1
100
AcDbEntity
  8
0
  6
BYBLOCK
 62
0
100
AcDbBlockEnd
  0
BLOCK
  5
2A2
100
AcDbEntity
  8
0
100
AcDbBlockBegin
  2
*T1
 70
1
 10
0.0
 20
0.0
  3
*T1
  1

  0
LINE
  5
2A3
100
AcDbEntity
  8
0
100
AcDbLine
 62
7
  6
CONTINUOUS
 10
0.0
 20
0.0
 11
133.0
 21
0.0
  0
LINE
  5
2A4
100
AcDbEntity
  8
0
100
AcDbLine
 62
7
  6
CONTINUOUS
 10
0.0
 20
0.0
 11
0.0
 21
-46.0
  0
LINE
  5
2A5
100
AcDbEntity
  8
0
100
AcDbLine
 62
7
  6
CONTINUOUS
 10
82.0
 20
-5.0
 11
133.0
 21
-5.0
  0
LINE
  5
2A6
100
AcDbEntity
  8
0
100
AcDbLine
 62
7
  6
CONTINUOUS
 10
0.0
 20
-10.0
 11
41.0
 21
-10.0
  0
LINE
  5
2A7
100
AcDbEntity
  8
0
100
AcDbLine
 62
7
  6
CONTINUOUS
 10
82.0
 20
-10.0
 11
133.0
 21
-10.0
  0
LINE
  5
2A8
100
AcDbEntity
  8
0
100
AcDbLine
 62
7
  6
CONTINUOUS
 10
82.0
 20
-15.0
 11
133.0
 21
-15.0
  0
LINE
  5
2A9
100
AcDbEntity
  8
0
100
AcDbLine
 62
7
  6
CONTINUOUS
 10
0.0
 20
-20.0
 11
133.0
 21
-20.0
  0
LINE
  5
2AA
100
AcDbEntity
  8
0
100
AcDbLine
 62
7
  6
CONTINUOUS
 10
82.0
 20
-28.0
 11
133.0
 21
-28.0
  0
LINE
  5
2AB
100
AcDbEntity
  8
0
100
AcDbLine
 62
7
  6
CONTINUOUS
 10
0.0
 20
-37.0
 11
133.0
 21
-37.0
  0
LINE
  5
2AC
100
AcDbEntity
  8
0
100
AcDbLine
 62
7
  6
CONTINUOUS
 10
0.0
 20
-46.0
 11
133.0
 21
-46.0
  0
LINE
  5
2AD
100
AcDbEntity
  8
0
100
AcDbLine
 62
7
  6
CONTINUOUS
 10
41.0
 20
0.0
 11
41.0
 21
-20.0
  0
LINE
  5
2AE
100
AcDbEntity
  8
0
100
AcDbLine
 62
7
  6
CONTINUOUS
 10
64.0
 20
0.0
 11
64.0
 21
-20.0
  0
LINE
  5
2AF
100
AcDbEntity
  8
0
100
AcDbLine
 62
7
  6
CONTINUOUS
 10
82.0
 20
0.0
 11
82.0
 21
-46.0
  0
LINE
  5
2B0
100
AcDbEntity
  8
0
100
AcDbLine
 62
7
  6
CONTINUOUS
 10
101.0
 20
0.0
 11
101.0
 21
-20.0
  0
LINE
  5
2B1
100
AcDbEntity
  8
0
100
AcDbLine
 62
7
  6
CONTINUOUS
 10
116.0
 20
0.0
 11
116.0
 21
-37.0
  0
LINE
  5
2B2
100
AcDbEntity
  8
0
100
AcDbLine
 62
7
  6
CONTINUOUS
 10
133.0
 20
0.0
 11
133.0
 21
-46.0
  0
MTEXT
  5
2B3
100
AcDbEntity
  8
0
100
AcDbMText
 62
5
  6
CONTINUOUS
  7
TEXTSTYLE_3
 71
1
 72
1
 10
0.0625
 20
-2.7341257188
 30
0.0
 11
1.0
 21
0.0
 31
0.0
 73
2
 44
0.9
  1
\Q15.0; Allgemeintoleranzen\P ISO 2768-m
 40
1.8
 41
49.2
  0
MTEXT
  5
2B4
100
AcDbEntity
  8
0
100
AcDbMText
 62
5
  6
CONTINUOUS
  7
TEXTSTYLE_3
 71
2
 72
1
 10
52.5
 20
-1.5352761804
 30
0.0
 11
1.0
 21
0.0
 31
0.0
 73
2
 44
0.9
  1
\Q15.0;Werkstoff
 40
2.0
 41
26.2857142857
  0
MTEXT
  5
2B5
100
AcDbEntity
  8
0
100
AcDbMText
 62
5
  6
CONTINUOUS
  7
TEXTSTYLE_3
 71
2
 72
1
 10
73.0
 20
-1.5352761804
 30
0.0
 11
1.0
 21
0.0
 31
0.0
 73
2
 44
0.9
  1
\Q15.0;Massstab:
 40
2.0
 41
24.2857142857
  0
MTEXT
  5
2B6
100
AcDbEntity
  8
0
100
AcDbMText
 62
5
  6
CONTINUOUS
  7
TEXTSTYLE_3
 71
2
 72
1
 10
108.5
 20
-1.5352761804
 30
0.0
 11
1.0
 21
0.0
 31
0.0
 73
2
 44
0.9
  1
\Q15.0;Datum
 40
2.0
 41
15.3333333333
  0
MTEXT
  5
2B7
100
AcDbEntity
  8
0
100
AcDbMText
 62
5
  6
CONTINUOUS
  7
TEXTSTYLE_3
 71
2
 72
1
 10
124.5
 20
-1.5352761804
 30
0.0
 11
1.0
 21
0.0
 31
0.0
 73
2
 44
0.9
  1
\Q15.0;Name
 40
2.0
 41
12.5714285714
  0
MTEXT
  5
2B8
100
AcDbEntity
  8
0
100
AcDbMText
 62
5
  6
CONTINUOUS
  7
TEXTSTYLE_3
 71
1
 72
1
 10
82.0625
 20
-6.5352761804
 30
0.0
 11
1.0
 21
0.0
 31
0.0
 73
2
 44
0.9
  1
\Q15.0; Gezeichnet
 40
2.0
 41
30.380952381
  0
MTEXT
  5
2B9
100
AcDbEntity
  8
0
100
AcDbMText
 62
5
  6
CONTINUOUS
  7
TEXTSTYLE_3
 71
2
 72
1
 10
108.5
 20
-6.5352761804
 30
0.0
 11
1.0
 21
0.0
 31
0.0
 73
2
 44
0.9
  1
\Q15.0;23.12.05
 40
2.0
 41
22.0
  0
MTEXT
  5
2BA
100
AcDbEntity
  8
0
100
AcDbMText
 62
5
  6
CONTINUOUS
  7
TEXTSTYLE_3
 71
2
 72
1
 10
124.5
 20
-6.5352761804
 30
0.0
 11
1.0
 21
0.0
 31
0.0
 73
2
 44
0.9
  1
\Q15.0;jutz b
 40
2.0
 41
16.0
  0
MTEXT
  5
2BB
100
AcDbEntity
  8
0
100
AcDbMText
 62
5
  6
CONTINUOUS
  7
TEXTSTYLE_3
 71
1
 72
1
 10
0.0625
 20
-12.7341257188
 30
0.0
 11
1.0
 21
0.0
 31
0.0
 73
2
 44
0.9
  1
\Q15.0; Zeichnung urheberrechtlich\P geschuetzt (DIN 34) (C)
 40
1.8
 41
66.0
  0
MTEXT
  5
2BC
100
AcDbEntity
  8
0
100
AcDbMText
 62
5
  6
CONTINUOUS
  7
TEXTSTYLE_3
 71
2
 72
1
 10
52.5
 20
-11.5352761804
 30
0.0
 11
1.0
 21
0.0
 31
0.0
 73
2
 44
0.9
  1
\Q15.0;Alu
 40
2.0
 41
8.2857142857
  0
MTEXT
  5
2BD
100
AcDbEntity
  8
0
100
AcDbMText
 62
5
  6
CONTINUOUS
  7
TEXTSTYLE_3
 71
2
 72
1
 10
73.0
 20
-10.2015916314
 30
0.0
 11
1.0
 21
0.0
 31
0.0
 73
2
 44
0.9
  1
\Q15.0;1:1
 40
3.5
 41
10.5
  0
MTEXT
  5
2BE
100
AcDbEntity
  8
0
100
AcDbMText
 62
5
  6
CONTINUOUS
  7
TEXTSTYLE_3
 71
1
 72
1
 10
82.0625
 20
-11.5352761804
 30
0.0
 11
1.0
 21
0.0
 31
0.0
 73
2
 44
0.9
  1
\Q15.0; Freigegeben
 40
2.0
 41
33.5238095238
  0
MTEXT
  5
2BF
100
AcDbEntity
  8
0
100
AcDbMText
 62
5
  6
CONTINUOUS
  7
TEXTSTYLE_3
 71
2
 72
1
 10
108.5
 20
-11.5352761804
 30
0.0
 11
1.0
 21
0.0
 31
0.0
 73
2
 44
0.9
  1
\Q15.0;-
 40
2.0
 41
2.8571428571
  0
MTEXT
  5
2C0
100
AcDbEntity
  8
0
100
AcDbMText
 62
5
  6
CONTINUOUS
  7
TEXTSTYLE_3
 71
2
 72
1
 10
124.5
 20
-11.5352761804
 30
0.0
 11
1.0
 21
0.0
 31
0.0
 73
2
 44
0.9
  1
\Q15.0;-
 40
2.0
 41
2.8571428571
  0
MTEXT
  5
2C1
100
AcDbEntity
  8
0
100
AcDbMText
 62
5
  6
CONTINUOUS
  7
TEXTSTYLE_3
 71
2
 72
1
 10
52.5
 20
-16.6317485624
 30
0.0
 11
1.0
 21
0.0
 31
0.0
 73
2
 44
0.9
  1
\Q15.0;nextel beschichtet
 40
1.8
 41
43.0285714286
  0
MTEXT
  5
2C2
100
AcDbEntity
  8
0
100
AcDbMText
 62
5
  6
CONTINUOUS
  7
TEXTSTYLE_3
 71
2
 72
1
 10
73.0
 20
-16.5352761804
 30
0.0
 11
1.0
 21
0.0
 31
0.0
 73
2
 44
0.9
  1
(\Q15.0;A4\Q0.0;)
 40
2.0
 41
10.0
  0
MTEXT
  5
2C3
100
AcDbEntity
  8
0
100
AcDbMText
 62
5
  6
CONTINUOUS
  7
TEXTSTYLE_3
 71
1
 72
1
 10
82.0625
 20
-16.5352761804
 30
0.0
 11
1.0
 21
0.0
 31
0.0
 73
2
 44
0.9
  1
\Q15.0; Geaendert
 40
2.0
 41
28.2857142857
  0
MTEXT
  5
2C4
100
AcDbEntity
  8
0
100
AcDbMText
 62
5
  6
CONTINUOUS
  7
TEXTSTYLE_3
 71
2
 72
1
 10
108.5
 20
-16.5352761804
 30
0.0
 11
1.0
 21
0.0
 31
0.0
 73
2
 44
0.9
  1
\Q15.0;-
 40
2.0
 41
2.8571428571
  0
MTEXT
  5
2C5
100
AcDbEntity
  8
0
100
AcDbMText
 62
5
  6
CONTINUOUS
  7
TEXTSTYLE_3
 71
2
 72
1
 10
124.5
 20
-16.5352761804
 30
0.0
 11
1.0
 21
0.0
 31
0.0
 73
2
 44
0.9
  1
\Q15.0;-
 40
2.0
 41
2.8571428571
  0
MTEXT
  5
2C6
100
AcDbEntity
  8
0
100
AcDbMText
 62
5
  6
CONTINUOUS
  7
TEXTSTYLE_3
 71
1
 72
1
 10
0.0625
 20
-20.921875
 30
0.0
 11
1.0
 21
0.0
 31
0.0
 73
2
 44
0.9
  1
\Q15.0; Benennung
 40
2.0
 41
29.1428571429
  0
MTEXT
  5
2C7
100
AcDbEntity
  8
0
100
AcDbMText
 62
5
  6
CONTINUOUS
  7
TEXTSTYLE_3
 71
1
 72
1
 10
82.0625
 20
-20.9647238196
 30
0.0
 11
1.0
 21
0.0
 31
0.0
 73
2
 44
1.2
  1
\Q15.0; Aend.-Nr.\P -
 40
2.0
 41
28.2857142857
  0
MTEXT
  5
2C8
100
AcDbEntity
  8
0
100
AcDbMText
 62
5
  6
CONTINUOUS
  7
TEXTSTYLE_3
 71
2
 72
1
 10
124.5
 20
-20.835314297
 30
0.0
 11
1.0
 21
0.0
 31
0.0
 73
2
 44
0.9
  1
\Q15.0;Aend.-Index\P\H3.0;-
 40
2.0
 41
31.1428571429
  0
MTEXT
  5
2C9
100
AcDbEntity
  8
0
100
AcDbMText
 62
5
  6
CONTINUOUS
  7
TEXTSTYLE_3
 71
2
 72
1
 10
41.0
 20
-23.8117333157
 30
0.0
 11
1.0
 21
0.0
 31
0.0
 73
2
 44
0.9
  1
\Q15.0;Handtool HTX
 40
3.5
 41
61.0
  0
MTEXT
  5
2CA
100
AcDbEntity
  8
0
100
AcDbMText
 62
5
  6
CONTINUOUS
  7
TEXTSTYLE_3
 71
2
 72
1
 10
40.25
 20
-30.088190451
 30
0.0
 11
1.0
 21
0.0
 31
0.0
 73
2
 44
0.9
  1
\Q15.0;HTX
 40
5.0
 41
25.0
  0
MTEXT
  5
2CB
100
AcDbEntity
  8
0
100
AcDbMText
 62
5
  6
CONTINUOUS
  7
TEXTSTYLE_3
 71
1
 72
1
 10
82.0625
 20
-31.5352761804
 30
0.0
 11
1.0
 21
0.0
 31
0.0
 73
2
 44
0.9
  1
\Q15.0; Ersatz fuer:
 40
2.0
 41
34.5714285714
  0
MTEXT
  5
2CC
100
AcDbEntity
  8
0
100
AcDbMText
 62
5
  6
CONTINUOUS
  7
TEXTSTYLE_3
 71
2
 72
1
 10
124.5
 20
-29.4647238196
 30
0.0
 11
1.0
 21
0.0
 31
0.0
 73
2
 44
1.2
  1
\Q15.0;Blatt 1\Pvon 1 Bl.
 40
2.0
 41
24.5714285714
  0
MTEXT
  5
2CD
100
AcDbEntity
  8
0
100
AcDbMText
 62
5
  6
CONTINUOUS
  7
TEXTSTYLE_3
 71
1
 72
1
 10
82.0625
 20
-37.5352761804
 30
0.0
 11
1.0
 21
0.0
 31
0.0
 73
2
 44
0.9
  1
\Q15.0; Zeichn. Nr.
 40
2.0
 41
32.9523809524
  0
MTEXT
  5
2CE
100
AcDbEntity
  8
0
100
AcDbMText
 62
5
  6
CONTINUOUS
  7
TEXTSTYLE_3
 71
2
 72
1
 10
108.5
 20
-41.3117333157
 30
0.0
 11
1.0
 21
0.0
 31
0.0
 73
2
 44
0.9
  1
\Q15.0;ST-HTX
 40
3.5
 41
34.0
  0
ENDBLK
  5
2CF
100
AcDbEntity
  8
0
  6
BYBLOCK
 62
0
100
AcDbBlockEnd
  0
ENDSEC
  0
SECTION
  2
ENTITIES
  0
MTEXT
  5
2D0
100
AcDbEntity
  8
0
100
AcDbMText
 62
4
  6
CONTINUOUS
  7
STANDARD
 71
1
 72
1
 10
126.0467415329
 20
10.4742136272
 30
0.0
 11
1.0
 21
0.0
 31
0.0
 73
2
 44
0.9
  1
\Q15.0;FL-9494 SCHAAN
 40
2.43
 41
39.7478571429
  0
INSERT
  5
2D1
100
AcDbEntity
  8
0
100
AcDbBlockReference
 62
2
  6
CONTINUOUS
  2
NEUTRIK_LOGO_BL0
 10
98.0245925022
 20
9.2066660654
  0
HATCH
  5
2D2
100
AcDbEntity
  8
0
100
AcDbHatch
 62
2
  6
CONTINUOUS
 10
0.0
 20
0.0
 30
0.0
210
0.0
220
0.0
230
1.0
  2
C
 70
0
 71
0
 91
2
 92
1
 93
12
 72
1
 10
43.1352514482
 20
134.7117398025
 11
49.3352804155
 21
134.7117398025
 72
2
 10
43.1352514482
 20
137.7117398025
 40
3.0
 50
180.0
 51
270.0
 73
1
 72
1
 10
40.1352514482
 20
211.7117398025
 11
40.1352514482
 21
137.7117398025
 72
2
 10
43.1352514482
 20
211.7117398025
 40
3.0
 50
90.0
 51
180.0
 73
1
 72
1
 10
43.1352514482
 20
214.7117398025
 11
45.7702259521
 21
214.7117398025
 72
4
 94
3
 73
0
 74
0
 95
42
 96
38
 40
0.0
 40
0.0
 40
0.0
 40
0.0
 40
0.0108653275
 40
0.0220665018
 40
0.0335756647
 40
0.0453720448
 40
0.0577677682
 40
0.0714730204
 40
0.0872524873
 40
0.1058317242
 40
0.1274062369
 40
0.1516470582
 40
0.178332559
 40
0.207516597
 40
0.2395468268
 40
0.2762838057
 40
0.3166273958
 40
0.3573875664
 40
0.39540461
 40
0.4289017548
 40
0.462194176
 40
0.4948120993
 40
0.5254776277
 40
0.5547848072
 40
0.5836526222
 40
0.6124427532
 40
0.6412761166
 40
0.6700382848
 40
0.6988929734
 40
0.7286605612
 40
0.7603463096
 40
0.7947493053
 40
0.8320904581
 40
0.8723957534
 40
0.914846245
 40
0.9579539247
 40
1.0
 40
1.0
 40
1.0
 40
1.0
 10
45.7702259521
 20
214.7117398028
 10
45.8005673142
 20
214.7117398028
 10
45.8622162419
 20
214.7093356858
 10
45.9554019061
 20
214.6980654417
 10
46.049842759
 20
214.6783020303
 10
46.1453095138
 20
214.6490811103
 10
46.2432582336
 20
214.6085876973
 10
46.346685212
 20
214.5536089278
 10
46.4586743526
 20
214.4792309627
 10
46.5796665507
 20
214.3800483127
 10
46.7074597173
 20
214.2531814891
 10
46.8384861628
 20
214.0985628978
 10
46.9706413572
 20
213.9178674489
 10
47.1034043257
 20
213.7112636144
 10
47.2395565058
 20
213.4739172398
 10
47.3794927132
 20
213.2031666379
 10
47.5198428547
 20
212.9054627137
 10
47.6527381836
 20
212.6004723917
 10
47.7707234721
 20
212.3099666623
 10
47.8758809536
 20
212.0368275869
 10
47.972073619
 20
211.7764240931
 10
48.0625373011
 20
211.5223556929
 10
48.146702077
 20
211.2778742854
 10
48.2252467654
 20
211.0425461806
 10
48.3002293465
 20
210.8115597105
 10
48.3731160499
 20
210.581291373
 10
48.444422467
 20
210.350837953
 10
48.5143965727
 20
210.1197883201
 10
48.5838014968
 20
209.8858447027
 10
48.6541995685
 20
209.6436838873
 10
48.7274995298
 20
209.3862357814
 10
48.8050296017
 20
209.1080069658
 10
48.8872986362
 20
208.8061167252
 10
48.9736138781
 20
208.4820426439
 10
49.0621240934
 20
208.141894684
 10
49.149904263
 20
207.7965398423
 10
49.2072364693
 20
207.5657620721
 10
49.2352514482
 20
207.4517398025
 72
4
 94
3
 73
0
 74
0
 95
31
 96
27
 40
0.0
 40
0.0
 40
0.0
 40
0.0
 40
0.0545644562
 40
0.1018412525
 40
0.1433677352
 40
0.1806083936
 40
0.2151019776
 40
0.2482906545
 40
0.2813580709
 40
0.3145776527
 40
0.3478788748
 40
0.3808421742
 40
0.4137792498
 40
0.4495638956
 40
0.4910993807
 40
0.5367712626
 40
0.5825117292
 40
0.6276900414
 40
0.6736965291
 40
0.7205894131
 40
0.7674742784
 40
0.81414453
 40
0.8605684629
 40
0.9070869878
 40
0.9538992359
 40
1.0
 40
1.0
 40
1.0
 40
1.0
 10
49.2352514482
 20
207.4517398025
 10
49.2617483538
 20
207.3447184206
 10
49.3113473737
 20
207.1450051039
 10
49.3817536673
 20
206.8640026322
 10
49.444288865
 20
206.6171152077
 10
49.5011757994
 20
206.3954436157
 10
49.5545819923
 20
206.1902732918
 10
49.6066120661
 20
205.9934595837
 10
49.6588758707
 20
205.7993722351
 10
49.7123369583
 20
205.6053746562
 10
49.7672352624
 20
205.4119967
 10
49.8236835634
 20
205.2196598202
 10
49.8834850691
 20
205.0230868281
 10
49.9511153377
 20
204.8108048052
 10
50.031455765
 20
204.5756053321
 10
50.1256863701
 20
204.3239856774
 10
50.2327009902
 20
204.0694746788
 10
50.3537084231
 20
203.820479366
 10
50.4935327332
 20
203.5786691314
 10
50.6580493818
 20
203.3484357022
 10
50.849093153
 20
203.1375322107
 10
51.0668505501
 20
202.9555047626
 10
51.3084704527
 20
202.8077560256
 10
51.5708111773
 20
202.7000201413
 10
51.8462512612
 20
202.6353774795
 10
52.0341350964
 20
202.6211193437
 10
52.1273868581
 20
202.620743055
 72
1
 10
52.1352514482
 20
202.6207271919
 11
52.9814331612
 21
202.6207271919
 72
1
 10
52.9814331612
 20
202.6207271919
 11
54.321923482
 21
194.2238060328
 72
1
 10
50.3352514482
 20
137.2117398025
 11
54.321923482
 21
194.2238060328
 72
1
 10
50.3352514482
 20
135.7117135173
 11
50.3352514482
 21
137.2117398025
 72
1
 10
50.3352514482
 20
135.7117135173
 11
49.3352804155
 21
134.7117398025
 97
0
 92
1
 93
12
 72
1
 10
70.9352224809
 20
134.7117398025
 11
77.1352514482
 21
134.7117398025
 72
1
 10
69.9352514482
 20
135.7117135173
 11
70.9352224809
 21
134.7117398025
 72
1
 10
69.9352514482
 20
135.7117135173
 11
69.9352514482
 21
137.2117398025
 72
1
 10
69.9352514482
 20
137.2117398025
 11
65.9485794144
 21
194.2238060328
 72
1
 10
67.2890697352
 20
202.6207271919
 11
65.9485794144
 21
194.2238060328
 72
1
 10
67.2890697352
 20
202.6207271919
 11
68.1352514482
 21
202.6207271919
 72
4
 94
3
 73
0
 74
0
 95
31
 96
27
 40
0.0
 40
0.0
 40
0.0
 40
0.0
 40
0.0456885014
 40
0.0925209811
 40
0.1390596108
 40
0.1855036074
 40
0.2321940293
 40
0.2790991576
 40
0.3260123081
 40
0.3720386792
 40
0.4172365169
 40
0.4629967519
 40
0.5086883726
 40
0.5502418087
 40
0.5860419203
 40
0.6189932308
 40
0.6519707765
 40
0.685286391
 40
0.7185203299
 40
0.7516020376
 40
0.7848050582
 40
0.8193135498
 40
0.8565703031
 40
0.898114733
 40
0.9454119617
 40
1.0
 40
1.0
 40
1.0
 40
1.0
 10
68.1457375551
 20
202.6207553982
 10
68.2381148424
 20
202.6212525535
 10
68.42510503
 20
202.6355777616
 10
68.6996917191
 20
202.7000201413
 10
68.9620324437
 20
202.8077560256
 10
69.2036523463
 20
202.9555047626
 10
69.4214097434
 20
203.1375322107
 10
69.6124535146
 20
203.3484357022
 10
69.7769701631
 20
203.5786691314
 10
69.9167944733
 20
203.820479366
 10
70.0378019062
 20
204.0694746788
 10
70.1448165263
 20
204.3239856774
 10
70.2390471314
 20
204.5756053321
 10
70.3193875587
 20
204.8108048052
 10
70.3870178272
 20
205.0230868281
 10
70.4468193329
 20
205.2196598202
 10
70.5032676339
 20
205.4119967
 10
70.5581659381
 20
205.6053746562
 10
70.6116270257
 20
205.7993722351
 10
70.6638908303
 20
205.9934595837
 10
70.715920904
 20
206.1902732918
 10
70.769327097
 20
206.3954436157
 10
70.8262140313
 20
206.6171152077
 10
70.8887492291
 20
206.8640026322
 10
70.9591555227
 20
207.1450051039
 10
71.0087545425
 20
207.3447184206
 10
71.0352514482
 20
207.4517398025
 72
4
 94
3
 73
0
 74
0
 95
42
 96
38
 40
0.0
 40
0.0
 40
0.0
 40
0.0
 40
0.0420460753
 40
0.085153755
 40
0.1276042466
 40
0.1679095419
 40
0.2052506947
 40
0.2396536904
 40
0.2713394388
 40
0.3011070266
 40
0.3299617152
 40
0.3587238834
 40
0.3875572468
 40
0.4163473778
 40
0.4452151928
 40
0.4745223723
 40
0.5051879007
 40
0.537805824
 40
0.5710982452
 40
0.60459539
 40
0.6426124336
 40
0.6833726042
 40
0.7237161943
 40
0.7604531732
 40
0.792483403
 40
0.821667441
 40
0.8483529418
 40
0.8725937631
 40
0.8941682758
 40
0.9127475127
 40
0.9285269796
 40
0.9422322318
 40
0.9546279552
 40
0.9664243353
 40
0.9779334982
 40
0.9891346725
 40
1.0
 40
1.0
 40
1.0
 40
1.0
 10
71.0352514482
 20
207.4517398025
 10
71.0632664271
 20
207.5657620721
 10
71.1205986333
 20
207.7965398423
 10
71.208378803
 20
208.141894684
 10
71.2968890182
 20
208.4820426439
 10
71.3832042601
 20
208.8061167252
 10
71.4654732946
 20
209.1080069658
 10
71.5430033666
 20
209.3862357814
 10
71.6163033278
 20
209.6436838873
 10
71.6867013995
 20
209.8858447027
 10
71.7561063236
 20
210.1197883201
 10
71.8260804294
 20
210.350837953
 10
71.8973868465
 20
210.581291373
 10
71.9702735499
 20
210.8115597105
 10
72.045256131
 20
211.0425461806
 10
72.1238008194
 20
211.2778742854
 10
72.2079655953
 20
211.5223556929
 10
72.2984292773
 20
211.7764240931
 10
72.3946219427
 20
212.0368275869
 10
72.4997794243
 20
212.3099666623
 10
72.6177647128
 20
212.6004723917
 10
72.7506600417
 20
212.9054627137
 10
72.8910101831
 20
213.2031666379
 10
73.0309463906
 20
213.4739172398
 10
73.1670985707
 20
213.7112636144
 10
73.2998615391
 20
213.9178674489
 10
73.4320167336
 20
214.0985628978
 10
73.5630431791
 20
214.2531814891
 10
73.6908363457
 20
214.3800483127
 10
73.8118285437
 20
214.4792309627
 10
73.9238176844
 20
214.5536089278
 10
74.0272446627
 20
214.6085876973
 10
74.1251933826
 20
214.6490811103
 10
74.2206601374
 20
214.6783020303
 10
74.3151009903
 20
214.6980654417
 10
74.4082866544
 20
214.7093356858
 10
74.4699355821
 20
214.7117398028
 10
74.5002769443
 20
214.7117398028
 72
1
 10
74.5002769443
 20
214.7117398025
 11
77.1352514482
 21
214.7117398025
 72
2
 10
77.1352514482
 20
211.7117398025
 40
3.0
 50
0.0
 51
90.0
 73
1
 72
1
 10
80.1352514482
 20
211.7117398025
 11
80.1352514482
 21
137.7117398025
 72
2
 10
77.1352514482
 20
137.7117398025
 40
3.0
 50
270.0
 51
360.0
 73
1
 97
0
 75
0
 76
0
 52
45.0
 41
5.5958381301
 77
0
 78
1
 53
45.0
 43
0.0
 44
0.0
 45
-3.9568550882
 46
3.9568550882
 79
0
 98
1
 10
0.0
 20
0.0
  0
DIMENSION
  5
2D3
100
AcDbEntity
  8
ZEICHNUNGSBEMASSUNGEN
100
AcDbDimension
 62
2
  6
CONTINUOUS
  2
*D0
 10
28.153447913
 20
214.7117398025
 11
28.153447913
 21
177.6815416789
 70
160
 71
2
 72
2
 41
0.9
 42
80.0
  3
DIMSTYLE_1
100
AcDbAlignedDimension
 13
43.1352514482
 23
134.7117398025
 14
43.1352514482
 24
214.7117398025
 50
90.0
100
AcDbRotatedDimension
  0
DIMENSION
  5
2D4
100
AcDbEntity
  8
ZEICHNUNGSBEMASSUNGEN
100
AcDbDimension
 62
2
  6
CONTINUOUS
  2
*D1
 10
80.1352514482
 20
226.7118818861
 11
59.2480731972
 21
226.7118818861
 70
160
 71
2
 72
2
 41
0.9
 42
40.0
  1
%%c<>
  3
DIMSTYLE_1
100
AcDbAlignedDimension
 13
40.1352514482
 23
211.7117398025
 14
80.1352514482
 24
211.7117398025
100
AcDbRotatedDimension
  0
ACAD_TABLE
  5
2D5
100
AcDbEntity
  8
0
 62
2
  6
CONTINUOUS
100
AcDbBlockReference
  2
*T1
 10
72.0
 20
51.0
 30
0.0
100
AcDbTable
342
       477
343
214
 11
1.0
 21
0.0
 31
0.0
 90
22
 91
9
 92
8
 93
0
 94
0
 95
0
 96
0
141
5.0
141
5.0
141
5.0
141
5.0
141
3.0
141
5.0
141
9.0
141
3.0
141
6.0
142
20.5
142
19.0
142
1.5
142
23.0
142
18.0
142
19.0
142
15.0
142
17.0
171
1
172
0
173
0
174
0
175
2
176
2
177
57
178
0
145
0.0
  7
TEXTSTYLE_3
  1
\Q15.0; Allgemeintoleranzen\P ISO 2768-m
170
4
140
1.8
 64
5
171
1
172
0
173
1
174
0
175
1
176
1
177
1
178
0
145
0.0
170
1
171
1
172
0
173
0
174
0
175
1
176
2
177
33
178
0
145
0.0
  1
 
170
1
140
0.15625
171
1
172
0
173
0
174
0
175
1
176
1
177
57
178
0
145
0.0
  7
TEXTSTYLE_3
  1
\Q15.0;Werkstoff
170
5
140
2.0
 64
5
171
1
172
0
173
0
174
0
175
1
176
1
177
57
178
0
145
0.0
  7
TEXTSTYLE_3
  1
\Q15.0;Massstab:
170
5
140
2.0
 64
5
171
1
172
0
173
0
174
0
175
1
176
1
177
33
178
0
145
0.0
  1
 
170
1
140
0.15625
171
1
172
0
173
0
174
0
175
1
176
1
177
57
178
0
145
0.0
  7
TEXTSTYLE_3
  1
\Q15.0;Datum
170
5
140
2.0
 64
5
171
1
172
0
173
0
174
0
175
1
176
1
177
57
178
0
145
0.0
  7
TEXTSTYLE_3
  1
\Q15.0;Name
170
5
140
2.0
 64
5
171
1
172
0
173
1
174
0
175
1
176
1
177
1
178
0
145
0.0
170
1
171
1
172
0
173
1
174
0
175
1
176
1
177
1
178
0
145
0.0
170
1
171
1
172
0
173
1
174
0
175
1
176
1
177
1
178
0
145
0.0
170
1
171
1
172
0
173
0
174
0
175
1
176
1
177
33
178
0
145
0.0
  1
 
170
1
140
0.15625
171
1
172
0
173
0
174
0
175
1
176
1
177
33
178
0
145
0.0
  1
 
170
1
140
0.15625
171
1
172
0
173
0
174
0
175
1
176
1
177
57
178
0
145
0.0
  7
TEXTSTYLE_3
  1
\Q15.0; Gezeichnet
170
4
140
2.0
 64
5
171
1
172
0
173
0
174
0
175
1
176
1
177
57
178
0
145
0.0
  7
TEXTSTYLE_3
  1
\Q15.0;23.12.05
170
5
140
2.0
 64
5
171
1
172
0
173
0
174
0
175
1
176
1
177
57
178
0
145
0.0
  7
TEXTSTYLE_3
  1
\Q15.0;jutz b
170
5
140
2.0
 64
5
171
1
172
0
173
0
174
0
175
2
176
2
177
57
178
0
145
0.0
  7
TEXTSTYLE_3
  1
\Q15.0; Zeichnung urheberrechtlich\P geschuetzt (DIN 34) (C)
170
4
140
1.8
 64
5
171
1
172
0
173
1
174
0
175
1
176
1
177
1
178
0
145
0.0
170
1
171
1
172
0
173
0
174
0
175
1
176
2
177
33
178
0
145
0.0
  1
 
170
1
140
0.15625
171
1
172
0
173
0
174
0
175
1
176
1
177
57
178
0
145
0.0
  7
TEXTSTYLE_3
  1
\Q15.0;Alu
170
5
140
2.0
 64
5
171
1
172
0
173
0
174
0
175
1
176
1
177
57
178
0
145
0.0
  7
TEXTSTYLE_3
  1
\Q15.0;1:1
170
2
140
3.5
 64
5
171
1
172
0
173
0
174
0
175
1
176
1
177
57
178
0
145
0.0
  7
TEXTSTYLE_3
  1
\Q15.0; Freigegeben
170
4
140
2.0
 64
5
171
1
172
0
173
0
174
0
175
1
176
1
177
57
178
0
145
0.0
  7
TEXTSTYLE_3
  1
\Q15.0;-
170
5
140
2.0
 64
5
171
1
172
0
173
0
174
0
175
1
176
1
177
57
178
0
145
0.0
  7
TEXTSTYLE_3
  1
\Q15.0;-
170
5
140
2.0
 64
5
171
1
172
0
173
1
174
0
175
1
176
1
177
1
178
0
145
0.0
170
1
171
1
172
0
173
1
174
0
175
1
176
1
177
1
178
0
145
0.0
170
1
171
1
172
0
173
1
174
0
175
1
176
1
177
1
178
0
145
0.0
170
1
171
1
172
0
173
0
174
0
175
1
176
1
177
57
178
0
145
0.0
  7
TEXTSTYLE_3
  1
\Q15.0;nextel beschichtet
170
5
140
1.8
 64
5
171
1
172
0
173
0
174
0
175
1
176
1
177
57
178
0
145
0.0
  7
TEXTSTYLE_3
  1
(\Q15.0;A4\Q0.0;)
170
5
140
2.0
 64
5
171
1
172
0
173
0
174
0
175
1
176
1
177
57
178
0
145
0.0
  7
TEXTSTYLE_3
  1
\Q15.0; Geaendert
170
4
140
2.0
 64
5
171
1
172
0
173
0
174
0
175
1
176
1
177
57
178
0
145
0.0
  7
TEXTSTYLE_3
  1
\Q15.0;-
170
5
140
2.0
 64
5
171
1
172
0
173
0
174
0
175
1
176
1
177
57
178
0
145
0.0
  7
TEXTSTYLE_3
  1
\Q15.0;-
170
5
140
2.0
 64
5
171
1
172
0
173
0
174
0
175
2
176
1
177
57
178
0
145
0.0
  7
TEXTSTYLE_3
  1
\Q15.0; Benennung
170
7
140
2.0
 64
5
171
1
172
0
173
1
174
0
175
1
176
1
177
1
178
0
145
0.0
170
1
171
1
172
0
173
0
174
0
175
1
176
1
177
33
178
0
145
0.0
  1
 
170
1
140
0.15625
171
1
172
0
173
0
174
0
175
1
176
1
177
33
178
0
145
0.0
  1
 
170
1
140
0.15625
171
1
172
0
173
0
174
0
175
1
176
1
177
33
178
0
145
0.0
  1
 
170
1
140
0.15625
171
1
172
0
173
0
174
0
175
2
176
2
177
57
178
0
145
0.0
  7
TEXTSTYLE_3
  1
\Q15.0; Aend.-Nr.\P -
170
4
140
2.0
 64
5
171
1
172
0
173
1
174
0
175
1
176
1
177
1
178
0
145
0.0
170
1
171
1
172
0
173
0
174
0
175
1
176
2
177
57
178
0
145
0.0
  7
TEXTSTYLE_3
  1
\Q15.0;Aend.-Index\P\H3.0;-
170
5
140
2.0
 64
5
171
1
172
0
173
0
174
0
175
5
176
1
177
57
178
0
145
0.0
  7
TEXTSTYLE_3
  1
\Q15.0;Handtool HTX
170
5
140
3.5
 64
5
171
1
172
0
173
1
174
0
175
1
176
1
177
1
178
0
145
0.0
170
1
171
1
172
0
173
1
174
0
175
1
176
1
177
1
178
0
145
0.0
170
1
171
1
172
0
173
1
174
0
175
1
176
1
177
1
178
0
145
0.0
170
1
171
1
172
0
173
1
174
0
175
1
176
1
177
1
178
0
145
0.0
170
1
171
1
172
0
173
1
174
0
175
1
176
1
177
1
178
0
145
0.0
170
1
171
1
172
0
173
1
174
0
175
1
176
1
177
1
178
0
145
0.0
170
1
171
1
172
0
173
1
174
0
175
1
176
1
177
1
178
0
145
0.0
170
1
171
1
172
0
173
0
174
0
175
1
176
1
177
33
178
0
145
0.0
  1
 
170
1
140
0.15625
171
1
172
0
173
0
174
0
175
1
176
1
177
33
178
0
145
0.0
  1
 
170
1
140
0.15625
171
1
172
0
173
0
174
0
175
1
176
1
177
57
178
0
145
0.0
  7
TEXTSTYLE_3
  1
\Q15.0;HTX
170
5
140
5.0
 64
5
171
1
172
0
173
0
174
0
175
1
176
1
177
33
178
0
145
0.0
  1
 
170
1
140
0.15625
171
1
172
0
173
0
174
0
175
1
176
1
177
33
178
0
145
0.0
  1
 
170
1
140
0.15625
171
1
172
0
173
0
174
0
175
1
176
1
177
57
178
0
145
0.0
  7
TEXTSTYLE_3
  1
\Q15.0; Ersatz fuer:
170
4
140
2.0
 64
5
171
1
172
0
173
0
174
0
175
1
176
1
177
33
178
0
145
0.0
  1
 
170
1
140
0.15625
171
1
172
0
173
0
174
0
175
1
176
1
177
57
178
0
145
0.0
  7
TEXTSTYLE_3
  1
\Q15.0;Blatt 1\Pvon 1 Bl.
170
5
140
2.0
 64
5
171
1
172
0
173
0
174
0
175
5
176
2
177
33
178
0
145
0.0
  1
 
170
1
140
0.15625
171
1
172
0
173
1
174
0
175
1
176
1
177
1
178
0
145
0.0
170
1
171
1
172
0
173
1
174
0
175
1
176
1
177
1
178
0
145
0.0
170
1
171
1
172
0
173
1
174
0
175
1
176
1
177
1
178
0
145
0.0
170
1
171
1
172
0
173
1
174
0
175
1
176
1
177
1
178
0
145
0.0
170
1
171
1
172
0
173
0
174
0
175
1
176
1
177
57
178
0
145
0.0
  7
TEXTSTYLE_3
  1
\Q15.0; Zeichn. Nr.
170
4
140
2.0
 64
5
171
1
172
0
173
0
174
0
175
1
176
1
177
33
178
0
145
0.0
  1
 
170
1
140
0.15625
171
1
172
0
173
0
174
0
175
1
176
1
177
33
178
0
145
0.0
  1
 
170
1
140
0.15625
171
1
172
0
173
1
174
0
175
1
176
1
177
1
178
0
145
0.0
170
1
171
1
172
0
173
1
174
0
175
1
176
1
177
1
178
0
145
0.0
170
1
171
1
172
0
173
1
174
0
175
1
176
1
177
1
178
0
145
0.0
170
1
171
1
172
0
173
1
174
0
175
1
176
1
177
1
178
0
145
0.0
170
1
171
1
172
0
173
1
174
0
175
1
176
1
177
1
178
0
145
0.0
170
1
171
1
172
0
173
0
174
0
175
1
176
1
177
33
178
0
145
0.0
  1
 
170
1
140
0.15625
171
1
172
0
173
0
174
0
175
1
176
1
177
57
178
0
145
0.0
  7
TEXTSTYLE_3
  1
\Q15.0;ST-HTX
170
5
140
3.5
 64
5
171
1
172
0
173
0
174
0
175
1
176
1
177
33
178
0
145
0.0
  1
 
170
1
140
0.15625
  0
MTEXT
  5
2D6
100
AcDbEntity
  8
0
100
AcDbMText
 62
5
  6
CONTINUOUS
  7
TEXTSTYLE_4
 71
1
 72
1
 10
156.2171125347
 20
173.423026998
 30
0.0
 11
1.0
 21
0.0
 31
0.0
 73
2
 44
0.9
  1
\Q15.0;BXX
 40
5.0
 41
13.962962963
  0
MTEXT
  5
2D7
100
AcDbEntity
  8
0
100
AcDbMText
 62
5
  6
CONTINUOUS
  7
TEXTSTYLE_4
 71
1
 72
1
 10
157.4379004898
 20
264.162203155
 30
0.0
 11
1.0
 21
0.0
 31
0.0
 73
2
 44
0.9
  1
\Q15.0;BSX
 40
5.0
 41
13.962962963
  0
LINE
  5
2D8
100
AcDbEntity
  8
0
100
AcDbLine
 62
7
  6
CONTINUOUS
 10
0.0
 20
0.0
 11
210.0
 21
0.0
  0
LINE
  5
2D9
100
AcDbEntity
  8
0
100
AcDbLine
 62
7
  6
CONTINUOUS
 10
5.0
 20
5.0
 11
205.0
 21
5.0
  0
LINE
  5
2DA
100
AcDbEntity
  8
0
100
AcDbLine
 62
7
  6
CONTINUOUS
 10
0.0
 20
0.0
 11
0.0
 21
297.0
  0
LINE
  5
2DB
100
AcDbEntity
  8
0
100
AcDbLine
 62
7
  6
CONTINUOUS
 10
5.0
 20
5.0
 11
5.0
 21
292.0
  0
LINE
  5
2DC
100
AcDbEntity
  8
0
100
AcDbLine
 62
7
  6
CONTINUOUS
 10
205.0
 20
5.0
 11
205.0
 21
292.0
  0
LINE
  5
2DD
100
AcDbEntity
  8
0
100
AcDbLine
 62
7
  6
CONTINUOUS
 10
210.0
 20
0.0
 11
210.0
 21
297.0
  0
LINE
  5
2DE
100
AcDbEntity
  8
0
100
AcDbLine
 62
7
  6
CONTINUOUS
 10
5.0
 20
292.0
 11
205.0
 21
292.0
  0
LINE
  5
2DF
100
AcDbEntity
  8
0
100
AcDbLine
 62
7
  6
CONTINUOUS
 10
0.0
 20
297.0
 11
210.0
 21
297.0
  0
LWPOLYLINE
  5
2E0
100
AcDbEntity
  8
FASEN
100
AcDbPolyline
 62
9
  6
CONTINUOUS
 90
33
 70
0
 10
148.9455895688
 20
150.8805199241
 10
148.130811914
 20
149.9150255096
 10
147.3977725122
 20
148.9177823954
 10
146.75193627
 20
147.8948721343
 10
146.1965378945
 20
146.8529518938
 10
145.7359556932
 20
145.7984480766
 10
145.3722237721
 20
144.7381345302
 10
145.1085892499
 20
143.6786862648
 10
144.9457913949
 20
142.626826196
 10
144.8858517039
 20
141.5893582524
 10
144.928170611
 20
140.5727144049
 10
145.0734519494
 20
139.5836071243
 10
145.3198070189
 20
138.6279988389
 10
145.6666286724
 20
137.7122831554
 10
146.1107760851
 20
136.8418790094
 10
146.650341537
 20
136.0227748233
 10
147.2810185665
 20
135.2596557439
 10
147.9996557138
 20
134.5579177074
 10
148.8008802528
 20
133.9214167686
 10
149.680363585
 20
133.3548361494
 10
150.6318218679
 20
132.8610902843
 10
151.6498925164
 20
132.4440150938
 10
152.7274831592
 20
132.1055293417
 10
153.8582263818
 20
131.8485489895
 10
155.0345847294
 20
131.6739183652
 10
156.2496791403
 20
131.5835323706
 10
157.4951670204
 20
131.5771552469
 10
158.7629191829
 20
131.6555805166
 10
160.0454163447
 20
131.8176152377
 10
161.3362458846
 20
132.0634878079
 10
162.6239586308
 20
132.3897277306
 10
163.8932695323
 20
132.7925163463
 10
165.1492736062
 20
133.2731265415
  0
LINE
  5
2E1
100
AcDbEntity
  8
0
100
AcDbLine
 62
7
  6
CONTINUOUS
 10
144.0354810691
 20
134.2103135515
 11
149.5609591652
 21
122.950573038
  0
LWPOLYLINE
  5
2E2
100
AcDbEntity
  8
RUNDUNGEN
100
AcDbPolyline
 62
7
  6
CONTINUOUS
 90
41
 70
0
 10
144.0354810691
 20
134.2103135515
 10
143.5718973398
 20
135.286376114
 10
143.212345744
 20
136.4172156932
 10
142.9621375069
 20
137.5966538001
 10
142.8260275604
 20
138.8160551058
 10
142.8073035616
 20
140.0665682571
 10
142.9080888733
 20
141.3408369805
 10
143.130325061
 20
142.6337935133
 10
143.4730012357
 20
143.9301030236
 10
143.9309561655
 20
145.2128754006
 10
144.503889032
 20
146.4833449822
 10
145.1940110333
 20
147.7425040028
 10
145.9938830463
 20
148.9735189234
 10
146.8943003724
 20
150.1629077167
 10
147.8896725192
 20
151.3048828853
 10
148.9720383242
 20
152.3916961112
 10
150.1346728505
 20
153.4178618503
 10
151.3704707462
 20
154.3779703465
 10
152.6702151865
 20
155.2656556898
 10
154.0236363971
 20
156.0749499139
 10
155.4238811384
 20
156.8026450375
 10
156.8631784151
 20
157.4451321387
 10
158.3336471775
 20
157.9990089014
 10
159.8286022048
 20
158.4614555782
 10
161.3364092123
 20
158.8285254844
 10
162.8454906654
 20
159.0974692743
 10
164.3487462803
 20
159.2670592018
 10
165.8393466612
 20
159.3360795318
 10
167.3056698258
 20
159.3035276092
 10
168.7388404723
 20
159.1693633194
 10
170.1256412594
 20
158.9350932372
 10
171.4507542725
 20
158.6050396442
 10
172.7163602125
 20
158.1802788985
 10
173.9236361171
 20
157.6597309878
 10
175.0572933032
 20
157.0491906631
 10
176.1052493417
 20
156.3566684673
 10
177.065638502
 20
155.585570211
 10
177.9345171098
 20
154.7405463338
 10
178.7066047294
 20
153.8283731876
 10
179.3776733288
 20
152.8564001566
 10
179.9447472075
 20
151.8320219079
  0
LINE
  5
2E3
100
AcDbEntity
  8
0
100
AcDbLine
 62
2
  6
CONTINUOUS
 10
167.936975648
 20
119.3721425729
 11
177.2432298467
 21
117.7555164667
  0
LINE
  5
2E4
100
AcDbEntity
  8
0
100
AcDbLine
 62
2
  6
CONTINUOUS
 10
158.2691657918
 20
122.9723429201
 11
167.936975648
 21
119.3721425729
  0
LWPOLYLINE
  5
2E5
100
AcDbEntity
  8
0
100
AcDbPolyline
 62
7
  6
CONTINUOUS
 90
43
 70
0
 10
152.6885000134
 20
144.821668266
 10
152.6634794456
 20
144.7299023245
 10
152.6430849947
 20
144.6344284731
 10
152.6271066977
 20
144.5350242539
 10
152.6161279182
 20
144.4325401315
 10
152.6106069404
 20
144.3277639624
 10
152.610422914
 20
144.220645467
 10
152.6155516976
 20
144.1119361531
 10
152.6260982371
 20
143.9999932854
 10
152.6421096821
 20
143.8837236081
 10
152.663961468
 20
143.7622658062
 10
152.6919734414
 20
143.6345688033
 10
152.7264921104
 20
143.5001538414
 10
152.768140593
 20
143.3576509693
 10
152.8164604718
 20
143.208718954
 10
152.8716599598
 20
143.0534383505
 10
152.9321893456
 20
142.8951023952
 10
152.9966855268
 20
142.7368913616
 10
153.0645075918
 20
142.5790313846
 10
153.1345807477
 20
142.423013311
 10
153.206857649
 20
142.2681599253
 10
153.2808654436
 20
142.1146057489
 10
153.3569228411
 20
141.9614286495
 10
153.435039647
 20
141.8081960332
 10
153.5157749694
 20
141.653623293
 10
153.5995498545
 20
141.4966650069
 10
153.6868976737
 20
141.3362459988
 10
153.7783517119
 20
141.1712185443
 10
153.8744236775
 20
141.0008321443
 10
153.9758004268
 20
140.82395125
 10
154.0825374051
 20
140.6406434097
 10
154.1949421554
 20
140.45055393
 10
154.3129460864
 20
140.2538334069
 10
154.4365426233
 20
140.0505488334
 10
154.5658509196
 20
139.8406051443
 10
154.700838527
 20
139.6241268688
 10
154.8419506085
 20
139.4005349034
 10
154.9895513649
 20
139.1693825611
 10
155.1438599684
 20
138.930435607
 10
155.3052558524
 20
138.6832229667
 10
155.4736264614
 20
138.4280436047
 10
155.6489763174
 20
138.1650191824
 10
155.8313141438
 20
137.8942114577
  0
LWPOLYLINE
  5
2E6
100
AcDbEntity
  8
0
100
AcDbPolyline
 62
7
  6
CONTINUOUS
 90
5
 70
0
 10
152.688483122
 20
144.8216121582
 10
152.698167027
 20
144.8537802648
 10
152.7080272192
 20
144.8859647715
 10
152.7180636987
 20
144.9181656783
 10
152.7282764653
 20
144.9503829851
  0
LINE
  5
2E7
100
AcDbEntity
  8
0
100
AcDbLine
 62
2
  6
CONTINUOUS
 10
149.5609591652
 20
122.950573038
 11
158.2691657918
 21
122.9723429201
  0
LWPOLYLINE
  5
2E8
100
AcDbEntity
  8
BEZUGSACHSEN
100
AcDbPolyline
 62
9
  6
CONTINUOUS
 90
28
 70
0
 10
162.4689420847
 20
152.8427103661
 10
162.3297017999
 20
152.7379294845
 10
162.1998627859
 20
152.6161085888
 10
162.0843680612
 20
152.4798452296
 10
161.984363215
 20
152.3314592185
 10
161.8995092269
 20
152.1735489612
 10
161.828163487
 20
152.0077416363
 10
161.7682720116
 20
151.8344088981
 10
161.7181243588
 20
151.6541634006
 10
161.6763193103
 20
151.4667397447
 10
161.6418909332
 20
151.2724811122
 10
161.6140014123
 20
151.0712440268
 10
161.5919260027
 20
150.8633177201
 10
161.5750990962
 20
150.64905729
 10
161.5632080666
 20
150.4278806116
 10
161.5561309662
 20
150.1994542674
 10
161.5534497202
 20
149.9634015536
 10
161.5547557352
 20
149.7192943948
 10
161.5599740871
 20
149.4668342665
 10
161.5692172333
 20
149.2057897434
 10
161.5824850874
 20
148.935832488
 10
161.5996353788
 20
148.6566024018
 10
161.6206107405
 20
148.3677028643
 10
161.6455069666
 20
148.0688548253
 10
161.67448439
 20
147.7596272196
 10
161.7076605217
 20
147.4396354605
 10
161.7451450409
 20
147.1084103132
 10
161.7871270382
 20
146.7652775243
  0
LWPOLYLINE
  5
2E9
100
AcDbEntity
  8
BEZUGSACHSEN
100
AcDbPolyline
 62
9
  6
CONTINUOUS
 90
31
 70
0
 10
151.4395487376
 20
143.9805418159
 10
150.9119202329
 20
143.5952049835
 10
150.4260396394
 20
143.1780776518
 10
149.9788411615
 20
142.7260766998
 10
149.5795221865
 20
142.2484514908
 10
149.2356062543
 20
141.7517535924
 10
148.9490491122
 20
141.2409932709
 10
148.723800089
 20
140.7214100494
 10
148.5614019794
 20
140.1988677253
 10
148.4647174728
 20
139.6790795652
 10
148.4337362145
 20
139.1677366834
 10
148.4698979906
 20
138.6707298711
 10
148.5717150682
 20
138.1931733628
 10
148.7391445082
 20
137.7406250096
 10
148.9692917144
 20
137.3176447529
 10
149.2606332224
 20
136.9294289078
 10
149.6090126979
 20
136.5796262047
 10
150.0115285151
 20
136.2727303778
 10
150.4628930847
 20
136.0114027313
 10
150.9588757534
 20
135.7993034174
 10
151.4934040879
 20
135.6379296266
 10
152.061270955
 20
135.5298907033
 10
152.6556498007
 20
135.4755103383
 10
153.2703137561
 20
135.4762930335
 10
153.8982566318
 20
135.5313056998
 10
154.5326543502
 20
135.6407773288
 10
155.1667337071
 20
135.8027261804
 10
155.7945097272
 20
136.0168133154
 10
156.4067936471
 20
136.2783393225
 10
156.9910037423
 20
136.5818902622
 10
157.5513339209
 20
136.9292707809
  0
LINE
  5
2EA
100
AcDbEntity
  8
BEZUGSACHSEN
100
AcDbLine
 62
9
  6
CONTINUOUS
 10
163.3495441623
 20
152.0014761963
 11
164.5982297015
 21
152.8424683924
  0
LINE
  5
2EB
100
AcDbEntity
  8
BEZUGSACHSEN
100
AcDbLine
 62
9
  6
CONTINUOUS
 10
151.4395487376
 20
143.9805418159
 11
152.688483122
 21
144.8216121582
  0
LINE
  5
2EC
100
AcDbEntity
  8
BEZUGSACHSEN
100
AcDbLine
 62
9
  6
CONTINUOUS
 10
152.6368965315
 20
142.208944611
 11
152.8909216547
 21
141.7867569235
  0
LINE
  5
2ED
100
AcDbEntity
  8
BEZUGSACHSEN
100
AcDbLine
 62
9
  6
CONTINUOUS
 10
152.8909216547
 20
141.7867569235
 11
153.1571672951
 21
141.337152541
  0
LINE
  5
2EE
100
AcDbEntity
  8
BEZUGSACHSEN
100
AcDbLine
 62
9
  6
CONTINUOUS
 10
153.1571672951
 20
141.337152541
 11
153.4379137921
 21
140.8569907188
  0
LINE
  5
2EF
100
AcDbEntity
  8
BEZUGSACHSEN
100
AcDbLine
 62
9
  6
CONTINUOUS
 10
153.4379137921
 20
140.8569907188
 11
153.8902939231
 21
140.0735242987
  0
LINE
  5
2F0
100
AcDbEntity
  8
BEZUGSACHSEN
100
AcDbLine
 62
9
  6
CONTINUOUS
 10
153.8902939231
 20
140.0735242987
 11
154.3847421579
 21
139.2065399018
  0
LINE
  5
2F1
100
AcDbEntity
  8
BEZUGSACHSEN
100
AcDbLine
 62
9
  6
CONTINUOUS
 10
154.3847421579
 20
139.2065399018
 11
155.1192695267
 21
137.9029493869
  0
LINE
  5
2F2
100
AcDbEntity
  8
BEZUGSACHSEN
100
AcDbLine
 62
9
  6
CONTINUOUS
 10
155.1192695267
 20
137.9029493869
 11
155.9278941289
 21
136.4589819667
  0
LWPOLYLINE
  5
2F3
100
AcDbEntity
  8
BEZUGSACHSEN
100
AcDbPolyline
 62
9
  6
CONTINUOUS
 90
12
 70
0
 10
151.4393474984
 20
143.9804062953
 10
151.5270642126
 20
143.875623572
 10
151.6229439829
 20
143.7538017283
 10
151.7245275134
 20
143.6175399198
 10
151.8302429732
 20
143.4691563648
 10
151.9386384915
 20
143.3112474644
 10
152.049075671
 20
143.1454411888
 10
152.1617283824
 20
142.9721092512
 10
152.2765643783
 20
142.7918642893
 10
152.3940055281
 20
142.604440768
 10
152.5140351537
 20
142.4101820184
 10
152.6368965315
 20
142.208944611
  0
LINE
  5
2F4
100
AcDbEntity
  8
0
100
AcDbLine
 62
7
  6
CONTINUOUS
 10
155.8313141438
 20
137.8942114577
 11
156.5937776068
 21
136.7723459733
  0
LWPOLYLINE
  5
2F5
100
AcDbEntity
  8
BEZUGSACHSEN
100
AcDbPolyline
 62
9
  6
CONTINUOUS
 90
7
 70
0
 10
155.3175977477
 20
137.5482408395
 10
155.0181888737
 20
137.3248348132
 10
154.7477265151
 20
137.0777671264
 10
154.5108383577
 20
136.8112651757
 10
154.3115776236
 20
136.5298888834
 10
154.1533537192
 20
136.2384526759
 10
154.0466159368
 20
135.9619954467
  0
LWPOLYLINE
  5
2F6
100
AcDbEntity
  8
BEZUGSACHSEN
100
AcDbPolyline
 62
9
  6
CONTINUOUS
 90
30
 70
0
 10
160.9222797069
 20
141.8012698268
 10
160.8083916602
 20
141.7285755952
 10
160.6928110828
 20
141.662805893
 10
160.5762957194
 20
141.6044731146
 10
160.4589156319
 20
141.5536019804
 10
160.3405815121
 20
141.5102506589
 10
160.2226644833
 20
141.4749629732
 10
160.1064827862
 20
141.4480172497
 10
159.9920079624
 20
141.4291071969
 10
159.8800080699
 20
141.417998837
 10
159.7691039146
 20
141.4143792342
 10
159.6585183017
 20
141.4183744838
 10
159.5476224008
 20
141.4302328402
 10
159.435712814
 20
141.4502323968
 10
159.322436896
 20
141.4788151494
 10
159.2071918627
 20
141.5166739495
 10
159.090336428
 20
141.5640223575
 10
158.9712839947
 20
141.6211227956
 10
158.8511981042
 20
141.6872326508
 10
158.7304369568
 20
141.7615628014
 10
158.6092732912
 20
141.8431505767
 10
158.4883164792
 20
141.9308719351
 10
158.3667089118
 20
142.0246688641
 10
158.2438784853
 20
142.1240048764
 10
158.1189195163
 20
142.2287817264
 10
157.9909203284
 20
142.3395057621
 10
157.860585851
 20
142.4552328116
 10
157.727738318
 20
142.5755330517
 10
157.5935614737
 20
142.6988835255
 10
157.458884956
 20
142.8242134657
  0
LWPOLYLINE
  5
2F7
100
AcDbEntity
  8
BEZUGSACHSEN
100
AcDbPolyline
 62
9
  6
CONTINUOUS
 90
10
 70
0
 10
168.476881164
 20
146.4105731545
 10
168.8001135844
 20
146.6064949812
 10
169.1416389549
 20
146.7715803317
 10
169.4956136817
 20
146.9030045497
 10
169.8559811592
 20
146.9985189304
 10
170.2165753998
 20
147.0564891964
 10
170.5712265362
 20
147.0759234603
 10
170.9138663891
 20
147.0564891964
 10
171.2386322955
 20
146.9985189304
 10
171.4813393951
 20
146.9215879112
  0
LINE
  5
2F8
100
AcDbEntity
  8
BEZUGSACHSEN
100
AcDbLine
 62
9
  6
CONTINUOUS
 10
158.951848074
 20
137.770516447
 11
159.6811638844
 21
136.9291362055
  0
LINE
  5
2F9
100
AcDbEntity
  8
BEZUGSACHSEN
100
AcDbLine
 62
9
  6
CONTINUOUS
 10
151.9990662472
 20
145.7916030958
 11
152.7282764653
 21
144.9503829851
  0
LWPOLYLINE
  5
2FA
100
AcDbEntity
  8
BEZUGSACHSEN
100
AcDbPolyline
 62
9
  6
CONTINUOUS
 90
31
 70
0
 10
170.7108059601
 20
145.7917524931
 10
171.2395406224
 20
146.1780861126
 10
171.725951832
 20
146.595790882
 10
172.172968973
 20
147.0478782857
 10
172.5718038931
 20
147.5253138705
 10
172.9153067575
 20
148.0217017685
 10
173.2014919978
 20
148.5321377083
 10
173.4265382484
 20
149.0516155868
 10
173.5888030659
 20
149.5740450306
 10
173.6853488404
 20
150.0934968229
 10
173.7162397054
 20
150.6044813911
 10
173.6800446985
 20
151.1013108546
 10
173.5783114977
 20
151.5786509208
 10
173.411213749
 20
152.0306608778
 10
173.1814425869
 20
152.4531721035
 10
172.8903117775
 20
152.8413964381
 10
172.5421270713
 20
153.1913517825
 10
172.1398696335
 20
153.4983167343
 10
171.6888269865
 20
153.7597210439
 10
171.1933005317
 20
153.971908606
 10
170.6592297981
 20
154.1334155847
 10
170.091704825
 20
154.2416841217
 10
169.4975754823
 20
154.2963401796
 10
168.8830053615
 20
154.295839232
 10
168.2551433372
 20
154.2411348875
 10
167.6209999163
 20
154.132015978
 10
166.9871537934
 20
153.9704323078
 10
166.3596819622
 20
153.756866741
 10
165.7471000326
 20
153.4955089295
 10
165.1612669383
 20
153.1912533058
 10
164.5982297015
 20
152.8424683924
  0
LINE
  5
2FB
100
AcDbEntity
  8
BEZUGSACHSEN
100
AcDbLine
 62
7
  6
CONTINUOUS
 10
157.2452127743
 20
137.1628711353
 11
157.2452576903
 21
137.1629014331
  0
LINE
  5
2FC
100
AcDbEntity
  8
BEZUGSACHSEN
100
AcDbLine
 62
9
  6
CONTINUOUS
 10
168.476881164
 20
146.4105731545
 11
167.9631647679
 21
146.0646025363
  0
LINE
  5
2FD
100
AcDbEntity
  8
BEZUGSACHSEN
100
AcDbLine
 62
9
  6
CONTINUOUS
 10
155.8313141438
 20
137.8942114577
 11
155.3175977477
 21
137.5482408395
  0
LINE
  5
2FE
100
AcDbEntity
  8
0
100
AcDbLine
 62
7
  6
CONTINUOUS
 10
170.4045411067
 20
146.025233748
 11
169.7317179391
 21
145.5721101005
  0
LINE
  5
2FF
100
AcDbEntity
  8
0
100
AcDbLine
 62
7
  6
CONTINUOUS
 10
157.9180808579
 20
137.6160250806
 11
157.2452576903
 21
137.1629014331
  0
LINE
  5
300
100
AcDbEntity
  8
BEZUGSACHSEN
100
AcDbLine
 62
9
  6
CONTINUOUS
 10
157.5513339209
 20
136.9292707809
 11
158.800433008
 21
137.7705191358
  0
LINE
  5
301
100
AcDbEntity
  8
BEZUGSACHSEN
100
AcDbLine
 62
9
  6
CONTINUOUS
 10
169.4614939548
 20
144.950383111
 11
170.7108059601
 21
145.7917524931
  0
LWPOLYLINE
  5
302
100
AcDbEntity
  8
BEZUGSACHSEN
100
AcDbPolyline
 62
7
  6
CONTINUOUS
 90
20
 70
0
 10
157.2452127743
 20
137.1628711353
 10
157.0341490913
 20
137.0259139175
 10
156.6290960978
 20
136.7900916862
 10
156.2180419071
 20
136.5835582409
 10
155.8073311531
 20
136.4072177021
 10
155.4023903437
 20
136.2608504304
 10
155.0085416904
 20
136.1436288266
 10
154.6306317596
 20
136.0540347127
 10
154.2722829726
 20
135.9898376339
 10
153.9374276701
 20
135.9485240943
 10
153.6264271581
 20
135.9269825376
 10
153.3402445208
 20
135.9223438209
 10
153.078920983
 20
135.9318383155
 10
152.8416233477
 20
135.9529493479
 10
152.6311640844
 20
135.9828641294
 10
152.4479886756
 20
136.0188154161
 10
152.2976459343
 20
136.0565963034
 10
152.1837318633
 20
136.0915235424
 10
152.1078464291
 20
136.1189181512
 10
152.0749228016
 20
136.1324071599
  0
LWPOLYLINE
  5
303
100
AcDbEntity
  8
0
100
AcDbPolyline
 62
7
  6
CONTINUOUS
 90
10
 70
0
 10
157.9180099614
 20
137.6160602783
 10
157.9309193824
 20
137.6244145839
 10
157.9982754878
 20
137.661456285
 10
158.0769075739
 20
137.6931048701
 10
158.1692977288
 20
137.7197020294
 10
158.2744596653
 20
137.740795792
 10
158.3933627294
 20
137.7556920307
 10
158.5223790194
 20
137.7653696224
 10
158.6576949725
 20
137.7703280768
 10
158.800433008
 20
137.7705191358
  0
LINE
  5
304
100
AcDbEntity
  8
FASEN
100
AcDbLine
 62
9
  6
CONTINUOUS
 10
175.2018500623
 20
134.8691455656
 11
174.4603290575
 21
134.7959982348
  0
LINE
  5
305
100
AcDbEntity
  8
FASEN
100
AcDbLine
 62
7
  6
CONTINUOUS
 10
165.1492795224
 20
133.2731197162
 11
165.7130280624
 21
133.239262617
  0
LWPOLYLINE
  5
306
100
AcDbEntity
  8
BEZUGSACHSEN
100
AcDbPolyline
 62
9
  6
CONTINUOUS
 90
3
 70
0
 10
162.1503218541
 20
136.4841596294
 10
162.3200594971
 20
136.3701337133
 10
162.4935745231
 20
136.2486175655
  0
LWPOLYLINE
  5
307
100
AcDbEntity
  8
BEZUGSACHSEN
100
AcDbPolyline
 62
7
  6
CONTINUOUS
 90
3
 70
0
 10
162.4935745231
 20
136.2486175655
 10
162.5834412095
 20
136.1484447781
 10
162.6539370093
 20
136.0763110796
  0
LINE
  5
308
100
AcDbEntity
  8
BEZUGSACHSEN
100
AcDbLine
 62
7
  6
CONTINUOUS
 10
162.2751215306
 20
136.500637375
 11
162.4935745231
 21
136.2486175655
  0
LINE
  5
309
100
AcDbEntity
  8
BEZUGSACHSEN
100
AcDbLine
 62
7
  6
CONTINUOUS
 10
165.1492736062
 20
133.2731265415
 11
163.2448521218
 21
135.4701755915
  0
LINE
  5
30A
100
AcDbEntity
  8
BEZUGSACHSEN
100
AcDbLine
 62
9
  6
CONTINUOUS
 10
157.3633888649
 20
142.8520070721
 11
157.0634984832
 21
143.1979776903
  0
LINE
  5
30B
100
AcDbEntity
  8
BEZUGSACHSEN
100
AcDbLine
 62
7
  6
CONTINUOUS
 10
165.7130280624
 20
133.239262617
 11
163.3793658217
 21
135.9315082417
  0
LWPOLYLINE
  5
30C
100
AcDbEntity
  8
FASEN
100
AcDbPolyline
 62
7
  6
CONTINUOUS
 90
15
 70
0
 10
167.4412470219
 20
129.6426418927
 10
167.3340635007
 20
129.8548367282
 10
167.2105561511
 20
130.0872730498
 10
167.0719509003
 20
130.3378935934
 10
166.9198070638
 20
130.6035808425
 10
166.7557904508
 20
130.8810122379
 10
166.5822455572
 20
131.1664663678
 10
166.4015292731
 20
131.4558460406
 10
166.2161606127
 20
131.7454199786
 10
166.0285721098
 20
132.0312239348
 10
165.8415292675
 20
132.3093982398
 10
165.6574846412
 20
132.5760630447
 10
165.4791971884
 20
132.8277474352
 10
165.3094175529
 20
133.0611334
 10
165.1492795224
 20
133.2731197162
  0
LINE
  5
30D
100
AcDbEntity
  8
FASEN
100
AcDbLine
 62
7
  6
CONTINUOUS
 10
172.9047620631
 20
118.5091688096
 11
167.4412470219
 21
129.6426418927
  0
LINE
  5
30E
100
AcDbEntity
  8
0
100
AcDbLine
 62
7
  6
CONTINUOUS
 10
162.0824565023
 20
146.367219564
 11
162.2040611293
 21
145.6500588128
  0
LWPOLYLINE
  5
30F
100
AcDbEntity
  8
0
100
AcDbPolyline
 62
7
  6
CONTINUOUS
 90
41
 70
0
 10
162.2040611293
 20
145.6500588128
 10
162.2722717686
 20
145.235787764
 10
162.3051242491
 20
145.0281582507
 10
162.3366282585
 20
144.8198469004
 10
162.3665717676
 20
144.6106255636
 10
162.3941320912
 20
144.4000800866
 10
162.4190530441
 20
144.1878389891
 10
162.4395630728
 20
143.973464653
 10
162.4548687971
 20
143.7559871416
 10
162.4620522128
 20
143.5364342279
 10
162.4591851044
 20
143.3141949096
 10
162.4428632216
 20
143.092805219
 10
162.4099262016
 20
142.8754474754
 10
162.3579382039
 20
142.6619126967
 10
162.2840065547
 20
142.4525071992
 10
162.1868294698
 20
142.247845963
 10
162.0642897668
 20
142.0475793854
 10
161.9164428684
 20
141.8537833235
 10
161.7396998248
 20
141.666066418
 10
161.5430565871
 20
141.4907515354
 10
161.3319466231
 20
141.3345078699
 10
161.1107611367
 20
141.1988654647
 10
160.8821493229
 20
141.0876057453
 10
160.6544669961
 20
141.0032619656
 10
160.436557379
 20
140.9521264809
 10
160.2267236952
 20
140.9301523585
 10
160.0271524274
 20
140.9362185171
 10
159.8356691702
 20
140.9677160511
 10
159.6517726026
 20
141.0223669315
 10
159.4738800806
 20
141.0971976355
 10
159.3003787423
 20
141.1896243261
 10
159.131902551
 20
141.2954231319
 10
158.9690574548
 20
141.4099788007
 10
158.8109702341
 20
141.5314727226
 10
158.6574312834
 20
141.6565509635
 10
158.5073991436
 20
141.7848319161
 10
158.3599619502
 20
141.9147378349
 10
158.2146659849
 20
142.0462313614
 10
158.0708657401
 20
142.1787259789
 10
157.9282772946
 20
142.3121497762
 10
157.7864880891
 20
142.4461983125
  0
LINE
  5
310
100
AcDbEntity
  8
BEZUGSACHSEN
100
AcDbLine
 62
9
  6
CONTINUOUS
 10
161.7871270382
 20
146.7652775243
 11
161.8859219581
 21
146.0145022759
  0
LWPOLYLINE
  5
311
100
AcDbEntity
  8
BEZUGSACHSEN
100
AcDbPolyline
 62
9
  6
CONTINUOUS
 90
26
 70
0
 10
161.8859219581
 20
146.0145022759
 10
161.9361775083
 20
145.6145247033
 10
161.9598189827
 20
145.414746707
 10
161.9820558171
 20
145.2158461855
 10
162.0024140806
 20
145.0184217815
 10
162.0203184991
 20
144.8225938603
 10
162.035322872
 20
144.628736701
 10
162.0468959159
 20
144.4369000958
 10
162.0539343118
 20
144.2466893136
 10
162.055373829
 20
144.0590933054
 10
162.0503186628
 20
143.8744057454
 10
162.0378047923
 20
143.6950091347
 10
162.0172892041
 20
143.523751609
 10
161.9885253515
 20
143.3607982099
 10
161.9522509589
 20
143.2089555572
 10
161.9082681296
 20
143.0644817138
 10
161.8563834593
 20
142.9254513396
 10
161.7954467762
 20
142.789247373
 10
161.7230772944
 20
142.6522660415
 10
161.6393089161
 20
142.5162638374
 10
161.5430398678
 20
142.3812101319
 10
161.4354451537
 20
142.2502552053
 10
161.3184539847
 20
142.1259397817
 10
161.1930009723
 20
142.00905632
 10
161.0605083664
 20
141.9006450203
 10
160.9222797069
 20
141.8012698268
  0
LWPOLYLINE
  5
312
100
AcDbEntity
  8
BEZUGSACHSEN
100
AcDbPolyline
 62
9
  6
CONTINUOUS
 90
17
 70
0
 10
159.6810349921
 20
136.9292849031
 10
159.8209576671
 20
137.0135801181
 10
159.9686694528
 20
137.0819109505
 10
160.1205332431
 20
137.130746353
 10
160.274106458
 20
137.1594538244
 10
160.4272649045
 20
137.1692210336
 10
160.5796507973
 20
137.1621737669
 10
160.7318822638
 20
137.1403360456
 10
160.8840707532
 20
137.1056612632
 10
161.0368512794
 20
137.0595227439
 10
161.1905775739
 20
137.003022861
 10
161.3458530376
 20
136.936893383
 10
161.5026561773
 20
136.862003711
 10
161.6609486059
 20
136.779203229
 10
161.8214571456
 20
136.6886479252
 10
161.9843987415
 20
136.5903230892
 10
162.1503218541
 20
136.4841596294
  0
LWPOLYLINE
  5
313
100
AcDbEntity
  8
BEZUGSACHSEN
100
AcDbPolyline
 62
9
  6
CONTINUOUS
 90
11
 70
0
 10
157.2452576903
 20
137.1629014331
 10
157.2540862883
 20
137.1672271133
 10
157.2695179528
 20
137.169206034
 10
157.2884638358
 20
137.1656191576
 10
157.3114648725
 20
137.1557011093
 10
157.3392615508
 20
137.1384898013
 10
157.3721152006
 20
137.1132153811
 10
157.4103032434
 20
137.0791955909
 10
157.4534100786
 20
137.0366230377
 10
157.5005920118
 20
136.9864202957
 10
157.5513339208
 20
136.9292707811
  0
LWPOLYLINE
  5
314
100
AcDbEntity
  8
BEZUGSACHSEN
100
AcDbPolyline
 62
7
  6
CONTINUOUS
 90
11
 70
0
 10
163.3793658217
 20
135.9315082417
 10
163.2928604347
 20
135.9262015235
 10
163.2192350372
 20
135.911847331
 10
163.1568259361
 20
135.8888572055
 10
163.1106242107
 20
135.8559965237
 10
163.0854323604
 20
135.8115040524
 10
163.0801524319
 20
135.7573711635
 10
163.0964653804
 20
135.6943575662
 10
163.13083698
 20
135.624397015
 10
163.179921585
 20
135.5499498749
 10
163.2448344106
 20
135.4701960241
  0
LWPOLYLINE
  5
315
100
AcDbEntity
  8
BEZUGSACHSEN
100
AcDbPolyline
 62
9
  6
CONTINUOUS
 90
9
 70
0
 10
163.2448521218
 20
135.4701755915
 10
162.6939357458
 20
135.5039463703
 10
162.1679918852
 20
135.5821431728
 10
161.6647739975
 20
135.705426316
 10
161.1910217107
 20
135.8718148493
 10
160.7511885098
 20
136.0807927641
 10
160.3498862811
 20
136.3286255512
 10
159.9939734536
 20
136.6109183843
 10
159.6811638844
 20
136.9291362055
  0
LWPOLYLINE
  5
316
100
AcDbEntity
  8
BEZUGSACHSEN
100
AcDbPolyline
 62
7
  6
CONTINUOUS
 90
7
 70
0
 10
163.3154216938
 20
135.9471137162
 10
163.2698656922
 20
135.952071704
 10
163.044182089
 20
135.9841607956
 10
162.8516884437
 20
136.022662027
 10
162.6967105
 20
136.0627365325
 10
162.5831640634
 20
136.0987715024
 10
162.5548163794
 20
136.1089268258
  0
LINE
  5
317
100
AcDbEntity
  8
BEZUGSACHSEN
100
AcDbLine
 62
7
  6
CONTINUOUS
 10
163.3175786856
 20
135.9438081353
 11
163.3793658217
 21
135.9315082417
  0
LWPOLYLINE
  5
318
100
AcDbEntity
  8
BEZUGSACHSEN
100
AcDbPolyline
 62
9
  6
CONTINUOUS
 90
42
 70
0
 10
156.8700286747
 20
143.3816417882
 10
156.6820749842
 20
143.5570397083
 10
156.4998926663
 20
143.7241473106
 10
156.3231782023
 20
143.8834313333
 10
156.151723611
 20
144.0352123157
 10
155.9853484548
 20
144.1797641972
 10
155.8238634359
 20
144.317375752
 10
155.6671047234
 20
144.4483419622
 10
155.5148745037
 20
144.5729791856
 10
155.367062162
 20
144.6914923921
 10
155.2234786446
 20
144.8040724275
 10
155.0839344769
 20
144.9108432177
 10
154.9482578336
 20
145.0119530822
 10
154.8163025199
 20
145.107609594
 10
154.6879408007
 20
145.1980620715
 10
154.5630873125
 20
145.2834855448
 10
154.4415847179
 20
145.3640107315
 10
154.3232201429
 20
145.4396836516
 10
154.2078053954
 20
145.5105312029
 10
154.0950878307
 20
145.5766804538
 10
153.9848680908
 20
145.6383385895
 10
153.8771008826
 20
145.6956236163
 10
153.7715665932
 20
145.748611907
 10
153.6682886699
 20
145.7972376087
 10
153.5672098223
 20
145.8414149174
 10
153.4682822017
 20
145.8810927253
 10
153.3715016248
 20
145.9162171682
 10
153.2768113813
 20
145.9467700352
 10
153.1842504951
 20
145.9726777408
 10
153.0935725791
 20
145.9939622353
 10
153.0048028851
 20
146.0105707272
 10
152.9172079326
 20
146.0224946218
 10
152.8303793884
 20
146.0295578666
 10
152.7432428033
 20
146.0315385811
 10
152.6547247216
 20
146.0279536428
 10
152.5643320576
 20
146.0180376635
 10
152.4711270513
 20
146.0008284898
 10
152.3760992355
 20
145.9755562049
 10
152.279886188
 20
145.9415389533
 10
152.1840759273
 20
145.8989674677
 10
152.0902656551
 20
145.8487612233
 10
151.9990662471
 20
145.791603096
  0
LWPOLYLINE
  5
319
100
AcDbEntity
  8
BEZUGSACHSEN
100
AcDbPolyline
 62
9
  6
CONTINUOUS
 90
3
 70
0
 10
157.458884956
 20
142.8242134657
 10
157.1933787986
 20
143.0745126317
 10
156.8700286747
 20
143.3816417882
  0
LWPOLYLINE
  5
31A
100
AcDbEntity
  8
0
100
AcDbPolyline
 62
7
  6
CONTINUOUS
 90
3
 70
0
 10
157.7864880891
 20
142.4461983125
 10
157.5041832318
 20
142.7161518984
 10
157.3633888649
 20
142.8520070721
  0
LWPOLYLINE
  5
31B
100
AcDbEntity
  8
0
100
AcDbPolyline
 62
7
  6
CONTINUOUS
 90
35
 70
0
 10
157.3633888649
 20
142.8520070721
 10
157.124653334
 20
143.0814186272
 10
156.8940590494
 20
143.298805801
 10
156.6718444074
 20
143.5040989603
 10
156.4575399452
 20
143.6979423559
 10
156.250859424
 20
143.8807809832
 10
156.051463296
 20
144.0530876509
 10
155.8589865311
 20
144.2153671211
 10
155.6731985435
 20
144.3679144249
 10
155.4938003625
 20
144.5111722014
 10
155.3206205519
 20
144.6451580802
 10
155.1534526469
 20
144.7699136107
 10
154.9921104076
 20
144.8857651596
 10
154.8364095817
 20
144.9930596303
 10
154.6861350953
 20
145.0917501693
 10
154.5411171462
 20
145.1819200159
 10
154.4010607476
 20
145.2634862694
 10
154.2657010315
 20
145.3363666176
 10
154.1348300178
 20
145.4005940801
 10
154.00797283
 20
145.4564158562
 10
153.8857187223
 20
145.5030736985
 10
153.7684361239
 20
145.5400032897
 10
153.6563580066
 20
145.5668948877
 10
153.5498508569
 20
145.5833223219
 10
153.4489258572
 20
145.5890969105
 10
153.3540441803
 20
145.5841381699
 10
153.2642889403
 20
145.5677082928
 10
153.1791390127
 20
145.53958056
 10
153.0981925581
 20
145.498072302
 10
153.0204548856
 20
145.4412935574
 10
152.9477742943
 20
145.369599107
 10
152.8813362477
 20
145.2815911584
 10
152.8220854752
 20
145.1808207509
 10
152.7711256477
 20
145.070750231
 10
152.7282764653
 20
144.9503829851
  0
LWPOLYLINE
  5
31C
100
AcDbEntity
  8
FASEN
100
AcDbPolyline
 62
7
  6
CONTINUOUS
 90
15
 70
0
 10
167.7161963066
 20
130.2540529234
 10
167.6260087705
 20
130.4314633302
 10
167.5222630078
 20
130.6234349798
 10
167.4042632786
 20
130.8312816688
 10
167.2740968023
 20
131.0510620073
 10
167.1328953006
 20
131.2804231666
 10
166.9828295271
 20
131.5159132602
 10
166.8257034423
 20
131.7543855984
 10
166.6637491466
 20
131.9925717631
 10
166.4990322183
 20
132.2271981569
 10
166.3338561843
 20
132.4551336289
 10
166.1704909429
 20
132.6730469439
 10
166.0111029596
 20
132.878264758
 10
165.8589807201
 20
133.0665303463
 10
165.7130280624
 20
133.239262617
  0
LINE
  5
31D
100
AcDbEntity
  8
FASEN
100
AcDbLine
 62
7
  6
CONTINUOUS
 10
173.533331607
 20
118.399977516
 11
167.7161963066
 21
130.2540529234
  0
LWPOLYLINE
  5
31E
100
AcDbEntity
  8
0
100
AcDbPolyline
 62
7
  6
CONTINUOUS
 90
8
 70
0
 10
169.451814945
 20
144.9182298078
 10
169.5092779874
 20
145.107649158
 10
169.5546646536
 20
145.2438146696
 10
169.5983796384
 20
145.3593273147
 10
169.6399872741
 20
145.4517635755
 10
169.6796278075
 20
145.5176895676
 10
169.7174144628
 20
145.5610611591
 10
169.7317018691
 20
145.5726153016
  0
LWPOLYLINE
  5
31F
100
AcDbEntity
  8
0
100
AcDbPolyline
 62
7
  6
CONTINUOUS
 90
4
 70
0
 10
169.451814945
 20
144.9182298078
 10
169.4419589786
 20
144.8860600141
 10
169.4319260557
 20
144.85387373
 10
169.3931215859
 20
144.7313714325
  0
LINE
  5
320
100
AcDbEntity
  8
0
100
AcDbLine
 62
7
  6
CONTINUOUS
 10
158.951848074
 20
137.770516447
 11
158.8759954991
 21
137.7702278422
  0
LWPOLYLINE
  5
321
100
AcDbEntity
  8
0
100
AcDbPolyline
 62
7
  6
CONTINUOUS
 90
25
 70
0
 10
158.9517797609
 20
137.7705186295
 10
159.1298637089
 20
137.7697803634
 10
159.3093271157
 20
137.762366663
 10
159.4910037366
 20
137.7479531543
 10
159.6711665049
 20
137.7262760648
 10
159.8467161793
 20
137.6962603325
 10
160.0167067437
 20
137.6592873398
 10
160.1789562027
 20
137.6161002164
 10
160.3344718374
 20
137.5676335298
 10
160.483344194
 20
137.5151068845
 10
160.6264270551
 20
137.4589213185
 10
160.7646273203
 20
137.3998648951
 10
160.8979962243
 20
137.3383953906
 10
161.0267899982
 20
137.275216664
 10
161.1513653148
 20
137.2105876236
 10
161.2720730409
 20
137.1450102207
 10
161.3892075894
 20
137.0786056818
 10
161.5028782493
 20
137.0118486199
 10
161.6139917813
 20
136.9442754846
 10
161.7230825288
 20
136.8758277661
 10
161.8313356591
 20
136.8058473217
 10
161.9398101526
 20
136.7338602961
 10
162.0493473106
 20
136.6593330417
 10
162.16127761
 20
136.581509956
 10
162.2751215306
 20
136.500637375
  0
LINE
  5
322
100
AcDbEntity
  8
0
100
AcDbLine
 62
7
  6
CONTINUOUS
 10
158.8759954991
 20
137.7702278422
 11
158.800433008
 21
137.7705191358
  0
LWPOLYLINE
  5
323
100
AcDbEntity
  8
0
100
AcDbPolyline
 62
7
  6
CONTINUOUS
 90
28
 70
0
 10
169.0192542815
 20
141.0425826864
 10
169.0158799821
 20
141.2062009082
 10
169.0134772008
 20
141.366441624
 10
169.0119877573
 20
141.5227395165
 10
169.0115191178
 20
141.6767146328
 10
169.0121042222
 20
141.8294787035
 10
169.01385891
 20
141.9820690023
 10
169.016836403
 20
142.1359080544
 10
169.0211851176
 20
142.2910282991
 10
169.0269547709
 20
142.4480736088
 10
169.0344179612
 20
142.6066670682
 10
169.0438184206
 20
142.7674218461
 10
169.0551891832
 20
142.9280178822
 10
169.0687647225
 20
143.0871789834
 10
169.0841871527
 20
143.2422711633
 10
169.1013469987
 20
143.3901993204
 10
169.119918391
 20
143.5308863836
 10
169.1395932823
 20
143.6626445459
 10
169.160358674
 20
143.7871465752
 10
169.1820441049
 20
143.9050723812
 10
169.2047751783
 20
144.017766396
 10
169.2285104975
 20
144.1264841876
 10
169.2534381225
 20
144.2322334366
 10
169.2797705154
 20
144.3366914914
 10
169.3071796436
 20
144.4391411511
 10
169.3356335306
 20
144.5397535326
 10
169.3644840318
 20
144.6375168807
 10
169.3931215859
 20
144.7313714325
  0
LWPOLYLINE
  5
324
100
AcDbEntity
  8
BEZUGSACHSEN
100
AcDbPolyline
 62
9
  6
CONTINUOUS
 90
29
 70
0
 10
169.237707274
 20
140.7905628769
 10
169.2356365813
 20
140.9674694646
 10
169.2355444574
 20
141.1379302534
 10
169.2373995891
 20
141.3017094448
 10
169.2412611692
 20
141.4594296629
 10
169.2471936077
 20
141.6115017002
 10
169.255219149
 20
141.758321492
 10
169.2652825397
 20
141.9003193084
 10
169.2773291302
 20
142.0376786751
 10
169.2914347691
 20
142.1708197181
 10
169.3076342427
 20
142.2995767623
 10
169.3260164527
 20
142.4239087626
 10
169.3466438985
 20
142.5438324507
 10
169.3695543309
 20
142.6593014097
 10
169.3947917159
 20
142.7703588985
 10
169.422390144
 20
142.8769302646
 10
169.4524458744
 20
142.9792313979
 10
169.4849597031
 20
143.0771533614
 10
169.520315509
 20
143.1714729926
 10
169.5588490037
 20
143.2625434005
 10
169.6012481804
 20
143.3513211609
 10
169.6483784555
 20
143.4386113648
 10
169.7010856135
 20
143.524620004
 10
169.7606272764
 20
143.6099293348
 10
169.8269907965
 20
143.6930236644
 10
169.9002482682
 20
143.7728217285
 10
169.9795057939
 20
143.8479120377
 10
170.0633297266
 20
143.9171946918
 10
170.1509108295
 20
143.9803921735
  0
LWPOLYLINE
  5
325
100
AcDbEntity
  8
0
100
AcDbPolyline
 62
7
  6
CONTINUOUS
 90
14
 70
0
 10
164.1250636009
 20
135.0712288283
 10
164.5335609841
 20
135.3704715423
 10
165.0611761115
 20
135.6965249477
 10
165.6147892572
 20
135.9818664892
 10
166.1880586258
 20
136.2232231214
 10
166.7743957302
 20
136.4178158356
 10
167.3670659144
 20
136.5634057284
 10
167.9592609222
 20
136.6583170748
 10
168.5441772834
 20
136.7014567092
 10
169.1150946591
 20
136.6923266877
 10
169.6654532398
 20
136.631030085
 10
170.1889292992
 20
136.5182698557
 10
170.679508032
 20
136.3553407739
 10
171.0339895215
 20
136.1897027907
  0
LWPOLYLINE
  5
326
100
AcDbEntity
  8
BEZUGSACHSEN
100
AcDbPolyline
 62
7
  6
CONTINUOUS
 90
21
 70
0
 10
170.1234985726
 20
140.4734535531
 10
170.0668673959
 20
140.4857665813
 10
170.0184993627
 20
140.4892381777
 10
169.9795486705
 20
140.4821850507
 10
169.9465527273
 20
140.4696570752
 10
169.9166398326
 20
140.4559072037
 10
169.8891915086
 20
140.4416429112
 10
169.8627909482
 20
140.4289115952
 10
169.8369614381
 20
140.41794644
 10
169.8110348582
 20
140.4095201804
 10
169.7841686218
 20
140.4040615618
 10
169.7557530711
 20
140.4017802738
 10
169.7244212991
 20
140.4041062192
 10
169.688951168
 20
140.4118017628
 10
169.6482987128
 20
140.4270792089
 10
169.6014717581
 20
140.4515085401
 10
169.5470927967
 20
140.4877790864
 10
169.4833010368
 20
140.5388566168
 10
169.4105541562
 20
140.6054817974
 10
169.3286692453
 20
140.6896000411
 10
169.237707274
 20
140.7905628769
  0
LWPOLYLINE
  5
327
100
AcDbEntity
  8
BEZUGSACHSEN
100
AcDbPolyline
 62
9
  6
CONTINUOUS
 90
25
 70
0
 10
161.8337387216
 20
146.4105731545
 10
161.6315951486
 20
146.6064949812
 10
161.3921002416
 20
146.7715803317
 10
161.1193518249
 20
146.9030045497
 10
160.8180166996
 20
146.9985189304
 10
160.4932507931
 20
147.0564891964
 10
160.1506109403
 20
147.0759234603
 10
159.7959598039
 20
147.0564891964
 10
159.4353655633
 20
146.9985189304
 10
159.0749980858
 20
146.9030045497
 10
158.721023359
 20
146.7715803317
 10
158.3794979885
 20
146.6064949812
 10
158.0562655681
 20
146.4105731545
 10
157.7568566942
 20
146.1871671281
 10
157.4863943356
 20
145.9400994413
 10
157.2495061782
 20
145.6735974907
 10
157.0502454441
 20
145.3922211984
 10
156.8920215397
 20
145.1007849908
 10
156.7775417198
 20
144.8042754224
 10
156.708764766
 20
144.5077658539
 10
156.6868674709
 20
144.2163296464
 10
156.7122245035
 20
143.9349533541
 10
156.7844019977
 20
143.6684514034
 10
156.9021649767
 20
143.4213837166
 10
157.0634984832
 20
143.1979776903
  0
LINE
  5
328
100
AcDbEntity
  8
BEZUGSACHSEN
100
AcDbLine
 62
9
  6
CONTINUOUS
 10
162.1336291033
 20
146.0646025363
 11
161.8337387216
 21
146.4105731545
  0
LINE
  5
329
100
AcDbEntity
  8
BEZUGSACHSEN
100
AcDbLine
 62
7
  6
CONTINUOUS
 10
176.0628891886
 20
125.6218333378
 11
172.6754388667
 21
132.1387180807
  0
LINE
  5
32A
100
AcDbEntity
  8
BEZUGSACHSEN
100
AcDbLine
 62
7
  6
CONTINUOUS
 10
179.4933406694
 20
118.998254443
 11
176.0628891886
 21
125.6218333378
  0
LINE
  5
32B
100
AcDbEntity
  8
0
100
AcDbLine
 62
7
  6
CONTINUOUS
 10
169.0192542815
 20
141.0425826864
 11
170.2446136384
 21
138.1006306727
  0
LINE
  5
32C
100
AcDbEntity
  8
0
100
AcDbLine
 62
7
  6
CONTINUOUS
 10
170.2446136384
 20
138.1006306727
 11
171.0554497754
 21
136.1375739058
  0
LINE
  5
32D
100
AcDbEntity
  8
0
100
AcDbLine
 62
7
  6
CONTINUOUS
 10
171.0554497754
 20
136.1375739058
 11
171.7362349633
 21
134.4737649479
  0
LINE
  5
32E
100
AcDbEntity
  8
0
100
AcDbLine
 62
7
  6
CONTINUOUS
 10
171.7362349633
 20
134.4737649479
 11
172.3069732145
 21
133.0621820712
  0
LINE
  5
32F
100
AcDbEntity
  8
0
100
AcDbLine
 62
7
  6
CONTINUOUS
 10
172.3069732145
 20
133.0621820712
 11
172.6754388667
 21
132.1387180807
  0
LWPOLYLINE
  5
330
100
AcDbEntity
  8
BEZUGSACHSEN
100
AcDbPolyline
 62
7
  6
CONTINUOUS
 90
18
 70
0
 10
172.5484819437
 20
148.5528195202
 10
172.5547252359
 20
148.5870350091
 10
172.5545308259
 20
148.5871322193
 10
172.5434074178
 20
148.547273106
 10
172.5171937823
 20
148.4671743873
 10
172.4740278749
 20
148.3542565974
 10
172.4126662303
 20
148.2151384927
 10
172.3311004367
 20
148.0530211053
 10
172.2282575926
 20
147.8722899129
 10
172.102846124
 20
147.676063877
 10
171.9543672331
 20
147.4681065704
 10
171.7817648906
 20
147.2508613218
 10
171.5845447809
 20
147.0271967392
 10
171.3624932487
 20
146.7999740815
 10
171.115802665
 20
146.5721551295
 10
170.8446880864
 20
146.3464340215
 10
170.5498899734
 20
146.1257017177
 10
170.4045517491
 20
146.0252409126
  0
LINE
  5
331
100
AcDbEntity
  8
FASEN
100
AcDbLine
 62
9
  6
CONTINUOUS
 10
167.4412470219
 20
129.6426418927
 11
167.7161963066
 21
130.2540529234
  0
LWPOLYLINE
  5
332
100
AcDbEntity
  8
FASEN
100
AcDbPolyline
 62
9
  6
CONTINUOUS
 90
41
 70
0
 10
172.7158615753
 20
138.3689676171
 10
173.5713064737
 20
139.3099175175
 10
174.3453823333
 20
140.2829370624
 10
175.0408963351
 20
141.2921060712
 10
175.649426936
 20
142.3251850854
 10
176.1639360437
 20
143.3730967693
 10
176.5830804858
 20
144.4304345745
 10
176.9035955073
 20
145.491135797
 10
177.1242077634
 20
146.5480915682
 10
177.242468704
 20
147.5942961379
 10
177.2586391899
 20
148.6233774468
 10
177.1716584307
 20
149.6286819545
 10
176.9830428292
 20
150.6040483539
 10
176.693026315
 20
151.5429556408
 10
176.3043955174
 20
152.439829366
 10
175.8186874259
 20
153.2885573474
 10
175.2398848903
 20
154.0842317805
 10
174.5707911929
 20
154.8212742539
 10
173.8164820255
 20
155.495584407
 10
172.9809536402
 20
156.1022668475
 10
172.070247638
 20
156.6381282589
 10
171.0894531227
 20
157.0990782829
 10
170.0454238384
 20
157.4829126522
 10
168.9442123961
 20
157.7864501822
 10
167.7933112988
 20
158.0085312663
 10
166.5995834674
 20
158.1469644008
 10
165.3709702591
 20
158.2016640924
 10
164.1149709902
 20
158.1714840806
 10
162.8397747041
 20
158.0574151628
 10
161.5533271493
 20
157.8593853841
 10
160.2638575264
 20
157.5794367406
 10
158.9795566276
 20
157.2185734058
 10
157.7084854261
 20
156.7798368937
 10
156.4588724166
 20
156.2652821519
 10
155.2384058273
 20
155.678873054
 10
154.0551426627
 20
155.023662812
 10
152.9162050883
 20
154.3044383585
 10
151.8292763937
 20
153.5251749813
 10
150.8007302112
 20
152.691360828
 10
149.8376812762
 20
151.8077941259
 10
148.9455895688
 20
150.8805199241
  0
LWPOLYLINE
  5
333
100
AcDbEntity
  8
BEZUGSACHSEN
100
AcDbPolyline
 62
7
  6
CONTINUOUS
 90
11
 70
0
 10
170.811422375
 20
140.5660371052
 10
170.7404960848
 20
140.6405677616
 10
170.6691070533
 20
140.6984876077
 10
170.5969764968
 20
140.7406375601
 10
170.5249407663
 20
140.7644948688
 10
170.4536420903
 20
140.7679444715
 10
170.3833840525
 20
140.7506042223
 10
170.3143689356
 20
140.7106327245
 10
170.2475428706
 20
140.6502926681
 10
170.1840461111
 20
140.5714390557
 10
170.1234985726
 20
140.4734535531
  0
LWPOLYLINE
  5
334
100
AcDbEntity
  8
FASEN
100
AcDbPolyline
 62
7
  6
CONTINUOUS
 90
15
 70
0
 10
172.7158674868
 20
138.3689607973
 10
172.9001916465
 20
138.1732630211
 10
173.0941644561
 20
137.9561703408
 10
173.2948208852
 20
137.7195506993
 10
173.4995863717
 20
137.466840693
 10
173.7058918628
 20
137.2016391304
 10
173.910818131
 20
136.9275115727
 10
174.1117091336
 20
136.6483914071
 10
174.305836034
 20
136.368043331
 10
174.4908372123
 20
136.0903046213
 10
174.6641147007
 20
135.8191101123
 10
174.8235524005
 20
135.5583350334
 10
174.9672597981
 20
135.3111506131
 10
175.0936234293
 20
135.0806379006
 10
175.2018500623
 20
134.8691455656
  0
LINE
  5
335
100
AcDbEntity
  8
BEZUGSACHSEN
100
AcDbLine
 62
7
  6
CONTINUOUS
 10
169.0192542815
 20
141.0425826864
 11
169.237707274
 21
140.7905628769
  0
LINE
  5
336
100
AcDbEntity
  8
BEZUGSACHSEN
100
AcDbLine
 62
7
  6
CONTINUOUS
 10
170.1234985726
 20
140.4734535531
 11
172.4571608133
 21
137.7812079284
  0
LINE
  5
337
100
AcDbEntity
  8
BEZUGSACHSEN
100
AcDbLine
 62
7
  6
CONTINUOUS
 10
170.8114400862
 20
140.5660166726
 11
172.7158615753
 21
138.3689676171
  0
LWPOLYLINE
  5
338
100
AcDbEntity
  8
FASEN
100
AcDbPolyline
 62
7
  6
CONTINUOUS
 90
15
 70
0
 10
172.4571608133
 20
137.7812079284
 10
172.603113471
 20
137.6084756577
 10
172.7552357105
 20
137.4202100694
 10
172.9146236938
 20
137.2149922553
 10
173.0779889352
 20
136.9970789403
 10
173.2431649691
 20
136.7691434683
 10
173.4078818975
 20
136.5345170745
 10
173.5698361932
 20
136.2963309098
 10
173.726962278
 20
136.0578585716
 10
173.8770280515
 20
135.822368478
 10
174.0182295532
 20
135.5930073188
 10
174.1483960295
 20
135.3732269802
 10
174.2663957587
 20
135.1653802912
 10
174.3701415214
 20
134.9734086417
 10
174.4603290575
 20
134.7959982348
  0
LINE
  5
339
100
AcDbEntity
  8
BEZUGSACHSEN
100
AcDbLine
 62
9
  6
CONTINUOUS
 10
169.4030556453
 20
144.7627391213
 11
169.1350886854
 21
145.2361700897
  0
LINE
  5
33A
100
AcDbEntity
  8
BEZUGSACHSEN
100
AcDbLine
 62
9
  6
CONTINUOUS
 10
168.0135609859
 20
147.2374819121
 11
167.4626629758
 21
148.2121755876
  0
LINE
  5
33B
100
AcDbEntity
  8
BEZUGSACHSEN
100
AcDbLine
 62
9
  6
CONTINUOUS
 10
169.1350886854
 20
145.2361700897
 11
168.0135609859
 21
147.2374819121
  0
LWPOLYLINE
  5
33C
100
AcDbEntity
  8
0
100
AcDbPolyline
 62
7
  6
CONTINUOUS
 90
4
 70
0
 10
169.1253945072
 20
143.5675586578
 10
169.0202268807
 20
143.7762182835
 10
168.915019042
 20
143.9917950962
 10
168.8134495107
 20
144.2044042874
  0
LINE
  5
33D
100
AcDbEntity
  8
FASEN
100
AcDbLine
 62
7
  6
CONTINUOUS
 10
174.4603290575
 20
134.7959982348
 11
181.6328616424
 21
120.1799135584
  0
LWPOLYLINE
  5
33E
100
AcDbEntity
  8
0
100
AcDbPolyline
 62
7
  6
CONTINUOUS
 90
42
 70
0
 10
167.8265538308
 20
146.3640995312
 10
167.6925469524
 20
146.652951248
 10
167.5612235308
 20
146.9311254704
 10
167.4326856
 20
147.1986653956
 10
167.3071159021
 20
147.4554294152
 10
167.1843511017
 20
147.7019553248
 10
167.0643353812
 20
147.9385423651
 10
166.9468920119
 20
148.1657705088
 10
166.8317636697
 20
148.3843720484
 10
166.7190925136
 20
148.5941917597
 10
166.6088950935
 20
148.7953620889
 10
166.501283384
 20
148.9877598983
 10
166.3964140438
 20
149.171143966
 10
166.2941681437
 20
149.3460081905
 10
166.1947327739
 20
149.5122903173
 10
166.0973267908
 20
149.67142324
 10
166.0015122593
 20
149.8244040573
 10
165.9063543536
 20
149.9724481316
 10
165.8110339062
 20
150.1167533002
 10
165.7146381556
 20
150.2583030787
 10
165.6160588579
 20
150.3984633115
 10
165.5149274441
 20
150.5371944562
 10
165.4104375446
 20
150.6752649612
 10
165.3027063009
 20
150.8115293246
 10
165.1912707424
 20
150.9457296179
 10
165.0770424784
 20
151.0758900869
 10
164.9600013565
 20
151.2008424898
 10
164.8425830034
 20
151.3178996768
 10
164.7272378202
 20
151.4239136264
 10
164.6142309165
 20
151.5193356781
 10
164.5050448359
 20
151.6031260211
 10
164.3986075817
 20
151.6767622836
 10
164.2946641711
 20
151.7410571768
 10
164.1921706132
 20
151.7969237965
 10
164.090364906
 20
151.8453508104
 10
163.9880314796
 20
151.8867915731
 10
163.8833460102
 20
151.9220777199
 10
163.7772510521
 20
151.950839686
 10
163.6696747932
 20
151.9729143477
 10
163.5618863621
 20
151.9885646482
 10
163.4553018943
 20
151.9981329989
 10
163.3495112344
 20
152.0014763865
  0
LINE
  5
33F
100
AcDbEntity
  8
0
100
AcDbLine
 62
7
  6
CONTINUOUS
 10
168.8134495107
 20
144.2044042874
 11
168.6180323361
 21
144.6236459789
  0
LINE
  5
340
100
AcDbEntity
  8
0
100
AcDbLine
 62
7
  6
CONTINUOUS
 10
168.6180323361
 20
144.6236459789
 11
168.3352490485
 21
145.2431943088
  0
LINE
  5
341
100
AcDbEntity
  8
0
100
AcDbLine
 62
7
  6
CONTINUOUS
 10
168.3352490485
 20
145.2431943088
 11
167.8265538308
 21
146.3640995312
  0
LINE
  5
342
100
AcDbEntity
  8
FASEN
100
AcDbLine
 62
7
  6
CONTINUOUS
 10
172.7158674868
 20
138.3689607973
 11
172.4571608133
 21
137.7812079284
  0
LWPOLYLINE
  5
343
100
AcDbEntity
  8
BEZUGSACHSEN
100
AcDbPolyline
 62
9
  6
CONTINUOUS
 90
31
 70
0
 10
162.4688245716
 20
152.8428459359
 10
162.1232783357
 20
153.1901505548
 10
161.7267288402
 20
153.4936559528
 10
161.2760888802
 20
153.7551743656
 10
160.7806200698
 20
153.9692690866
 10
160.246632672
 20
154.1312179386
 10
159.6798935346
 20
154.2406895691
 10
159.0859510586
 20
154.2957022356
 10
158.4717708463
 20
154.2964849309
 10
157.8437823928
 20
154.2421045661
 10
157.2091424202
 20
154.1340656429
 10
156.5748775393
 20
153.9726918522
 10
155.9478075797
 20
153.7605925383
 10
155.3349303083
 20
153.4992648917
 10
154.7427385238
 20
153.1923690646
 10
154.1781646258
 20
152.8425663613
 10
153.646887578
 20
152.4543505159
 10
153.1553188006
 20
152.0313702589
 10
152.7081933237
 20
151.5788219054
 10
152.3112240006
 20
151.1012653968
 10
151.9678887818
 20
150.6042585842
 10
151.6828362364
 20
150.0929157018
 10
151.4582673627
 20
149.5731275415
 10
151.2977098899
 20
149.0505852181
 10
151.2018321947
 20
148.531001997
 10
151.1727155835
 20
148.0202416724
 10
151.2096489963
 20
147.5235437727
 10
151.3137792948
 20
147.0459092189
 10
151.4816140212
 20
146.5939176269
 10
151.7096542341
 20
146.1768464095
 10
151.9990662472
 20
145.7916030958
  0
LINE
  5
344
100
AcDbEntity
  8
BEZUGSACHSEN
100
AcDbLine
 62
9
  6
CONTINUOUS
 10
169.4217161761
 20
144.8216709554
 11
170.1509108296
 21
143.9803921733
  0
LINE
  5
345
100
AcDbEntity
  8
BEZUGSACHSEN
100
AcDbLine
 62
9
  6
CONTINUOUS
 10
162.4688245716
 20
152.8428459359
 11
163.1981290027
 21
152.0014788223
  0
LWPOLYLINE
  5
346
100
AcDbEntity
  8
BEZUGSACHSEN
100
AcDbPolyline
 62
9
  6
CONTINUOUS
 90
9
 70
0
 10
170.1509108296
 20
143.9803921733
 10
170.4170946564
 20
143.6306263026
 10
170.6325993259
 20
143.2536850107
 10
170.7984208167
 20
142.847249192
 10
170.9115711935
 20
142.4182761629
 10
170.9691948958
 20
141.971639102
 10
170.9718907781
 20
141.5112713165
 10
170.9192617167
 20
141.0434252193
 10
170.8114400862
 20
140.5660166726
  0
LWPOLYLINE
  5
347
100
AcDbEntity
  8
BEZUGSACHSEN
100
AcDbPolyline
 62
9
  6
CONTINUOUS
 90
14
 70
0
 10
165.4016348098
 20
151.7082338256
 10
165.3361498604
 20
151.810872247
 10
165.2725749329
 20
151.9094323231
 10
165.2102987112
 20
152.0048225312
 10
165.1489400325
 20
152.0975438994
 10
165.0877419967
 20
152.1886281648
 10
165.0258713435
 20
152.2791380456
 10
164.9633413416
 20
152.3687995785
 10
164.8998097354
 20
152.4578145187
 10
164.836235046
 20
152.5445391276
 10
164.7734384574
 20
152.6275900836
 10
164.7123800326
 20
152.7055855929
 10
164.6539846471
 20
152.7774156891
 10
164.5986309148
 20
152.8427386103
  0
LINE
  5
348
100
AcDbEntity
  8
BEZUGSACHSEN
100
AcDbLine
 62
9
  6
CONTINUOUS
 10
165.5387306441
 20
151.4901578111
 11
165.4016348098
 21
151.7082338256
  0
LINE
  5
349
100
AcDbEntity
  8
BEZUGSACHSEN
100
AcDbLine
 62
9
  6
CONTINUOUS
 10
165.6845221552
 20
151.2542580601
 11
165.5387306441
 21
151.4901578111
  0
LINE
  5
34A
100
AcDbEntity
  8
BEZUGSACHSEN
100
AcDbLine
 62
9
  6
CONTINUOUS
 10
165.8390783987
 20
151.0005151409
 11
165.6845221552
 21
151.2542580601
  0
LINE
  5
34B
100
AcDbEntity
  8
BEZUGSACHSEN
100
AcDbLine
 62
9
  6
CONTINUOUS
 10
166.0025351924
 20
150.7288616734
 11
165.8390783987
 21
151.0005151409
  0
LINE
  5
34C
100
AcDbEntity
  8
BEZUGSACHSEN
100
AcDbLine
 62
9
  6
CONTINUOUS
 10
166.1751761859
 20
150.4388744081
 11
166.0025351924
 21
150.7288616734
  0
LINE
  5
34D
100
AcDbEntity
  8
BEZUGSACHSEN
100
AcDbLine
 62
9
  6
CONTINUOUS
 10
166.4534481246
 20
149.9658305672
 11
166.1751761859
 21
150.4388744081
  0
LINE
  5
34E
100
AcDbEntity
  8
BEZUGSACHSEN
100
AcDbLine
 62
9
  6
CONTINUOUS
 10
166.7586016347
 20
149.4410718423
 11
166.4534481246
 21
149.9658305672
  0
LINE
  5
34F
100
AcDbEntity
  8
BEZUGSACHSEN
100
AcDbLine
 62
9
  6
CONTINUOUS
 10
167.2128279795
 20
148.6506681992
 11
166.7586016347
 21
149.4410718423
  0
LINE
  5
350
100
AcDbEntity
  8
BEZUGSACHSEN
100
AcDbLine
 62
9
  6
CONTINUOUS
 10
167.4626629758
 20
148.2121755876
 11
167.2128279795
 21
148.6506681992
  0
LINE
  5
351
100
AcDbEntity
  8
FASEN
100
AcDbLine
 62
7
  6
CONTINUOUS
 10
175.2018500623
 20
134.8691455656
 11
182.2445046302
 21
120.5177244614
  0
LWPOLYLINE
  5
352
100
AcDbEntity
  8
FASEN
100
AcDbPolyline
 62
9
  6
CONTINUOUS
 90
21
 70
0
 10
167.4412470219
 20
129.6426418927
 10
166.0323549115
 20
129.0594431426
 10
164.5998441906
 20
128.5576926229
 10
163.1520631624
 20
128.1403216052
 10
161.6974847484
 20
127.8097782312
 10
160.2446225213
 20
127.5679979414
 10
158.8019455141
 20
127.4163893332
 10
157.3778719689
 20
127.3558370665
 10
155.9807115834
 20
127.3866944739
 10
154.6186170107
 20
127.5087814976
 10
153.2995362862
 20
127.7213857404
 10
152.0311664542
 20
128.0232666228
 10
150.8209086496
 20
128.4126626233
 10
149.6758249137
 20
128.8873015571
 10
148.6025969963
 20
129.4444138301
 10
147.6074873505
 20
130.0807486057
 10
146.6963026101
 20
130.7925927609
 10
145.8743596936
 20
131.5757925552
 10
145.146454747
 20
132.4257779047
 10
144.5168352164
 20
133.3375889934
 10
144.0354810691
 20
134.2103135515
  0
LWPOLYLINE
  5
353
100
AcDbEntity
  8
BEZUGSACHSEN
100
AcDbPolyline
 62
9
  6
CONTINUOUS
 90
12
 70
0
 10
170.7106050961
 20
145.7916172179
 10
170.6656752965
 20
145.8423709174
 10
170.6234799815
 20
145.8877701422
 10
170.5843857686
 20
145.9273360053
 10
170.5489306292
 20
145.9604489768
 10
170.5175001378
 20
145.9867760267
 10
170.4900262579
 20
146.0065768812
 10
170.4664014066
 20
146.0202642445
 10
170.4461691814
 20
146.0284367981
 10
170.4290097977
 20
146.0315295203
 10
170.4146009792
 20
146.029942548
 10
170.4045517491
 20
146.0252409126
  0
LWPOLYLINE
  5
354
100
AcDbEntity
  8
0
100
AcDbPolyline
 62
7
  6
CONTINUOUS
 90
42
 70
0
 10
163.1981973159
 20
152.0014766396
 10
163.0924815897
 20
151.9981096195
 10
162.9889531224
 20
151.9884558929
 10
162.8871375627
 20
151.972678172
 10
162.7887005722
 20
151.9503761307
 10
162.695183108
 20
151.9212531367
 10
162.6065405029
 20
151.8854003091
 10
162.523571582
 20
151.8430612926
 10
162.4452716724
 20
151.7935287729
 10
162.3708994975
 20
151.7363642973
 10
162.3004490501
 20
151.6708217836
 10
162.2335993312
 20
151.5961675483
 10
162.1705760695
 20
151.5118250972
 10
162.1112547612
 20
151.4166028857
 10
162.0563971356
 20
151.3115781328
 10
162.0065643911
 20
151.1965120674
 10
161.9621889673
 20
151.0742898545
 10
161.9241023482
 20
150.9475100554
 10
161.8915014567
 20
150.8169887903
 10
161.8640417452
 20
150.6844548855
 10
161.8410958597
 20
150.5497398267
 10
161.8219961766
 20
150.4134514246
 10
161.8065159611
 20
150.2748960664
 10
161.7942899639
 20
150.1339198861
 10
161.7851009156
 20
149.9894347128
 10
161.7786656402
 20
149.8406042159
 10
161.7748827497
 20
149.6864452598
 10
161.7735133898
 20
149.5259608562
 10
161.7747608429
 20
149.3582994191
 10
161.7787104658
 20
149.1822695855
 10
161.7855405645
 20
148.9978690913
 10
161.7954690795
 20
148.8046395035
 10
161.808484564
 20
148.602763399
 10
161.8246147982
 20
148.3923155857
 10
161.8439685
 20
148.1731662894
 10
161.8665952107
 20
147.9454297285
 10
161.8927134418
 20
147.7084553687
 10
161.9225095218
 20
147.4618379114
 10
161.9561705829
 20
147.2049591094
 10
161.9938923436
 20
146.9371885603
 10
162.0358929725
 20
146.6581591772
 10
162.0824565023
 20
146.367219564
  0
LINE
  5
355
100
AcDbEntity
  8
0
100
AcDbLine
 62
7
  6
CONTINUOUS
 10
163.1981290027
 20
152.0014788223
 11
163.2739730384
 21
152.0017674269
  0
LINE
  5
356
100
AcDbEntity
  8
0
100
AcDbLine
 62
7
  6
CONTINUOUS
 10
163.2739730384
 20
152.0017674269
 11
163.3495441623
 21
152.0014761963
  0
LINE
  5
357
100
AcDbEntity
  8
0
100
AcDbLine
 62
7
  6
CONTINUOUS
 10
179.9447472075
 20
151.8320219079
 11
190.4307514994
 21
130.4637918118
  0
LWPOLYLINE
  5
358
100
AcDbEntity
  8
FASEN
100
AcDbPolyline
 62
9
  6
CONTINUOUS
 90
16
 70
0
 10
179.9447472069
 20
151.8320219093
 10
180.3698661924
 20
150.8385952002
 10
180.697633062
 20
149.7794401154
 10
180.9162386054
 20
148.6808494497
 10
181.0244072246
 20
147.5492336887
 10
181.0215077482
 20
146.3911959453
 10
180.9075570858
 20
145.2134934973
 10
180.6832201548
 20
144.0229984812
 10
180.349806015
 20
142.8266576813
 10
179.9092601852
 20
141.631451885
 10
179.364153302
 20
140.4443552674
 10
178.7176661566
 20
139.2722947506
 10
177.9735664034
 20
138.1221027434
 10
177.1362100775
 20
137.0005110435
 10
176.2105037441
 20
135.9140821388
 10
175.2018500623
 20
134.8691455656
  0
LINE
  5
359
100
AcDbEntity
  8
0
100
AcDbLine
 62
2
  6
CONTINUOUS
 10
185.2682231467
 20
122.1877265752
 11
190.4307514994
 21
130.4637918118
  0
LINE
  5
35A
100
AcDbEntity
  8
0
100
AcDbLine
 62
2
  6
CONTINUOUS
 10
177.2432298467
 20
117.7555164667
 11
185.2682231467
 21
122.1877265752
  0
LINE
  5
35B
100
AcDbEntity
  8
0
100
AcDbLine
 62
2
  6
CONTINUOUS
 10
154.2602953594
 20
203.0202662853
 11
156.8179069655
 21
202.6986257305
  0
LINE
  5
35C
100
AcDbEntity
  8
0
100
AcDbLine
 62
2
  6
CONTINUOUS
 10
153.573184097
 20
203.1746805854
 11
154.2602953594
 21
203.0202662853
  0
LINE
  5
35D
100
AcDbEntity
  8
0
100
AcDbLine
 62
2
  6
CONTINUOUS
 10
167.2606990513
 20
203.0136744591
 11
170.925601244
 21
204.0270487417
  0
LINE
  5
35E
100
AcDbEntity
  8
0
100
AcDbLine
 62
2
  6
CONTINUOUS
 10
163.3725299544
 20
202.5780925783
 11
167.2606990513
 21
203.0136744591
  0
LINE
  5
35F
100
AcDbEntity
  8
0
100
AcDbLine
 62
2
  6
CONTINUOUS
 10
159.4199240736
 20
202.5519619249
 11
163.3725299544
 21
202.5780925783
  0
LINE
  5
360
100
AcDbEntity
  8
0
100
AcDbLine
 62
2
  6
CONTINUOUS
 10
156.8179069655
 20
202.6986257305
 11
159.4199240736
 21
202.5519619249
  0
LINE
  5
361
100
AcDbEntity
  8
0
100
AcDbLine
 62
7
  6
CONTINUOUS
 10
153.573184097
 20
203.1746805854
 11
145.1611358117
 21
221.1569200576
  0
LWPOLYLINE
  5
362
100
AcDbEntity
  8
FASEN
100
AcDbPolyline
 62
7
  6
CONTINUOUS
 90
25
 70
0
 10
159.6519409322
 20
239.8410832621
 10
158.780925215
 20
239.4813806403
 10
157.9395246735
 20
239.0568264525
 10
157.1337426246
 20
238.5713878561
 10
156.3702110612
 20
238.0281789855
 10
155.6540500346
 20
237.4317807869
 10
154.9910920907
 20
236.786027325
 10
154.3858317392
 20
236.0962733777
 10
153.8434768749
 20
235.3670161423
 10
153.3677198885
 20
234.6046624251
 10
152.9632584207
 20
233.8148173131
 10
152.6322846172
 20
233.0043831612
 10
152.378366333
 20
232.1803045702
 10
152.2020740823
 20
231.3480598894
 10
152.1050694349
 20
230.5138577654
 10
152.0876470786
 20
229.6824519068
 10
152.1508069333
 20
228.8583984444
 10
152.2940948721
 20
228.0484987576
 10
152.5186020724
 20
227.2582177196
 10
152.8206925426
 20
226.4961209799
 10
153.1992680606
 20
225.770528985
 10
153.647806496
 20
225.0876422173
 10
154.1622427583
 20
224.4551919583
 10
154.734107506
 20
223.8769062571
 10
155.3523483211
 20
223.3598783993
  0
LWPOLYLINE
  5
363
100
AcDbEntity
  8
FASEN
100
AcDbPolyline
 62
9
  6
CONTINUOUS
 90
11
 70
0
 10
154.3341540626
 20
213.0183643252
 10
153.0348772519
 20
213.5459071388
 10
151.7953292756
 20
214.167316252
 10
150.6227403811
 20
214.8789767645
 10
149.5239774762
 20
215.6767290803
 10
148.5054719047
 20
216.5559049738
 10
147.5731601755
 20
217.5113787203
 10
146.7324824899
 20
218.537574956
 10
145.9883443035
 20
219.6285056963
 10
145.3450877566
 20
220.7778052392
 10
145.1611358117
 20
221.1569200576
  0
LINE
  5
364
100
AcDbEntity
  8
FASEN
100
AcDbLine
 62
7
  6
CONTINUOUS
 10
159.2251768612
 20
202.5629389347
 11
154.3341540626
 21
213.0183643252
  0
LINE
  5
365
100
AcDbEntity
  8
FASEN
100
AcDbLine
 62
7
  6
CONTINUOUS
 10
160.0951720657
 20
202.5564259853
 11
155.032313765
 21
213.3791801219
  0
LWPOLYLINE
  5
366
100
AcDbEntity
  8
FASEN
100
AcDbPolyline
 62
7
  6
CONTINUOUS
 90
15
 70
0
 10
155.032313765
 20
213.3791801219
 10
154.9772410704
 20
213.5175003441
 10
154.9300995849
 20
213.6811072361
 10
154.8905376842
 20
213.8710872114
 10
154.8596102413
 20
214.0841810298
 10
154.8381778762
 20
214.3187034071
 10
154.8264717232
 20
214.5710188888
 10
154.8250563735
 20
214.8382105297
 10
154.8337920766
 20
215.1164375168
 10
154.8528829203
 20
215.402236033
 10
154.8818619811
 20
215.6915581454
 10
154.9205982402
 20
215.9805061242
 10
154.9682880711
 20
216.2651655427
 10
155.0239782618
 20
216.5396710223
 10
155.0879865498
 20
216.8059776893
  0
LWPOLYLINE
  5
367
100
AcDbEntity
  8
FASEN
100
AcDbPolyline
 62
7
  6
CONTINUOUS
 90
15
 70
0
 10
154.3341540626
 20
213.0183643252
 10
154.2690242939
 20
213.1834917619
 10
154.2135106526
 20
213.3802125373
 10
154.1687703466
 20
213.6070310843
 10
154.1357131796
 20
213.8615134737
 10
154.1149612657
 20
214.1408586444
 10
154.1072203999
 20
214.4414127817
 10
154.11271699
 20
214.7590747122
 10
154.13167278
 20
215.0897145982
 10
154.1638709312
 20
215.4289435402
 10
154.2091076895
 20
215.7720650889
 10
154.2666639386
 20
216.1144123347
 10
154.3359951515
 20
216.4512520188
 10
154.4163400118
 20
216.7777964883
 10
154.5058221092
 20
217.0904482641
  0
LWPOLYLINE
  5
368
100
AcDbEntity
  8
BEZUGSACHSEN
100
AcDbPolyline
 62
7
  6
CONTINUOUS
 90
15
 70
0
 10
155.0183261938
 20
233.5462650219
 10
155.5007288547
 20
234.2380947621
 10
156.0448749178
 20
234.8946838479
 10
156.6463827148
 20
235.5107459164
 10
157.3004090084
 20
236.0813211826
 10
158.001687751
 20
236.6018160516
 10
158.7445725282
 20
237.0680401526
 10
159.5230820157
 20
237.4762400654
 10
160.3309481308
 20
237.82312953
 10
161.1616664917
 20
238.1059158951
 10
162.0085487774
 20
238.3223225944
 10
162.8647765686
 20
238.4706074685
 10
163.7234562337
 20
238.5495767855
 10
164.5776744993
 20
238.5585948453
 10
165.4205537102
 20
238.4975891071
  0
LINE
  5
369
100
AcDbEntity
  8
FASEN
100
AcDbLine
 62
7
  6
CONTINUOUS
 10
154.5058221092
 20
217.0904482641
 11
155.0879865498
 21
216.8059776893
  0
LINE
  5
36A
100
AcDbEntity
  8
FASEN
100
AcDbLine
 62
9
  6
CONTINUOUS
 10
163.2905203402
 20
211.9896376529
 11
162.8155907638
 21
212.48519428
  0
LWPOLYLINE
  5
36B
100
AcDbEntity
  8
FASEN
100
AcDbPolyline
 62
7
  6
CONTINUOUS
 90
7
 70
0
 10
153.9700056321
 20
226.3985375709
 10
154.2555213233
 20
225.85022306
 10
154.6734650594
 20
225.2054007567
 10
155.1550337482
 20
224.608834985
 10
155.6935481466
 20
224.0656053289
 10
156.2806009903
 20
223.5803744884
 10
156.9102990369
 20
223.1542274693
  0
LWPOLYLINE
  5
36C
100
AcDbEntity
  8
BEZUGSACHSEN
100
AcDbPolyline
 62
7
  6
CONTINUOUS
 90
11
 70
0
 10
154.1358692024
 20
226.080007258
 10
153.9113092696
 20
226.7099062791
 10
153.7311632618
 20
227.4496879028
 10
153.6270090557
 20
228.2088843645
 10
153.5996843187
 20
228.9813829999
 10
153.6494081806
 20
229.7609641719
 10
153.7757794854
 20
230.5413513394
 10
153.977780036
 20
231.3162615817
 10
154.2537828051
 20
232.0794561734
 10
154.6015650804
 20
232.8247908689
 10
155.0183261938
 20
233.5462650219
  0
LINE
  5
36D
100
AcDbEntity
  8
FASEN
100
AcDbLine
 62
7
  6
CONTINUOUS
 10
154.5058249902
 20
217.0904593164
 11
156.0206493429
 21
222.9017439563
  0
LINE
  5
36E
100
AcDbEntity
  8
FASEN
100
AcDbLine
 62
7
  6
CONTINUOUS
 10
155.0879865498
 20
216.8059776893
 11
156.6769209443
 21
222.9015689199
  0
LWPOLYLINE
  5
36F
100
AcDbEntity
  8
FASEN
100
AcDbPolyline
 62
9
  6
CONTINUOUS
 90
41
 70
0
 10
163.2382821132
 20
216.0874508198
 10
164.552743223
 20
216.3143896414
 10
165.8504714301
 20
216.6330399352
 10
167.136548814
 20
217.0450512264
 10
168.3957291364
 20
217.5454749393
 10
169.6163665565
 20
218.1312615535
 10
170.7927419622
 20
218.798363429
 10
171.917608916
 20
219.543607759
 10
172.9839035542
 20
220.3613205232
 10
173.9839882604
 20
221.2468098342
 10
174.9123378554
 20
222.1939564858
 10
175.7624428035
 20
223.1973825346
 10
176.5296185587
 20
224.2501723045
 10
177.2081557118
 20
225.3460544303
 10
177.7946193163
 20
226.4777180374
 10
178.2843998965
 20
227.6382986345
 10
178.6753116311
 20
228.8201857072
 10
178.963917844
 20
230.0160406904
 10
179.1493616238
 20
231.2181832439
 10
179.2294778957
 20
232.4190138836
 10
179.2047544735
 20
233.6109514753
 10
179.0743525655
 20
234.7862972716
 10
178.8400869134
 20
235.937804627
 10
178.5024529403
 20
237.0579315828
 10
178.0645698099
 20
238.1398653304
 10
177.5282733349
 20
239.1763224421
 10
176.8979089911
 20
240.1611728161
 10
176.1766318398
 20
241.0876134444
 10
175.3698489365
 20
241.9503796171
 10
174.4819060271
 20
242.743381077
 10
173.5191421005
 20
243.4622914591
 10
172.4869464632
 20
244.1018578654
 10
171.3925139078
 20
244.6587696382
 10
170.2422415514
 20
245.128679103
 10
169.0439117273
 20
245.5094444123
 10
167.8047013234
 20
245.7977912667
 10
166.5328237932
 20
245.9927693469
 10
165.236076979
 20
246.092245855
 10
163.9228846022
 20
246.0964939282
 10
162.6014626698
 20
246.0045798149
 10
161.2802321672
 20
245.8179913846
  0
LWPOLYLINE
  5
370
100
AcDbEntity
  8
BEZUGSACHSEN
100
AcDbPolyline
 62
7
  6
CONTINUOUS
 90
4
 70
0
 10
160.749313319
 20
216.4334961687
 10
160.7655440415
 20
216.4251807629
 10
160.8109505024
 20
216.4028052298
 10
160.8585110034
 20
216.380010085
  0
LINE
  5
371
100
AcDbEntity
  8
BEZUGSACHSEN
100
AcDbLine
 62
7
  6
CONTINUOUS
 10
160.8585110034
 20
216.380010085
 11
162.6206760235
 21
213.4415050011
  0
LINE
  5
372
100
AcDbEntity
  8
BEZUGSACHSEN
100
AcDbLine
 62
7
  6
CONTINUOUS
 10
157.2330221759
 20
222.4643497403
 11
160.471748727
 21
217.0268395249
  0
LINE
  5
373
100
AcDbEntity
  8
FASEN
100
AcDbLine
 62
7
  6
CONTINUOUS
 10
156.9102990369
 20
223.1542274693
 11
157.2330221759
 21
222.4643497403
  0
LINE
  5
374
100
AcDbEntity
  8
BEZUGSACHSEN
100
AcDbLine
 62
7
  6
CONTINUOUS
 10
160.8165476854
 20
216.2897708313
 11
160.471748727
 21
217.0268395249
  0
LINE
  5
375
100
AcDbEntity
  8
FASEN
100
AcDbLine
 62
7
  6
CONTINUOUS
 10
162.8155907638
 20
212.48519428
 11
167.2470596951
 21
203.0121464761
  0
LINE
  5
376
100
AcDbEntity
  8
FASEN
100
AcDbLine
 62
7
  6
CONTINUOUS
 10
163.2905203402
 20
211.9896376529
 11
167.4632538799
 21
203.0696824624
  0
LINE
  5
377
100
AcDbEntity
  8
BEZUGSACHSEN
100
AcDbLine
 62
7
  6
CONTINUOUS
 10
159.6340647983
 20
226.1413285784
 11
159.5724913139
 21
225.9785260125
  0
LINE
  5
378
100
AcDbEntity
  8
BEZUGSACHSEN
100
AcDbLine
 62
7
  6
CONTINUOUS
 10
159.6801799315
 20
226.2613400679
 11
159.6340647983
 21
226.1413285784
  0
LWPOLYLINE
  5
379
100
AcDbEntity
  8
BEZUGSACHSEN
100
AcDbPolyline
 62
7
  6
CONTINUOUS
 90
15
 70
0
 10
159.5724913139
 20
225.9785260125
 10
159.5350725801
 20
225.881472719
 10
159.5170949289
 20
225.8367188888
 10
159.4990885016
 20
225.7943683312
 10
159.481660051
 20
225.7553237571
 10
159.4630257371
 20
225.7189513121
 10
159.4444508045
 20
225.6858812444
 10
159.4238444088
 20
225.6555539212
 10
159.4017773367
 20
225.6263275103
 10
159.3775476911
 20
225.5991240368
 10
159.3516380332
 20
225.5716085782
 10
159.3242560816
 20
225.5448364328
 10
159.2952524596
 20
225.5178147795
 10
159.2651904139
 20
225.4902772297
 10
159.2011552788
 20
225.4331839414
  0
LWPOLYLINE
  5
37A
100
AcDbEntity
  8
BEZUGSACHSEN
100
AcDbPolyline
 62
7
  6
CONTINUOUS
 90
10
 70
0
 10
159.9975263062
 20
227.014965759
 10
159.9576165328
 20
226.9267591917
 10
159.9196840903
 20
226.8415822054
 10
159.8838903239
 20
226.7594638596
 10
159.849976741
 20
226.6802808588
 10
159.8178717909
 20
226.6039071317
 10
159.7874003946
 20
226.5302816315
 10
159.7585276443
 20
226.4592735697
 10
159.731063438
 20
226.3908462943
 10
159.6801799315
 20
226.2613400679
  0
LINE
  5
37B
100
AcDbEntity
  8
FASEN
100
AcDbLine
 62
7
  6
CONTINUOUS
 10
155.3523483211
 20
223.3598783993
 11
156.0206493429
 21
222.9017439563
  0
LINE
  5
37C
100
AcDbEntity
  8
BEZUGSACHSEN
100
AcDbLine
 62
7
  6
CONTINUOUS
 10
158.6725216738
 20
224.9323194941
 11
158.3303936048
 21
225.557998697
  0
LINE
  5
37D
100
AcDbEntity
  8
BEZUGSACHSEN
100
AcDbLine
 62
7
  6
CONTINUOUS
 10
158.3303936048
 20
225.557998697
 11
158.0170694085
 21
226.1406848215
  0
LINE
  5
37E
100
AcDbEntity
  8
BEZUGSACHSEN
100
AcDbLine
 62
7
  6
CONTINUOUS
 10
158.0170694085
 20
226.1406848215
 11
157.7303215002
 21
226.6828696376
  0
LINE
  5
37F
100
AcDbEntity
  8
BEZUGSACHSEN
100
AcDbLine
 62
7
  6
CONTINUOUS
 10
157.7303215002
 20
226.6828696376
 11
157.4679811893
 21
227.1871878239
  0
LINE
  5
380
100
AcDbEntity
  8
BEZUGSACHSEN
100
AcDbLine
 62
7
  6
CONTINUOUS
 10
157.4679811893
 20
227.1871878239
 11
157.2278924534
 21
227.6564778892
  0
LINE
  5
381
100
AcDbEntity
  8
BEZUGSACHSEN
100
AcDbLine
 62
7
  6
CONTINUOUS
 10
157.2278924534
 20
227.6564778892
 11
157.0078314587
 21
228.0939319465
  0
LINE
  5
382
100
AcDbEntity
  8
BEZUGSACHSEN
100
AcDbLine
 62
7
  6
CONTINUOUS
 10
157.0078314587
 20
228.0939319465
 11
156.8057746551
 21
228.5025602146
  0
LINE
  5
383
100
AcDbEntity
  8
BEZUGSACHSEN
100
AcDbLine
 62
7
  6
CONTINUOUS
 10
156.8057746551
 20
228.5025602146
 11
156.6207891064
 21
228.883313786
  0
LINE
  5
384
100
AcDbEntity
  8
BEZUGSACHSEN
100
AcDbLine
 62
7
  6
CONTINUOUS
 10
156.6207891064
 20
228.883313786
 11
156.4516604859
 21
229.2377901082
  0
LINE
  5
385
100
AcDbEntity
  8
BEZUGSACHSEN
100
AcDbLine
 62
7
  6
CONTINUOUS
 10
156.4516604859
 20
229.2377901082
 11
156.297017171
 21
229.5680202062
  0
LINE
  5
386
100
AcDbEntity
  8
BEZUGSACHSEN
100
AcDbLine
 62
7
  6
CONTINUOUS
 10
156.297017171
 20
229.5680202062
 11
156.1557060861
 21
229.8756817158
  0
LINE
  5
387
100
AcDbEntity
  8
BEZUGSACHSEN
100
AcDbLine
 62
7
  6
CONTINUOUS
 10
156.1557060861
 20
229.8756817158
 11
156.0266401957
 21
230.1624046618
  0
LINE
  5
388
100
AcDbEntity
  8
BEZUGSACHSEN
100
AcDbLine
 62
7
  6
CONTINUOUS
 10
156.0266401957
 20
230.1624046618
 11
155.9088348569
 21
230.4296835751
  0
LINE
  5
389
100
AcDbEntity
  8
BEZUGSACHSEN
100
AcDbLine
 62
7
  6
CONTINUOUS
 10
155.9088348569
 20
230.4296835751
 11
155.8013866793
 21
230.6789137885
  0
LWPOLYLINE
  5
38A
100
AcDbEntity
  8
BEZUGSACHSEN
100
AcDbPolyline
 62
7
  6
CONTINUOUS
 90
46
 70
0
 10
155.8013866793
 20
230.6789137885
 10
155.7034697723
 20
230.9113914926
 10
155.6578458285
 20
231.0217305853
 10
155.6143285745
 20
231.1283225969
 10
155.5728292748
 20
231.2313149664
 10
155.5332721831
 20
231.3308293937
 10
155.4955770508
 20
231.4270008714
 10
155.4596750791
 20
231.5199417946
 10
155.4254938751
 20
231.609775338
 10
155.3929699322
 20
231.6966082297
 10
155.3620367883
 20
231.7805561992
 10
155.3326366622
 20
231.8617188681
 10
155.3047087807
 20
231.940204795
 10
155.2782011925
 20
232.0161057947
 10
155.2530592256
 20
232.0895216226
 10
155.2292355535
 20
232.1605394122
 10
155.2066806875
 20
232.2292523931
 10
155.1853516811
 20
232.2957439914
 10
155.1652033809
 20
232.3601036129
 10
155.1461982828
 20
232.4224080989
 10
155.1282964931
 20
232.4827403635
 10
155.1114654306
 20
232.5411727467
 10
155.0956705368
 20
232.597781543
 10
155.0808834623
 20
232.6526385608
 10
155.067073813
 20
232.7058188418
 10
155.0542194541
 20
232.7573892983
 10
155.0422956183
 20
232.8074204018
 10
155.0312868014
 20
232.8559763346
 10
155.0211747788
 20
232.9031216808
 10
155.0119510777
 20
232.9489249046
 10
155.003603458
 20
232.993453789
 10
154.9961355076
 20
233.0367732282
 10
154.9895446595
 20
233.0789468913
 10
154.9838506761
 20
233.1200431954
 10
154.9790634443
 20
233.1601228758
 10
154.9752290137
 20
233.1992674186
 10
154.9723744234
 20
233.237548214
 10
154.9705963033
 20
233.2750468912
 10
154.9699510271
 20
233.3118379437
 10
154.9706347805
 20
233.3479969159
 10
154.9727606593
 20
233.3836396454
 10
154.9767211165
 20
233.4186854219
 10
154.9828623609
 20
233.4534381689
 10
154.9915849994
 20
233.4867927162
 10
155.0034233842
 20
233.5176354316
 10
155.0183261938
 20
233.5462650219
  0
LINE
  5
38B
100
AcDbEntity
  8
FASEN
100
AcDbLine
 62
7
  6
CONTINUOUS
 10
156.9102990369
 20
223.1542274693
 11
156.7555164691
 21
222.9862824845
  0
LINE
  5
38C
100
AcDbEntity
  8
FASEN
100
AcDbLine
 62
7
  6
CONTINUOUS
 10
156.7555164691
 20
222.9862824845
 11
156.6769209443
 21
222.9015689199
  0
LWPOLYLINE
  5
38D
100
AcDbEntity
  8
BEZUGSACHSEN
100
AcDbPolyline
 62
7
  6
CONTINUOUS
 90
9
 70
0
 10
159.020845947
 20
225.2715746737
 10
158.9814054453
 20
225.235220059
 10
158.9407619686
 20
225.1973536935
 10
158.8990064196
 20
225.1578337915
 10
158.8560464079
 20
225.1166033142
 10
158.8119438838
 20
225.0735308258
 10
158.7666367044
 20
225.028538652
 10
158.7201899353
 20
224.9814295944
 10
158.6725216738
 20
224.9323194941
  0
LWPOLYLINE
  5
38E
100
AcDbEntity
  8
BEZUGSACHSEN
100
AcDbPolyline
 62
7
  6
CONTINUOUS
 90
3
 70
0
 10
159.1673157409
 20
225.4032952224
 10
159.0963630247
 20
225.3399950523
 10
159.020845947
 20
225.2715746737
  0
LINE
  5
38F
100
AcDbEntity
  8
BEZUGSACHSEN
100
AcDbLine
 62
7
  6
CONTINUOUS
 10
159.2011552788
 20
225.4331839414
 11
159.1673157409
 21
225.4032952224
  0
LWPOLYLINE
  5
390
100
AcDbEntity
  8
BEZUGSACHSEN
100
AcDbPolyline
 62
7
  6
CONTINUOUS
 90
71
 70
0
 10
159.9975263062
 20
227.014965759
 10
159.7933903505
 20
227.3663367075
 10
159.5969649752
 20
227.7005997064
 10
159.4086020623
 20
228.0175723851
 10
159.2278334234
 20
228.3184363336
 10
159.054358838
 20
228.6040294452
 10
158.887911594
 20
228.8751193231
 10
158.7281806908
 20
229.1325015318
 10
158.5749133117
 20
229.3768587247
 10
158.4278076761
 20
229.6089208547
 10
158.2866361125
 20
229.8292805368
 10
158.1511210353
 20
230.0385871401
 10
158.021063082
 20
230.2373496038
 10
157.8962149976
 20
230.4261354321
 10
157.7764073502
 20
230.6053770198
 10
157.6614255467
 20
230.7755639243
 10
157.5511307173
 20
230.9370593747
 10
157.4453913197
 20
231.0902106756
 10
157.34394954
 20
231.2355299316
 10
157.2466778432
 20
231.3733454811
 10
157.153038604
 20
231.5045215947
 10
157.0622674157
 20
231.6302312598
 10
156.9749131139
 20
231.7498116658
 10
156.891324706
 20
231.8628787896
 10
156.8113181391
 20
231.9698051512
 10
156.7351868959
 20
232.0703302099
 10
156.6618358119
 20
232.1659646173
 10
156.5899115976
 20
232.2585462667
 10
156.5205055607
 20
232.3467295856
 10
156.4544359837
 20
232.4295352051
 10
156.3911369801
 20
232.5077720855
 10
156.3305050337
 20
232.5816711962
 10
156.2719739939
 20
232.6519603933
 10
156.214580218
 20
232.7198390116
 10
156.159434129
 20
232.7840661478
 10
156.1079327939
 20
232.843101358
 10
156.0582057224
 20
232.8991230352
 10
156.0081908372
 20
232.9544907446
 10
155.9599305893
 20
233.0069882611
 10
155.9154982857
 20
233.054419542
 10
155.8726544093
 20
233.0992157591
 10
155.8291680481
 20
233.1437473608
 10
155.7871784672
 20
233.1858579584
 10
155.7488315026
 20
233.2234501303
 10
155.7117776284
 20
233.2588508097
 10
155.6736491098
 20
233.2943479606
 10
155.6367597194
 20
233.3278120727
 10
155.6034090351
 20
233.3572010849
 10
155.5711496684
 20
233.3846854316
 10
155.5375982751
 20
233.4123194654
 10
155.5049982232
 20
233.4382549552
 10
155.4754430506
 20
233.4608431739
 10
155.4468663279
 20
233.4816790051
 10
155.4173980439
 20
233.5021536131
 10
155.3886733384
 20
233.5210994234
 10
155.3621307515
 20
233.53756187
 10
155.3363834305
 20
233.5523925825
 10
155.310238258
 20
233.5662911615
 10
155.2846611796
 20
233.5786654367
 10
155.2604916775
 20
233.5890821766
 10
155.2368497787
 20
233.5978206145
 10
155.2129181706
 20
233.6051233419
 10
155.1894547396
 20
233.6105900403
 10
155.1673299183
 20
233.6140128536
 10
155.1453305087
 20
233.6151042593
 10
155.1221345829
 20
233.6136449513
 10
155.0992204436
 20
233.6090522247
 10
155.0777824956
 20
233.6010892814
 10
155.0572069472
 20
233.5886083594
 10
155.0373016119
 20
233.5702021695
 10
155.0183261938
 20
233.5462650219
  0
LINE
  5
391
100
AcDbEntity
  8
FASEN
100
AcDbLine
 62
7
  6
CONTINUOUS
 10
156.6769209443
 20
222.9015689199
 11
156.4605490594
 21
222.9005761452
  0
LINE
  5
392
100
AcDbEntity
  8
FASEN
100
AcDbLine
 62
7
  6
CONTINUOUS
 10
156.4605490594
 20
222.9005761452
 11
156.2417912724
 21
222.9006428779
  0
LINE
  5
393
100
AcDbEntity
  8
FASEN
100
AcDbLine
 62
7
  6
CONTINUOUS
 10
156.2417912724
 20
222.9006428779
 11
156.0206493429
 21
222.9017439563
  0
LWPOLYLINE
  5
394
100
AcDbEntity
  8
FASEN
100
AcDbPolyline
 62
7
  6
CONTINUOUS
 90
7
 70
0
 10
164.7531064636
 20
221.8987354507
 10
164.7033780467
 20
221.9165018077
 10
164.6540130771
 20
221.934416545
 10
164.6050109129
 20
221.9524781765
 10
164.55637348
 20
221.9706911608
 10
164.508102704
 20
221.9890599567
 10
164.4601979431
 20
222.0075830781
  0
LWPOLYLINE
  5
395
100
AcDbEntity
  8
FASEN
100
AcDbPolyline
 62
7
  6
CONTINUOUS
 90
15
 70
0
 10
163.2382792298
 20
216.0874397586
 10
163.176717631
 20
215.7715810392
 10
163.1242977457
 20
215.4418291119
 10
163.0807814978
 20
215.1020243254
 10
163.047136429
 20
214.7569306456
 10
163.0241304782
 20
214.4112556702
 10
163.0119417458
 20
214.0697284498
 10
163.0108990446
 20
213.7370310696
 10
163.0208778241
 20
213.4175916408
 10
163.041838686
 20
213.1155190571
 10
163.0732762462
 20
212.8349465349
 10
163.1147470348
 20
212.5794977584
 10
163.1653727704
 20
212.352003212
 10
163.2241830534
 20
212.1549037849
 10
163.2905203402
 20
211.9896376529
  0
LWPOLYLINE
  5
396
100
AcDbEntity
  8
FASEN
100
AcDbPolyline
 62
7
  6
CONTINUOUS
 90
15
 70
0
 10
162.8712635486
 20
215.9119918474
 10
162.8072552606
 20
215.6456851804
 10
162.7515650699
 20
215.3711797008
 10
162.703875239
 20
215.0865202823
 10
162.6651389799
 20
214.7975723035
 10
162.6361599192
 20
214.5082501911
 10
162.6170690754
 20
214.2224516749
 10
162.6083333723
 20
213.9442246878
 10
162.609748722
 20
213.6770330469
 10
162.621454875
 20
213.4247175652
 10
162.6428872401
 20
213.1901951879
 10
162.673814683
 20
212.9771013695
 10
162.7133765837
 20
212.7871213942
 10
162.7605180692
 20
212.6235145022
 10
162.8155907638
 20
212.48519428
  0
LINE
  5
397
100
AcDbEntity
  8
FASEN
100
AcDbLine
 62
7
  6
CONTINUOUS
 10
164.4601979431
 20
222.0075830781
 11
162.8712635486
 21
215.9119918474
  0
LINE
  5
398
100
AcDbEntity
  8
FASEN
100
AcDbLine
 62
7
  6
CONTINUOUS
 10
164.7531064636
 20
221.8987354507
 11
163.2382821132
 21
216.0874508198
  0
LINE
  5
399
100
AcDbEntity
  8
BEZUGSACHSEN
100
AcDbLine
 62
7
  6
CONTINUOUS
 10
160.8378447253
 20
216.3350820275
 11
160.8585110034
 21
216.380010085
  0
LINE
  5
39A
100
AcDbEntity
  8
BEZUGSACHSEN
100
AcDbLine
 62
7
  6
CONTINUOUS
 10
160.8165476854
 20
216.2897708313
 11
160.8378447253
 21
216.3350820275
  0
LWPOLYLINE
  5
39B
100
AcDbEntity
  8
BEZUGSACHSEN
100
AcDbPolyline
 62
7
  6
CONTINUOUS
 90
15
 70
0
 10
159.9975263062
 20
227.014965759
 10
159.8236097527
 20
227.060689443
 10
159.6412003271
 20
227.0816696871
 10
159.4542868132
 20
227.0774539645
 10
159.2669519153
 20
227.0481401671
 10
159.083286768
 20
226.994373534
 10
158.9073011575
 20
226.9173324736
 10
158.7428362571
 20
226.8187026845
 10
158.5934810679
 20
226.7006402733
 10
158.4624943726
 20
226.5657246747
 10
158.352733886
 20
226.4169023973
 10
158.2665941352
 20
226.2574228159
 10
158.2059544099
 20
226.0907674031
 10
158.1721379067
 20
225.9205739327
 10
158.1697454862
 20
225.8555452986
  0
LINE
  5
39C
100
AcDbEntity
  8
FASEN
100
AcDbLine
 62
7
  6
CONTINUOUS
 10
164.5387934679
 20
222.0922966426
 11
164.6935760357
 21
222.2602416275
  0
LINE
  5
39D
100
AcDbEntity
  8
FASEN
100
AcDbLine
 62
7
  6
CONTINUOUS
 10
164.4601979431
 20
222.0075830781
 11
164.5387934679
 21
222.0922966426
  0
LWPOLYLINE
  5
39E
100
AcDbEntity
  8
FASEN
100
AcDbPolyline
 62
7
  6
CONTINUOUS
 90
21
 70
0
 10
164.6935760357
 20
222.2602416275
 10
165.5021728091
 20
222.5210959907
 10
166.3005479333
 20
222.847091566
 10
167.082601146
 20
223.2385250227
 10
167.8380622505
 20
223.6928927451
 10
168.5580738281
 20
224.206915915
 10
169.2337851138
 20
224.7757643311
 10
169.857113702
 20
225.3933925112
 10
170.4215271945
 20
226.0533684284
 10
170.9207458351
 20
226.7474173985
 10
171.3522713196
 20
227.4706523759
 10
171.7130948896
 20
228.2167396466
 10
172.001506009
 20
228.9811128917
 10
172.2157587573
 20
229.7592612915
 10
172.3537899352
 20
230.5446927404
 10
172.4142486258
 20
231.3317320143
 10
172.3962489167
 20
232.1129180613
 10
172.2999057345
 20
232.8810791537
 10
172.1260706453
 20
233.6299359381
 10
171.8763557633
 20
234.3530531157
 10
171.7233529546
 20
234.7038767424
  0
LWPOLYLINE
  5
39F
100
AcDbEntity
  8
FASEN
100
AcDbPolyline
 62
7
  6
CONTINUOUS
 90
38
 70
0
 10
164.7531064636
 20
221.8987354507
 10
165.6142967975
 20
222.1811168097
 10
166.4581645729
 20
222.5301148038
 10
167.2893682979
 20
222.9471270482
 10
168.093932448
 20
223.4279606976
 10
168.862020328
 20
223.9710116933
 10
169.5858739581
 20
224.5699112903
 10
170.2562124918
 20
225.2202914252
 10
170.8677678337
 20
225.9145459937
 10
171.4127595862
 20
226.6454153538
 10
171.8894438086
 20
227.4074920553
 10
172.2939344633
 20
228.1944517514
 10
172.6248774441
 20
229.0017854904
 10
172.8801480148
 20
229.8249445765
 10
173.0581720279
 20
230.6577238952
 10
173.1567200921
 20
231.4948478082
 10
173.1756332034
 20
232.3289791903
 10
173.113480495
 20
233.1531333097
 10
172.971848164
 20
233.9609773477
 10
172.7509688055
 20
234.745649801
 10
172.453472358
 20
235.5017519922
 10
172.0808821938
 20
236.2232348276
 10
171.6367506055
 20
236.9051880529
 10
171.1235813717
 20
237.5421556609
 10
170.5460434072
 20
238.1297258173
 10
169.9077818206
 20
238.6628239631
 10
169.2143718092
 20
239.1379822658
 10
168.4705329962
 20
239.5508435456
 10
167.6824772125
 20
239.8990012844
 10
166.8557608108
 20
240.1790426814
 10
165.9970698495
 20
240.3896294054
 10
165.112621206
 20
240.5283653152
 10
164.2093787756
 20
240.5950110398
 10
163.2940227154
 20
240.5882385394
 10
162.373621118
 20
240.5089176798
 10
161.4551486122
 20
240.3568174628
 10
160.545565747
 20
240.1339124408
 10
159.6519409322
 20
239.8410832621
  0
LWPOLYLINE
  5
3A0
100
AcDbEntity
  8
BEZUGSACHSEN
100
AcDbPolyline
 62
7
  6
CONTINUOUS
 90
3
 70
0
 10
169.0366536568
 20
230.0990279707
 10
168.9920679617
 20
230.0915228161
 10
168.9073598147
 20
230.0775910709
  0
LINE
  5
3A1
100
AcDbEntity
  8
BEZUGSACHSEN
100
AcDbLine
 62
7
  6
CONTINUOUS
 10
169.1306146895
 20
230.1143666176
 11
169.0366536568
 21
230.0990279707
  0
LWPOLYLINE
  5
3A2
100
AcDbEntity
  8
BEZUGSACHSEN
100
AcDbPolyline
 62
7
  6
CONTINUOUS
 90
13
 70
0
 10
168.9073598147
 20
230.0775910709
 10
168.8670575589
 20
230.0714720609
 10
168.8278332012
 20
230.0657807833
 10
168.7898002012
 20
230.061161013
 10
168.7522422042
 20
230.0579354927
 10
168.7158937817
 20
230.0558769142
 10
168.6791735041
 20
230.0565684076
 10
168.6426534746
 20
230.0590460321
 10
168.6049280794
 20
230.0650408749
 10
168.5646456161
 20
230.0730396654
 10
168.5233197463
 20
230.0838614365
 10
168.4789892336
 20
230.0964163953
 10
168.4327879042
 20
230.1106412212
  0
LINE
  5
3A3
100
AcDbEntity
  8
FASEN
100
AcDbLine
 62
9
  6
CONTINUOUS
 10
154.3341540626
 20
213.0183643252
 11
155.032313765
 21
213.3791801219
  0
LWPOLYLINE
  5
3A4
100
AcDbEntity
  8
BEZUGSACHSEN
100
AcDbPolyline
 62
7
  6
CONTINUOUS
 90
10
 70
0
 10
169.7128887978
 20
230.1873896764
 10
169.6450857694
 20
230.1811992452
 10
169.5795469744
 20
230.1747097138
 10
169.5163081776
 20
230.1677878105
 10
169.4552639752
 20
230.1606011527
 10
169.3963218724
 20
230.1531508503
 10
169.339419403
 20
230.1455617258
 10
169.2844555295
 20
230.1377998259
 10
169.2313856926
 20
230.1300176064
 10
169.1306146895
 20
230.1143666176
  0
LWPOLYLINE
  5
3A5
100
AcDbEntity
  8
BEZUGSACHSEN
100
AcDbPolyline
 62
7
  6
CONTINUOUS
 90
9
 70
0
 10
167.9101575503
 20
230.2813935215
 10
167.83929641
 20
230.3034562872
 10
167.7655767108
 20
230.3260470054
 10
167.6888582812
 20
230.34903207
 10
167.6090205561
 20
230.3724717857
 10
167.5259077115
 20
230.3962643909
 10
167.4393829524
 20
230.4204361511
 10
167.3491935191
 20
230.4448587481
 10
167.255463999
 20
230.4696490613
  0
LINE
  5
3A6
100
AcDbEntity
  8
BEZUGSACHSEN
100
AcDbLine
 62
7
  6
CONTINUOUS
 10
168.0436884573
 20
230.2387420293
 11
167.9101575503
 21
230.2813935215
  0
LWPOLYLINE
  5
3A7
100
AcDbEntity
  8
BEZUGSACHSEN
100
AcDbPolyline
 62
7
  6
CONTINUOUS
 90
3
 70
0
 10
168.4327879042
 20
230.1106412212
 10
168.3333084866
 20
230.1429336134
 10
168.1668629421
 20
230.1983838546
  0
LINE
  5
3A8
100
AcDbEntity
  8
BEZUGSACHSEN
100
AcDbLine
 62
7
  6
CONTINUOUS
 10
168.1668629421
 20
230.1983838546
 11
168.0436884573
 21
230.2387420293
  0
LWPOLYLINE
  5
3A9
100
AcDbEntity
  8
BEZUGSACHSEN
100
AcDbPolyline
 62
7
  6
CONTINUOUS
 90
15
 70
0
 10
169.3352685782
 20
231.1380383535
 10
169.2557522626
 20
231.1973306637
 10
169.1017301491
 20
231.2779363961
 10
168.9336378287
 20
231.3355377408
 10
168.755142089
 20
231.3688775245
 10
168.5701345182
 20
231.3772280503
 10
168.3826488091
 20
231.3604057822
 10
168.196773109
 20
231.3187754075
 10
168.0165611704
 20
231.2532420198
 10
167.8459442209
 20
231.1652315856
 10
167.6886454553
 20
231.0566601122
 10
167.5480989987
 20
230.9298921773
 10
167.4273750944
 20
230.7876897093
 10
167.3291127472
 20
230.6331513985
 10
167.255463999
 20
230.4696490613
  0
LINE
  5
3AA
100
AcDbEntity
  8
BEZUGSACHSEN
100
AcDbLine
 62
7
  6
CONTINUOUS
 10
166.9583127435
 20
236.3952723205
 11
167.068870338
 21
236.1848293467
  0
LINE
  5
3AB
100
AcDbEntity
  8
BEZUGSACHSEN
100
AcDbLine
 62
7
  6
CONTINUOUS
 10
167.068870338
 20
236.1848293467
 11
167.1858562574
 21
235.9574885438
  0
LINE
  5
3AC
100
AcDbEntity
  8
BEZUGSACHSEN
100
AcDbLine
 62
7
  6
CONTINUOUS
 10
167.1858562574
 20
235.9574885438
 11
167.308753319
 21
235.7138038232
  0
LINE
  5
3AD
100
AcDbEntity
  8
BEZUGSACHSEN
100
AcDbLine
 62
7
  6
CONTINUOUS
 10
167.308753319
 20
235.7138038232
 11
167.4374892187
 21
235.4535089608
  0
LINE
  5
3AE
100
AcDbEntity
  8
BEZUGSACHSEN
100
AcDbLine
 62
7
  6
CONTINUOUS
 10
167.4374892187
 20
235.4535089608
 11
167.5730254434
 21
235.1742025913
  0
LINE
  5
3AF
100
AcDbEntity
  8
BEZUGSACHSEN
100
AcDbLine
 62
7
  6
CONTINUOUS
 10
167.5730254434
 20
235.1742025913
 11
167.7162791987
 21
234.8734300756
  0
LINE
  5
3B0
100
AcDbEntity
  8
BEZUGSACHSEN
100
AcDbLine
 62
7
  6
CONTINUOUS
 10
167.7162791987
 20
234.8734300756
 11
167.8680897103
 21
234.5487617403
  0
LINE
  5
3B1
100
AcDbEntity
  8
BEZUGSACHSEN
100
AcDbLine
 62
7
  6
CONTINUOUS
 10
167.8680897103
 20
234.5487617403
 11
168.0291265446
 21
234.1980039419
  0
LINE
  5
3B2
100
AcDbEntity
  8
BEZUGSACHSEN
100
AcDbLine
 62
7
  6
CONTINUOUS
 10
168.0291265446
 20
234.1980039419
 11
168.1998698382
 21
233.8192692392
  0
LINE
  5
3B3
100
AcDbEntity
  8
BEZUGSACHSEN
100
AcDbLine
 62
7
  6
CONTINUOUS
 10
168.1998698382
 20
233.8192692392
 11
168.3807401982
 21
233.4107091796
  0
LINE
  5
3B4
100
AcDbEntity
  8
BEZUGSACHSEN
100
AcDbLine
 62
7
  6
CONTINUOUS
 10
168.3807401982
 20
233.4107091796
 11
168.5721792866
 21
232.9703280732
  0
LINE
  5
3B5
100
AcDbEntity
  8
BEZUGSACHSEN
100
AcDbLine
 62
7
  6
CONTINUOUS
 10
168.5721792866
 20
232.9703280732
 11
168.7749353652
 21
232.4952885236
  0
LINE
  5
3B6
100
AcDbEntity
  8
BEZUGSACHSEN
100
AcDbLine
 62
7
  6
CONTINUOUS
 10
168.7749353652
 20
232.4952885236
 11
168.9897784318
 21
231.9825092953
  0
LINE
  5
3B7
100
AcDbEntity
  8
BEZUGSACHSEN
100
AcDbLine
 62
7
  6
CONTINUOUS
 10
168.9897784318
 20
231.9825092953
 11
169.2173731429
 21
231.4289395471
  0
LINE
  5
3B8
100
AcDbEntity
  8
BEZUGSACHSEN
100
AcDbLine
 62
7
  6
CONTINUOUS
 10
169.2173731429
 20
231.4289395471
 11
169.4582717732
 21
230.8315554345
  0
LINE
  5
3B9
100
AcDbEntity
  8
BEZUGSACHSEN
100
AcDbLine
 62
7
  6
CONTINUOUS
 10
169.4582717732
 20
230.8315554345
 11
169.7128887978
 21
230.1873896764
  0
LINE
  5
3BA
100
AcDbEntity
  8
FASEN
100
AcDbLine
 62
7
  6
CONTINUOUS
 10
163.2382792298
 20
216.0874397586
 11
162.8712635486
 21
215.9119918474
  0
LINE
  5
3BB
100
AcDbEntity
  8
BEZUGSACHSEN
100
AcDbLine
 62
7
  6
CONTINUOUS
 10
171.3386642574
 20
235.2126416165
 11
171.7046532297
 21
234.6577445118
  0
LINE
  5
3BC
100
AcDbEntity
  8
BEZUGSACHSEN
100
AcDbLine
 62
7
  6
CONTINUOUS
 10
171.7046532297
 20
234.6577445118
 11
171.8952163529
 21
234.2984371626
  0
LWPOLYLINE
  5
3BD
100
AcDbEntity
  8
FASEN
100
AcDbPolyline
 62
7
  6
CONTINUOUS
 90
37
 70
0
 10
171.7233529546
 20
234.7038767424
 10
171.5528245106
 20
235.044830046
 10
171.1581136804
 20
235.6997558671
 10
170.6953986127
 20
236.3125852749
 10
170.1682941724
 20
236.8784599516
 10
169.5811828771
 20
237.3925979635
 10
168.9389246774
 20
237.8507238282
 10
168.2467792743
 20
238.2490839064
 10
167.5104440532
 20
238.5844031576
 10
166.7359492585
 20
238.8539438936
 10
165.9296561844
 20
239.0555023017
 10
165.0981418575
 20
239.1874425162
 10
164.2481974079
 20
239.2486891654
 10
163.3867631831
 20
239.2387400458
 10
162.5208617487
 20
239.1576685649
 10
161.6575998576
 20
239.0061311194
 10
160.8040428469
 20
238.7853607466
 10
159.9672143626
 20
238.4971707145
 10
159.1539677921
 20
238.1439224142
 10
158.3710460235
 20
237.7285586793
 10
157.6249979166
 20
237.2546057605
 10
156.9216887175
 20
236.7258338681
 10
156.2667660106
 20
236.1464767578
 10
155.6655005871
 20
235.5211351261
 10
155.1226706288
 20
234.8546233519
 10
154.6430497433
 20
234.1526390778
 10
154.2306171075
 20
233.420901006
 10
153.8891152365
 20
232.6661406168
 10
153.6214877181
 20
231.8955801953
 10
153.4293398315
 20
231.1148780702
 10
153.3140149313
 20
230.33062114
 10
153.2761475097
 20
229.547445548
 10
153.3164330797
 20
228.7700416628
 10
153.4352416105
 20
228.0050243842
 10
153.6326975732
 20
227.2575403332
 10
153.9070840416
 20
226.5367728052
 10
153.9700056321
 20
226.3985375709
  0
LWPOLYLINE
  5
3BE
100
AcDbEntity
  8
BEZUGSACHSEN
100
AcDbPolyline
 62
7
  6
CONTINUOUS
 90
11
 70
0
 10
165.4205537102
 20
238.4975891071
 10
166.143433499
 20
238.3871400418
 10
166.8479775886
 20
238.2241275901
 10
167.5298422164
 20
238.0095567386
 10
168.1848236243
 20
237.7447502799
 10
168.8088837227
 20
237.4313407078
 10
169.3981750341
 20
237.0712601445
 10
169.9490644072
 20
236.6667284332
 10
170.458155413
 20
236.2202394565
 10
170.9223092828
 20
235.734545766
 10
171.3386642574
 20
235.2126416165
  0
LWPOLYLINE
  5
3BF
100
AcDbEntity
  8
BEZUGSACHSEN
100
AcDbPolyline
 62
7
  6
CONTINUOUS
 90
45
 70
0
 10
165.4205537102
 20
238.4975891071
 10
165.4514951394
 20
238.4913317737
 10
165.4822254298
 20
238.4813976341
 10
165.5129426735
 20
238.4675600826
 10
165.543115588
 20
238.4508989298
 10
165.5721403942
 20
238.4323866809
 10
165.6004567994
 20
238.4121104764
 10
165.6282372902
 20
238.3904264671
 10
165.6556415623
 20
238.3673521368
 10
165.6828471964
 20
238.3429956629
 10
165.7099464763
 20
238.3173555406
 10
165.7370631203
 20
238.2904564857
 10
165.7642640564
 20
238.2622810089
 10
165.7916360588
 20
238.2328204072
 10
165.8192326088
 20
238.2020453168
 10
165.8471184023
 20
238.1699303838
 10
165.8753389614
 20
238.1364371936
 10
165.9039459118
 20
238.1015300587
 10
165.9329797734
 20
238.0651633518
 10
165.9624841465
 20
238.0272939712
 10
165.9924965685
 20
237.9878698915
 10
166.0230557388
 20
237.946841831
 10
166.0541975104
 20
237.9041517777
 10
166.0859576254
 20
237.8597448204
 10
166.1183711748
 20
237.8135570577
 10
166.151472231
 20
237.7655281092
 10
166.185295788
 20
237.7155881056
 10
166.2198751309
 20
237.6636711495
 10
166.255245664
 20
237.6097011933
 10
166.2914405224
 20
237.5536066326
 10
166.3284959127
 20
237.495304951
 10
166.3664452811
 20
237.4347185776
 10
166.4053259802
 20
237.3717581257
 10
166.4451721634
 20
237.3063396618
 10
166.4860225561
 20
237.2383665708
 10
166.5279122375
 20
237.1677482783
 10
166.5708816609
 20
237.0943802579
 10
166.6149672234
 20
237.0181645824
 10
166.6602111332
 20
236.9389885832
 10
166.7066511943
 20
236.8567466737
 10
166.7543315138
 20
236.7713175576
 10
166.8032903739
 20
236.6825894835
 10
166.8535770177
 20
236.5904262879
 10
166.9052374515
 20
236.4946962193
 10
166.9583127435
 20
236.3952723205
  0
LWPOLYLINE
  5
3C0
100
AcDbEntity
  8
BEZUGSACHSEN
100
AcDbPolyline
 62
7
  6
CONTINUOUS
 90
69
 70
0
 10
165.4205537102
 20
238.4975891071
 10
165.3895554409
 20
238.4978878668
 10
165.3622156247
 20
238.4938025042
 10
165.3389740835
 20
238.4852656898
 10
165.3187058841
 20
238.47306473
 10
165.3002678048
 20
238.4575568022
 10
165.2840668607
 20
238.4396460021
 10
165.2703703751
 20
238.4205471923
 10
165.2584509359
 20
238.3998054532
 10
165.2476372362
 20
238.3772504875
 10
165.2379930301
 20
238.3530146685
 10
165.2293631141
 20
238.3271174211
 10
165.2217254395
 20
238.2996839167
 10
165.2150307576
 20
238.270920265
 10
165.2092017737
 20
238.2405935254
 10
165.2041404804
 20
238.2085245241
 10
165.1998582663
 20
238.174714048
 10
165.196331323
 20
238.1390612305
 10
165.1935672647
 20
238.1016791073
 10
165.1915665292
 20
238.062822761
 10
165.1903259171
 20
238.0219721417
 10
165.1898371393
 20
237.9784756021
 10
165.1901216868
 20
237.9329368041
 10
165.1911808409
 20
237.8860790126
 10
165.1930613775
 20
237.8369351267
 10
165.1958198112
 20
237.7844790196
 10
165.1994412043
 20
237.7295467392
 10
165.2038914096
 20
237.6729877238
 10
165.2092752839
 20
237.6137868788
 10
165.215696081
 20
237.5510179792
 10
165.2231406461
 20
237.4852085643
 10
165.2316025769
 20
237.416725728
 10
165.241160123
 20
237.3451513096
 10
165.2518485268
 20
237.2703697267
 10
165.2637983813
 20
237.1918255305
 10
165.2772032324
 20
237.1085662506
 10
165.2919265774
 20
237.0216352569
 10
165.3077530052
 20
236.9324588993
 10
165.3250911946
 20
236.8389963409
 10
165.3443789369
 20
236.7391172725
 10
165.3653644355
 20
236.6344227925
 10
165.3878261335
 20
236.5262764307
 10
165.4120806973
 20
236.4133323103
 10
165.438325489
 20
236.2948313778
 10
165.4667305271
 20
236.1703326504
 10
165.4975596121
 20
236.0389637267
 10
165.5307576194
 20
235.9012345892
 10
165.566289056
 20
235.7575636877
 10
165.6043508595
 20
235.6073831883
 10
165.6450303958
 20
235.4505675655
 10
165.6886419928
 20
235.2862006719
 10
165.7355032609
 20
235.1133585765
 10
165.7857409547
 20
234.9319075514
 10
165.8395251842
 20
234.741550117
 10
165.8970706319
 20
234.541854343
 10
165.9585769865
 20
234.3324574426
 10
166.0242946201
 20
234.1128540663
 10
166.0944585009
 20
233.8826119848
 10
166.1693599253
 20
233.64114853
 10
166.2492755559
 20
233.3879574199
 10
166.3345422699
 20
233.1223781563
 10
166.4254853717
 20
232.8438266538
 10
166.5224899464
 20
232.5515718378
 10
166.6259367207
 20
232.2449516158
 10
166.7362570762
 20
231.9231861334
 10
166.8538929922
 20
231.5855411455
 10
166.9793095463
 20
231.2312403395
 10
167.1131356559
 20
230.8591427774
 10
167.255463999
 20
230.4696490613
  0
LINE
  5
3C1
100
AcDbEntity
  8
0
100
AcDbLine
 62
2
  6
CONTINUOUS
 10
182.6569681204
 20
215.2420393378
 11
186.4140128196
 21
223.3506860407
  0
LINE
  5
3C2
100
AcDbEntity
  8
0
100
AcDbLine
 62
2
  6
CONTINUOUS
 10
177.561323773
 20
208.4541546071
 11
182.6569681204
 21
215.2420393378
  0
LWPOLYLINE
  5
3C3
100
AcDbEntity
  8
RUNDUNGEN
100
AcDbPolyline
 62
7
  6
CONTINUOUS
 90
41
 70
0
 10
181.3927436325
 20
238.1059788728
 10
180.7581926543
 20
239.3206041854
 10
180.0165685954
 20
240.4798283421
 10
179.1719733168
 20
241.5756370173
 10
178.2287108926
 20
242.6010886643
 10
177.1915402181
 20
243.5496412218
 10
176.0666000453
 20
244.4144529838
 10
174.8596639975
 20
245.1899383646
 10
173.580021779
 20
245.8693595192
 10
172.2391009917
 20
246.4468528432
 10
170.8405236145
 20
246.9209118187
 10
169.3866866111
 20
247.2893876171
 10
167.8921612601
 20
247.5473134099
 10
166.3708649586
 20
247.6923206317
 10
164.8304742615
 20
247.7240295938
 10
163.2802076057
 20
247.6423397313
 10
161.7297375852
 20
247.4477992286
 10
160.188123614
 20
247.1415043511
 10
158.6663859096
 20
246.7256744654
 10
157.1754014168
 20
246.2036126906
 10
155.7235463563
 20
245.5786380383
 10
154.3195470698
 20
244.8547528224
 10
152.9717796587
 20
244.0364374047
 10
151.687831993
 20
243.1282882164
 10
150.4769358707
 20
242.1368819982
 10
149.3476304867
 20
241.0696788317
 10
148.3057541576
 20
239.9327502045
 10
147.3572310609
 20
238.7328840487
 10
146.5076042581
 20
237.4773012796
 10
145.7612236292
 20
236.1722605172
 10
145.1244793794
 20
234.8292652997
 10
144.602423925
 20
233.4619354875
 10
144.1948797107
 20
232.0732348544
 10
143.9029510236
 20
230.6665675537
 10
143.7294197774
 20
229.2539147463
 10
143.6751765999
 20
227.8462624822
 10
143.7398749334
 20
226.4510695948
 10
143.9225857577
 20
225.0769286371
 10
144.2218323977
 20
223.7314005706
 10
144.6356811813
 20
222.4218800754
 10
145.1611358117
 20
221.1569200576
  0
LINE
  5
3C4
100
AcDbEntity
  8
0
100
AcDbLine
 62
7
  6
CONTINUOUS
 10
187.1676895271
 20
225.7610116909
 11
181.3927436325
 21
238.1059788728
  0
LWPOLYLINE
  5
3C5
100
AcDbEntity
  8
FASEN
100
AcDbPolyline
 62
9
  6
CONTINUOUS
 90
27
 70
0
 10
181.3927436325
 20
238.1059788728
 10
181.6900696061
 20
237.426689656
 10
182.1336300026
 20
236.1859112638
 10
182.4671579425
 20
234.9068881505
 10
182.6887078659
 20
233.5970822378
 10
182.7969870699
 20
232.264136007
 10
182.7913636837
 20
230.9158276875
 10
182.6718705599
 20
229.5600250622
 10
182.4392049851
 20
228.2046392866
 10
182.0947245856
 20
226.8575791365
 10
181.6404394576
 20
225.5267049407
 10
181.0790004116
 20
224.2197825358
 10
180.4136835367
 20
222.944438045
 10
179.6483710688
 20
221.7081133205
 10
178.7875287262
 20
220.5180225097
 10
177.8361796637
 20
219.3811099842
 10
176.7998751503
 20
218.3040098023
 10
175.6846621831
 20
217.2930070102
 10
174.4970482055
 20
216.3540009683
 10
173.2439631303
 20
215.4924709239
 10
171.9327189078
 20
214.7134440415
 10
170.5709668577
 20
214.021466067
 10
169.1666530123
 20
213.4205747978
 10
167.7279632648
 20
212.9142738503
 10
166.2633180292
 20
212.5055255873
 10
164.7812904939
 20
212.1967161604
 10
163.2905203402
 20
211.9896376529
  0
LINE
  5
3C6
100
AcDbEntity
  8
0
100
AcDbLine
 62
2
  6
CONTINUOUS
 10
186.4140128196
 20
223.3506860407
 11
187.1676895271
 21
225.7610116909
  0
LINE
  5
3C7
100
AcDbEntity
  8
0
100
AcDbLine
 62
2
  6
CONTINUOUS
 10
170.925601244
 20
204.0270487417
 11
177.561323773
 21
208.4541546071
  0
LWPOLYLINE
  5
3C8
100
AcDbEntity
  8
FASEN
100
AcDbPolyline
 62
9
  6
CONTINUOUS
 90
33
 70
0
 10
161.2802321672
 20
245.8179913846
 10
159.967617065
 20
245.537016997
 10
158.6718244156
 20
245.1643214297
 10
157.4012744702
 20
244.7014075047
 10
156.1637516042
 20
244.1520494491
 10
154.9674587211
 20
243.5189264091
 10
153.8195604891
 20
242.80682645
 10
152.7278347548
 20
242.0195371694
 10
151.6986448876
 20
241.1627391161
 10
150.7391465752
 20
240.2412323343
 10
149.8547407092
 20
239.2614459353
 10
149.0517795573
 20
238.2290708038
 10
148.3345646784
 20
237.1511216635
 10
147.708483939
 20
236.0340359344
 10
147.1766306831
 20
234.8852364127
 10
146.7432920173
 20
233.7117443588
 10
146.41027452
 20
232.5212018002
 10
146.1806556997
 20
231.3210343637
 10
146.0549098715
 20
230.1189125123
 10
146.0348268915
 20
228.9224836872
 10
146.1195376447
 20
227.7392425815
 10
146.3095028422
 20
226.5768455242
 10
146.6025228612
 20
225.4424550495
 10
146.9976917871
 20
224.3436065609
 10
147.4915892065
 20
223.28683778
 10
148.0820949468
 20
222.2791667734
 10
148.7644023711
 20
221.3266879096
 10
149.534730328
 20
220.4363033347
 10
150.3878821893
 20
219.6126077818
 10
151.3206432278
 20
218.8606283497
 10
152.3232865891
 20
218.1859700872
 10
153.3836640395
 20
217.5968238363
 10
154.5058249902
 20
217.0904593164
  0
LINE
  5
3C9
100
AcDbEntity
  8
0
100
AcDbLine
 62
7
  6
CONTINUOUS
 10
43.1352514482
 20
134.7117398025
 11
77.1352514482
 21
134.7117398025
  0
LINE
  5
3CA
100
AcDbEntity
  8
0
100
AcDbLine
 62
7
  6
CONTINUOUS
 10
50.3352514482
 20
135.7117135173
 11
69.9352514482
 21
135.7117135173
  0
LINE
  5
3CB
100
AcDbEntity
  8
0
100
AcDbLine
 62
7
  6
CONTINUOUS
 10
69.9352514482
 20
137.2117398025
 11
69.4556053079
 21
137.2117398025
  0
LINE
  5
3CC
100
AcDbEntity
  8
BEZUGSACHSEN
100
AcDbLine
 62
7
  6
CONTINUOUS
 10
69.4556053079
 20
137.2117398025
 11
50.8148975885
 21
137.2117398025
  0
LINE
  5
3CD
100
AcDbEntity
  8
0
100
AcDbLine
 62
7
  6
CONTINUOUS
 10
50.8148975885
 20
137.2117398025
 11
50.3352514482
 21
137.2117398025
  0
LINE
  5
3CE
100
AcDbEntity
  8
BEZUGSACHSEN
100
AcDbLine
 62
7
  6
CONTINUOUS
 10
51.5376257401
 20
152.7117398025
 11
52.3376699128
 21
152.7117398025
  0
LINE
  5
3CF
100
AcDbEntity
  8
BEZUGSACHSEN
100
AcDbLine
 62
7
  6
CONTINUOUS
 10
58.8407527844
 20
152.7117398025
 11
61.429750112
 21
152.7117398025
  0
LINE
  5
3D0
100
AcDbEntity
  8
BEZUGSACHSEN
100
AcDbLine
 62
7
  6
CONTINUOUS
 10
67.9328329836
 20
152.7117398025
 11
68.7328771562
 21
152.7117398025
  0
LINE
  5
3D1
100
AcDbEntity
  8
0
100
AcDbLine
 62
7
  6
CONTINUOUS
 10
69.9352514482
 20
135.7117135173
 11
70.9352224809
 21
134.7117398025
  0
LINE
  5
3D2
100
AcDbEntity
  8
0
100
AcDbLine
 62
7
  6
CONTINUOUS
 10
40.1352514482
 20
211.7117398025
 11
40.1352514482
 21
137.7117398025
  0
LINE
  5
3D3
100
AcDbEntity
  8
0
100
AcDbLine
 62
7
  6
CONTINUOUS
 10
50.3352514482
 20
135.7117135173
 11
50.3352514482
 21
137.2117398025
  0
LINE
  5
3D4
100
AcDbEntity
  8
BEZUGSACHSEN
100
AcDbLine
 62
9
  6
CONTINUOUS
 10
52.1352514482
 20
214.7117398025
 11
52.1352514482
 21
207.4517398025
  0
LINE
  5
3D5
100
AcDbEntity
  8
0
100
AcDbLine
 62
9
  6
CONTINUOUS
 10
52.1352514482
 20
207.4517398025
 11
52.1352514482
 21
202.6207271919
  0
LINE
  5
3D6
100
AcDbEntity
  8
0
100
AcDbLine
 62
7
  6
CONTINUOUS
 10
50.3352514482
 20
137.2117398025
 11
54.321923482
 21
194.2238060328
  0
LINE
  5
3D7
100
AcDbEntity
  8
0
100
AcDbLine
 62
7
  6
CONTINUOUS
 10
52.9814331612
 20
202.6207271919
 11
54.321923482
 21
194.2238060328
  0
LINE
  5
3D8
100
AcDbEntity
  8
BEZUGSACHSEN
100
AcDbLine
 62
7
  6
CENTER
 10
60.1352514482
 20
219.2125956473
 11
60.1352514482
 21
129.5135853849
  0
LINE
  5
3D9
100
AcDbEntity
  8
0
100
AcDbLine
 62
7
  6
CONTINUOUS
 10
67.2890697352
 20
202.6207271919
 11
65.9485794144
 21
194.2238060328
  0
LINE
  5
3DA
100
AcDbEntity
  8
0
100
AcDbLine
 62
7
  6
CONTINUOUS
 10
69.9352514482
 20
137.2117398025
 11
65.9485794144
 21
194.2238060328
  0
LINE
  5
3DB
100
AcDbEntity
  8
0
100
AcDbLine
 62
9
  6
CONTINUOUS
 10
68.1352514482
 20
202.6207271919
 11
68.1352514482
 21
207.4517398025
  0
LINE
  5
3DC
100
AcDbEntity
  8
BEZUGSACHSEN
100
AcDbLine
 62
9
  6
CONTINUOUS
 10
68.1352514482
 20
207.4517398025
 11
68.1352514482
 21
214.7117398025
  0
LINE
  5
3DD
100
AcDbEntity
  8
0
100
AcDbLine
 62
7
  6
CONTINUOUS
 10
69.9352514482
 20
135.7117135173
 11
69.9352514482
 21
137.2117398025
  0
LINE
  5
3DE
100
AcDbEntity
  8
0
100
AcDbLine
 62
7
  6
CONTINUOUS
 10
80.1352514482
 20
211.7117398025
 11
80.1352514482
 21
137.7117398025
  0
LINE
  5
3DF
100
AcDbEntity
  8
0
100
AcDbLine
 62
7
  6
CONTINUOUS
 10
50.3352514482
 20
135.7117135173
 11
49.3352804155
 21
134.7117398025
  0
LINE
  5
3E0
100
AcDbEntity
  8
0
100
AcDbLine
 62
7
  6
CONTINUOUS
 10
54.321923482
 20
194.2238060328
 11
65.9485794144
 21
194.2238060328
  0
LINE
  5
3E1
100
AcDbEntity
  8
0
100
AcDbLine
 62
7
  6
CONTINUOUS
 10
52.1352514482
 20
202.6207271919
 11
52.9814331612
 21
202.6207271919
  0
LINE
  5
3E2
100
AcDbEntity
  8
0
100
AcDbLine
 62
7
  6
CONTINUOUS
 10
67.2890697352
 20
202.6207271919
 11
68.1352514482
 21
202.6207271919
  0
LINE
  5
3E3
100
AcDbEntity
  8
BEZUGSACHSEN
100
AcDbLine
 62
9
  6
CONTINUOUS
 10
68.1352514482
 20
207.4517398025
 11
67.5106382319
 21
207.4517398025
  0
LINE
  5
3E4
100
AcDbEntity
  8
BEZUGSACHSEN
100
AcDbLine
 62
9
  6
CONTINUOUS
 10
63.0352514482
 20
207.4517398025
 11
57.2352514482
 21
207.4517398025
  0
LINE
  5
3E5
100
AcDbEntity
  8
BEZUGSACHSEN
100
AcDbLine
 62
9
  6
CONTINUOUS
 10
52.7598646645
 20
207.4517398025
 11
52.1352514482
 21
207.4517398025
  0
LINE
  5
3E6
100
AcDbEntity
  8
0
100
AcDbLine
 62
9
  6
CONTINUOUS
 10
52.1352514482
 20
207.4517398025
 11
49.2352514482
 21
207.4517398025
  0
LINE
  5
3E7
100
AcDbEntity
  8
0
100
AcDbLine
 62
9
  6
CONTINUOUS
 10
68.1352514482
 20
207.4517398025
 11
71.0352514482
 21
207.4517398025
  0
LINE
  5
3E8
100
AcDbEntity
  8
BEZUGSACHSEN
100
AcDbLine
 62
7
  6
CONTINUOUS
 10
66.5002514482
 20
214.7117398025
 11
53.7702259521
 21
214.7117398025
  0
LINE
  5
3E9
100
AcDbEntity
  8
0
100
AcDbLine
 62
7
  6
CONTINUOUS
 10
43.1352514482
 20
214.7117398025
 11
52.1354961244
 21
214.7117398025
  0
LINE
  5
3EA
100
AcDbEntity
  8
BEZUGSACHSEN
100
AcDbLine
 62
7
  6
CONTINUOUS
 10
52.1354961244
 20
214.7117398025
 11
53.6540103068
 21
214.7117398025
  0
LINE
  5
3EB
100
AcDbEntity
  8
0
100
AcDbLine
 62
7
  6
CONTINUOUS
 10
53.6540103068
 20
214.7117398025
 11
53.7702514481
 21
214.7117398025
  0
LINE
  5
3EC
100
AcDbEntity
  8
BEZUGSACHSEN
100
AcDbLine
 62
7
  6
CONTINUOUS
 10
66.616492476
 20
214.7117398025
 11
68.1347636147
 21
214.7117398025
  0
LINE
  5
3ED
100
AcDbEntity
  8
0
100
AcDbLine
 62
7
  6
CONTINUOUS
 10
66.5002514482
 20
214.7117398025
 11
66.616492476
 21
214.7117398025
  0
LINE
  5
3EE
100
AcDbEntity
  8
0
100
AcDbLine
 62
7
  6
CONTINUOUS
 10
68.1347636147
 20
214.7117398025
 11
77.1352514482
 21
214.7117398025
  0
LINE
  5
3EF
100
AcDbEntity
  8
FASEN
100
AcDbLine
 62
7
  6
CONTINUOUS
 10
64.8532001661
 20
280.0934026236
 11
64.2352514482
 21
279.6075136446
  0
LINE
  5
3F0
100
AcDbEntity
  8
FASEN
100
AcDbLine
 62
7
  6
CONTINUOUS
 10
55.5352514482
 20
270.429230263
 11
55.5352514482
 21
277.0236489473
  0
LINE
  5
3F1
100
AcDbEntity
  8
BEZUGSACHSEN
100
AcDbLine
 62
7
  6
CONTINUOUS
 10
56.0352514482
 20
264.7791032268
 11
56.0352514482
 21
269.5589669874
  0
LINE
  5
3F2
100
AcDbEntity
  8
FASEN
100
AcDbLine
 62
7
  6
CONTINUOUS
 10
56.0352514482
 20
269.5589669874
 11
56.0352514482
 21
279.6075136446
  0
LINE
  5
3F3
100
AcDbEntity
  8
BEZUGSACHSEN
100
AcDbLine
 62
7
  6
CENTER
 10
60.1352514482
 20
260.6578434628
 11
60.1352514482
 21
240.319142605
  0
LINE
  5
3F4
100
AcDbEntity
  8
BEZUGSACHSEN
100
AcDbLine
 62
7
  6
CENTER
 10
60.1352514482
 20
260.6578434628
 11
60.1352514482
 21
281.2087964171
  0
LINE
  5
3F5
100
AcDbEntity
  8
BEZUGSACHSEN
100
AcDbLine
 62
7
  6
CENTER
 10
60.1352514482
 20
260.6578434628
 11
39.4880687576
 21
260.6578434628
  0
LINE
  5
3F6
100
AcDbEntity
  8
BEZUGSACHSEN
100
AcDbLine
 62
7
  6
CENTER
 10
60.1352514482
 20
260.6578434628
 11
80.8207993139
 21
260.6578434628
  0
LINE
  5
3F7
100
AcDbEntity
  8
BEZUGSACHSEN
100
AcDbLine
 62
7
  6
CONTINUOUS
 10
64.2352514482
 20
269.5589669874
 11
64.2352514482
 21
264.7791032268
  0
LINE
  5
3F8
100
AcDbEntity
  8
FASEN
100
AcDbLine
 62
7
  6
CONTINUOUS
 10
64.2352514482
 20
269.5589669874
 11
64.2352514482
 21
279.6075136446
  0
LINE
  5
3F9
100
AcDbEntity
  8
FASEN
100
AcDbLine
 62
7
  6
CONTINUOUS
 10
64.7352514482
 20
277.0236489574
 11
64.7352514482
 21
270.429230263
  0
LINE
  5
3FA
100
AcDbEntity
  8
FASEN
100
AcDbLine
 62
7
  6
CONTINUOUS
 10
55.4173027302
 20
280.0934026236
 11
56.0352514482
 21
279.6075136446
  0
LINE
  5
3FB
100
AcDbEntity
  8
FASEN
100
AcDbLine
 62
7
  6
CONTINUOUS
 10
64.7352514482
 20
277.0236614992
 11
64.2352514482
 21
277.0236614992
  0
LINE
  5
3FC
100
AcDbEntity
  8
FASEN
100
AcDbLine
 62
7
  6
CONTINUOUS
 10
55.5352514482
 20
277.0236614992
 11
56.0352514482
 21
277.0236614992
  0
LINE
  5
3FD
100
AcDbEntity
  8
FASEN
100
AcDbLine
 62
7
  6
CONTINUOUS
 10
64.7352514482
 20
76.7824267324
 11
64.2352514482
 21
76.7824267324
  0
LINE
  5
3FE
100
AcDbEntity
  8
FASEN
100
AcDbLine
 62
7
  6
CONTINUOUS
 10
55.5352514482
 20
76.7824267324
 11
56.0352514482
 21
76.7824267324
  0
LINE
  5
3FF
100
AcDbEntity
  8
FASEN
100
AcDbLine
 62
7
  6
CONTINUOUS
 10
64.8532001661
 20
73.7126856079
 11
64.2352514482
 21
74.1985745869
  0
LINE
  5
400
100
AcDbEntity
  8
BEZUGSACHSEN
100
AcDbLine
 62
9
  6
CONTINUOUS
 10
52.1352514482
 20
99.5132957607
 11
52.1352514482
 21
86.7832192727
  0
LINE
  5
401
100
AcDbEntity
  8
BEZUGSACHSEN
100
AcDbLine
 62
9
  6
CONTINUOUS
 10
53.7702514482
 20
85.1482447687
 11
56.0352514482
 21
85.1482447687
  0
LINE
  5
402
100
AcDbEntity
  8
BEZUGSACHSEN
100
AcDbLine
 62
9
  6
CONTINUOUS
 10
64.2352514482
 20
85.1482447687
 11
66.5002769443
 21
85.1482447687
  0
LINE
  5
403
100
AcDbEntity
  8
BEZUGSACHSEN
100
AcDbLine
 62
9
  6
CONTINUOUS
 10
53.7702514482
 20
86.6669990001
 11
53.7702514482
 21
85.1479763111
  0
LINE
  5
404
100
AcDbEntity
  8
BEZUGSACHSEN
100
AcDbLine
 62
9
  6
CONTINUOUS
 10
53.7702259521
 20
101.1482447687
 11
53.7702514481
 21
99.6294856829
  0
LINE
  5
405
100
AcDbEntity
  8
BEZUGSACHSEN
100
AcDbLine
 62
9
  6
CONTINUOUS
 10
66.6164925896
 20
86.7832447687
 11
68.1354956731
 21
86.7832447687
  0
LINE
  5
406
100
AcDbEntity
  8
BEZUGSACHSEN
100
AcDbLine
 62
9
  6
CONTINUOUS
 10
52.1352514482
 20
86.7832192727
 11
53.6540105341
 21
86.7832447686
  0
LINE
  5
407
100
AcDbEntity
  8
BEZUGSACHSEN
100
AcDbLine
 62
7
  6
CONTINUOUS
 10
55.5352514482
 20
76.7824390546
 11
55.5352514482
 21
80.7489778337
  0
LINE
  5
408
100
AcDbEntity
  8
FASEN
100
AcDbLine
 62
7
  6
CONTINUOUS
 10
56.0352514482
 20
74.1985745869
 11
56.0352514482
 21
76.7824267324
  0
LINE
  5
409
100
AcDbEntity
  8
BEZUGSACHSEN
100
AcDbLine
 62
7
  6
CONTINUOUS
 10
56.0352514482
 20
76.7824267324
 11
56.0352514482
 21
85.6032397755
  0
LINE
  5
40A
100
AcDbEntity
  8
0
100
AcDbLine
 62
7
  6
CONTINUOUS
 10
56.0352514482
 20
85.6032397755
 11
56.0352514482
 21
89.0269850047
  0
LINE
  5
40B
100
AcDbEntity
  8
BEZUGSACHSEN
100
AcDbLine
 62
9
  6
CONTINUOUS
 10
57.2352514482
 20
100.5236315525
 11
57.2352514482
 21
101.1482447687
  0
LINE
  5
40C
100
AcDbEntity
  8
BEZUGSACHSEN
100
AcDbLine
 62
9
  6
CONTINUOUS
 10
68.1352514482
 20
90.2482447687
 11
67.5106382319
 21
90.2482447687
  0
LINE
  5
40D
100
AcDbEntity
  8
BEZUGSACHSEN
100
AcDbLine
 62
9
  6
CONTINUOUS
 10
52.7598646645
 20
90.2482447687
 11
52.1352514482
 21
90.2482447687
  0
LINE
  5
40E
100
AcDbEntity
  8
BEZUGSACHSEN
100
AcDbLine
 62
7
  6
CENTER
 10
60.1352514482
 20
93.1482447687
 11
60.1352514482
 21
71.879265592
  0
LINE
  5
40F
100
AcDbEntity
  8
BEZUGSACHSEN
100
AcDbLine
 62
7
  6
CENTER
 10
60.1352514482
 20
93.1482447687
 11
60.1352514482
 21
114.530347264
  0
LINE
  5
410
100
AcDbEntity
  8
BEZUGSACHSEN
100
AcDbLine
 62
7
  6
CENTER
 10
60.1352514482
 20
93.1482447687
 11
38.6679317263
 21
93.1482447687
  0
LINE
  5
411
100
AcDbEntity
  8
BEZUGSACHSEN
100
AcDbLine
 62
7
  6
CENTER
 10
60.1352514482
 20
93.1482447687
 11
80.9481344273
 21
93.1482447687
  0
LINE
  5
412
100
AcDbEntity
  8
BEZUGSACHSEN
100
AcDbLine
 62
9
  6
CONTINUOUS
 10
63.0352514482
 20
100.5236315525
 11
63.0352514482
 21
101.1482447687
  0
LINE
  5
413
100
AcDbEntity
  8
BEZUGSACHSEN
100
AcDbLine
 62
9
  6
CONTINUOUS
 10
68.1352514482
 20
96.0482447687
 11
67.5106382319
 21
96.0482447687
  0
LINE
  5
414
100
AcDbEntity
  8
BEZUGSACHSEN
100
AcDbLine
 62
9
  6
CONTINUOUS
 10
52.7598646645
 20
96.0482447687
 11
52.1352514482
 21
96.0482447687
  0
LINE
  5
415
100
AcDbEntity
  8
FASEN
100
AcDbLine
 62
7
  6
CONTINUOUS
 10
64.2352514482
 20
76.7824267324
 11
64.2352514482
 21
74.1985745869
  0
LINE
  5
416
100
AcDbEntity
  8
BEZUGSACHSEN
100
AcDbLine
 62
7
  6
CONTINUOUS
 10
64.2352514482
 20
76.7824267324
 11
64.2352514482
 21
85.6032397755
  0
LINE
  5
417
100
AcDbEntity
  8
0
100
AcDbLine
 62
7
  6
CONTINUOUS
 10
64.2352514482
 20
85.6032397755
 11
64.2352514482
 21
89.0269850047
  0
LINE
  5
418
100
AcDbEntity
  8
BEZUGSACHSEN
100
AcDbLine
 62
7
  6
CONTINUOUS
 10
64.7352514482
 20
80.7489778337
 11
64.7352514482
 21
76.7824390447
  0
LINE
  5
419
100
AcDbEntity
  8
BEZUGSACHSEN
100
AcDbLine
 62
9
  6
CONTINUOUS
 10
66.5002514482
 20
101.1484895257
 11
66.5002514482
 21
99.6294905377
  0
LINE
  5
41A
100
AcDbEntity
  8
BEZUGSACHSEN
100
AcDbLine
 62
9
  6
CONTINUOUS
 10
66.5003024406
 20
86.6670587872
 11
66.5002769443
 21
85.1482447687
  0
LINE
  5
41B
100
AcDbEntity
  8
BEZUGSACHSEN
100
AcDbLine
 62
9
  6
CONTINUOUS
 10
52.1354961244
 20
99.5132957525
 11
53.6540103068
 21
99.513244769
  0
LINE
  5
41C
100
AcDbEntity
  8
BEZUGSACHSEN
100
AcDbLine
 62
9
  6
CONTINUOUS
 10
66.616492476
 20
99.5132447689
 11
68.1347636147
 21
99.5132957444
  0
LINE
  5
41D
100
AcDbEntity
  8
BEZUGSACHSEN
100
AcDbLine
 62
9
  6
CONTINUOUS
 10
66.5002514482
 20
101.1482447687
 11
53.7702259521
 21
101.1482447687
  0
LINE
  5
41E
100
AcDbEntity
  8
BEZUGSACHSEN
100
AcDbLine
 62
9
  6
CONTINUOUS
 10
68.1352514482
 20
86.7832447687
 11
68.1352514482
 21
99.5132957608
  0
LINE
  5
41F
100
AcDbEntity
  8
FASEN
100
AcDbLine
 62
7
  6
CONTINUOUS
 10
55.4173027302
 20
73.7126856079
 11
56.0352514482
 21
74.1985745869
  0
ARC
  5
420
100
AcDbEntity
  8
0
100
AcDbCircle
 62
7
  6
CONTINUOUS
 10
77.1352514482
 20
137.7117398025
 40
3.0
100
AcDbArc
 50
270.0
 51
360.0
  0
ARC
  5
421
100
AcDbEntity
  8
0
100
AcDbCircle
 62
7
  6
CONTINUOUS
 10
43.1352514482
 20
137.7117398025
 40
3.0
100
AcDbArc
 50
180.0
 51
270.0
  0
ARC
  5
422
100
AcDbEntity
  8
0
100
AcDbCircle
 62
7
  6
CONTINUOUS
 10
77.1352514482
 20
211.7117398025
 40
3.0
100
AcDbArc
 50
0.0
 51
90.0
  0
ARC
  5
423
100
AcDbEntity
  8
0
100
AcDbCircle
 62
7
  6
CONTINUOUS
 10
43.1352514482
 20
211.7117398025
 40
3.0
100
AcDbArc
 50
90.0
 51
180.0
  0
ARC
  5
424
100
AcDbEntity
  8
FASEN
100
AcDbCircle
 62
7
  6
CONTINUOUS
 10
85.5810771698
 20
237.5721151769
 40
38.9119321262
100
AcDbArc
 50
122.3926232116
 51
123.2688006267
  0
ARC
  5
425
100
AcDbEntity
  8
FASEN
100
AcDbCircle
 62
7
  6
CONTINUOUS
 10
34.6894257266
 20
237.5721151769
 40
38.9119321262
100
AcDbArc
 50
56.7311993733
 51
57.6073767884
  0
ARC
  5
426
100
AcDbEntity
  8
FASEN
100
AcDbCircle
 62
7
  6
CONTINUOUS
 10
60.1352514482
 20
260.6578434628
 40
20.0
100
AcDbArc
 50
103.6445294425
 51
76.3554705575
  0
ARC
  5
427
100
AcDbEntity
  8
FASEN
100
AcDbCircle
 62
9
  6
CONTINUOUS
 10
60.1352514482
 20
260.6578434628
 40
17.0
100
AcDbArc
 50
105.6992847145
 51
74.3007152946
  0
ARC
  5
428
100
AcDbEntity
  8
FASEN
100
AcDbCircle
 62
7
  6
CONTINUOUS
 10
60.1352514482
 20
260.6578434628
 40
10.7999710327
100
AcDbArc
 50
115.2092855871
 51
64.7907144129
  0
ARC
  5
429
100
AcDbEntity
  8
FASEN
100
AcDbCircle
 62
7
  6
CONTINUOUS
 10
60.1352514482
 20
260.6578434628
 40
9.8
100
AcDbArc
 50
114.7315541151
 51
65.2684458849
  0
ARC
  5
42A
100
AcDbEntity
  8
0
100
AcDbCircle
 62
7
  6
CONTINUOUS
 10
60.1352514482
 20
260.6578434628
 40
5.8133279662
100
AcDbArc
 50
134.8518363278
 51
45.1481636722
  0
ARC
  5
42B
100
AcDbEntity
  8
BEZUGSACHSEN
100
AcDbCircle
 62
7
  6
CONTINUOUS
 10
52.0512710597
 20
258.0311990106
 40
1.3
100
AcDbArc
 50
204.9698943585
 51
282.7270540585
  0
ARC
  5
42C
100
AcDbEntity
  8
BEZUGSACHSEN
100
AcDbCircle
 62
7
  6
CONTINUOUS
 10
60.1352514482
 20
252.1578434628
 40
1.3
100
AcDbArc
 50
185.2729459415
 51
264.8335524242
  0
ARC
  5
42D
100
AcDbEntity
  8
BEZUGSACHSEN
100
AcDbCircle
 62
7
  6
CONTINUOUS
 10
68.2192318367
 20
258.0311990106
 40
1.3
100
AcDbArc
 50
344.9825083214
 51
66.7270540585
  0
ARC
  5
42E
100
AcDbEntity
  8
BEZUGSACHSEN
100
AcDbCircle
 62
7
  6
CONTINUOUS
 10
65.1314260927
 20
267.534487915
 40
1.3
100
AcDbArc
 50
329.2729459415
 51
46.5267930413
  0
ARC
  5
42F
100
AcDbEntity
  8
BEZUGSACHSEN
100
AcDbCircle
 62
7
  6
CONTINUOUS
 10
55.1390768037
 20
267.534487915
 40
1.3
100
AcDbArc
 50
46.4201270954
 51
121.1749223711
  0
ARC
  5
430
100
AcDbEntity
  8
BEZUGSACHSEN
100
AcDbCircle
 62
7
  6
CONTINUOUS
 10
55.1390768037
 20
267.534487915
 40
1.3
100
AcDbArc
 50
133.4727977184
 51
210.7270540585
  0
ARC
  5
431
100
AcDbEntity
  8
BEZUGSACHSEN
100
AcDbCircle
 62
7
  6
CONTINUOUS
 10
52.0512710597
 20
258.0311990106
 40
1.3
100
AcDbArc
 50
113.2729459415
 51
194.9944560476
  0
ARC
  5
432
100
AcDbEntity
  8
BEZUGSACHSEN
100
AcDbCircle
 62
7
  6
CONTINUOUS
 10
60.1352514482
 20
252.1578434628
 40
1.3
100
AcDbArc
 50
275.1542495509
 51
354.7270540585
  0
ARC
  5
433
100
AcDbEntity
  8
BEZUGSACHSEN
100
AcDbCircle
 62
7
  6
CONTINUOUS
 10
68.2192318367
 20
258.0311990106
 40
1.3
100
AcDbArc
 50
257.2729459415
 51
335.0372093241
  0
ARC
  5
434
100
AcDbEntity
  8
BEZUGSACHSEN
100
AcDbCircle
 62
7
  6
CONTINUOUS
 10
65.1314260927
 20
267.534487915
 40
1.3
100
AcDbArc
 50
58.816842006
 51
133.5798729046
  0
ARC
  5
435
100
AcDbEntity
  8
FASEN
100
AcDbCircle
 62
7
  6
CONTINUOUS
 10
60.1352514482
 20
93.1482447687
 40
20.0
100
AcDbArc
 50
283.6445294425
 51
256.3554705575
  0
ARC
  5
436
100
AcDbEntity
  8
FASEN
100
AcDbCircle
 62
9
  6
CONTINUOUS
 10
60.1352514482
 20
93.1482447687
 40
17.0
100
AcDbArc
 50
285.6992844962
 51
254.3007154948
  0
ARC
  5
437
100
AcDbEntity
  8
0
100
AcDbCircle
 62
7
  6
CONTINUOUS
 10
60.1352514482
 20
93.1482447687
 40
9.0840359306
100
AcDbArc
 50
44.4815651901
 51
45.5184557637
  0
ARC
  5
438
100
AcDbEntity
  8
0
100
AcDbCircle
 62
7
  6
CONTINUOUS
 10
60.1352514482
 20
93.1482447687
 40
9.0840359306
100
AcDbArc
 50
314.4820379325
 51
315.5184353127
  0
ARC
  5
439
100
AcDbEntity
  8
0
100
AcDbCircle
 62
7
  6
CONTINUOUS
 10
60.1352514482
 20
93.1482447687
 40
9.0840359306
100
AcDbArc
 50
134.4815656918
 51
135.5184353116
  0
ARC
  5
43A
100
AcDbEntity
  8
0
100
AcDbCircle
 62
7
  6
CONTINUOUS
 10
60.1352514482
 20
93.1482447687
 40
9.0840359306
100
AcDbArc
 50
224.4815656925
 51
225.5184557625
  0
ARC
  5
43B
100
AcDbEntity
  8
BEZUGSACHSEN
100
AcDbCircle
 62
9
  6
CONTINUOUS
 10
68.1352514482
 20
93.1482447687
 40
6.3650254961
100
AcDbArc
 50
270.0021984376
 51
90.004391292
  0
ARC
  5
43C
100
AcDbEntity
  8
BEZUGSACHSEN
100
AcDbCircle
 62
9
  6
CONTINUOUS
 10
60.1352514482
 20
101.1482447687
 40
6.3650254961
100
AcDbArc
 50
0.0022032275
 51
180.0
  0
ARC
  5
43D
100
AcDbEntity
  8
BEZUGSACHSEN
100
AcDbCircle
 62
9
  6
CONTINUOUS
 10
52.1352514482
 20
93.1482447687
 40
6.3650254961
100
AcDbArc
 50
89.9977975176
 51
270.0
  0
ARC
  5
43E
100
AcDbEntity
  8
BEZUGSACHSEN
100
AcDbCircle
 62
9
  6
CONTINUOUS
 10
60.1352514482
 20
85.1482447687
 40
6.3650254961
100
AcDbArc
 50
180.0024165734
 51
223.722201411
  0
ARC
  5
43F
100
AcDbEntity
  8
BEZUGSACHSEN
100
AcDbCircle
 62
9
  6
CONTINUOUS
 10
60.1352514482
 20
85.1482447687
 40
6.3650254961
100
AcDbArc
 50
316.277798589
 51
360.0
  0
ARC
  5
440
100
AcDbEntity
  8
0
100
AcDbCircle
 62
7
  6
CONTINUOUS
 10
60.1352514482
 20
93.1482447687
 40
5.8133279662
100
AcDbArc
 50
314.8518363278
 51
225.1481636723
  0
ARC
  5
441
100
AcDbEntity
  8
BEZUGSACHSEN
100
AcDbCircle
 62
9
  6
CONTINUOUS
 10
68.1352514482
 20
93.1482447687
 40
2.9
100
AcDbArc
 50
270.0
 51
90.0
  0
ARC
  5
442
100
AcDbEntity
  8
BEZUGSACHSEN
100
AcDbCircle
 62
9
  6
CONTINUOUS
 10
52.1352514482
 20
93.1482447687
 40
2.9
100
AcDbArc
 50
90.0
 51
270.0
  0
ARC
  5
443
100
AcDbEntity
  8
BEZUGSACHSEN
100
AcDbCircle
 62
9
  6
CONTINUOUS
 10
60.1352514482
 20
101.1482447687
 40
2.9
100
AcDbArc
 50
0.0
 51
180.0
  0
SPLINE
  5
444
100
AcDbEntity
  8
BEZUGSACHSEN
100
AcDbSpline
 62
7
  6
CONTINUOUS
 70
0
 71
3
 72
15
 73
11
 74
0
 42
0.0000001
 43
0.0000001
 44
0.0000000001
 40
0.0
 40
0.0
 40
0.0
 40
0.0
 40
0.0489284684
 40
0.1069269809
 40
0.2322698176
 40
0.361169293
 40
0.4904869637
 40
0.6192802534
 40
0.7472057673
 40
1.0
 40
1.0
 40
1.0
 40
1.0
 10
68.3970980807
 20
153.3859306701
 30
0.0
 10
68.4076803708
 20
153.3795523891
 30
0.0
 10
68.4262662617
 20
153.3590360343
 30
0.0
 10
68.459867538
 20
153.3112806879
 30
0.0
 10
68.4995654193
 20
153.2428481825
 30
0.0
 10
68.5447635864
 20
153.1572465819
 30
0.0
 10
68.5875715022
 20
153.0693500762
 30
0.0
 10
68.6278545436
 20
152.9805696267
 30
0.0
 10
68.6779221408
 20
152.8620312687
 30
0.0
 10
68.7119061162
 20
152.7720348525
 30
0.0
 10
68.7328771562
 20
152.7117398025
 30
0.0
  0
SPLINE
  5
445
100
AcDbEntity
  8
0
100
AcDbSpline
 62
7
  6
CONTINUOUS
 70
0
 71
3
 72
17
 73
13
 74
0
 42
0.0000001
 43
0.0000001
 44
0.0000000001
 40
0.0
 40
0.0
 40
0.0
 40
0.0
 40
0.2501364423
 40
0.3752025599
 40
0.5002553066
 40
0.5627871677
 40
0.6253137076
 40
0.7500531164
 40
0.81254489
 40
0.8750283009
 40
0.9375123074
 40
1.0
 40
1.0
 40
1.0
 40
1.0
 10
49.2352514482
 20
207.4517398025
 30
0.0
 10
49.356651672
 20
206.9614025578
 30
0.0
 10
49.5400369519
 20
206.2261296409
 30
0.0
 10
49.8095307428
 20
205.2524487711
 30
0.0
 10
49.999778779
 20
204.6500160056
 30
0.0
 10
50.1829724896
 20
204.178891588
 30
0.0
 10
50.3953617085
 20
203.7215371865
 30
0.0
 10
50.6768583553
 20
203.2938023406
 30
0.0
 10
51.0557113788
 20
202.9565172012
 30
0.0
 10
51.3851771899
 20
202.764396618
 30
0.0
 10
51.7480855703
 20
202.6470714234
 30
0.0
 10
52.0011960785
 20
202.621252259
 30
0.0
 10
52.1273868581
 20
202.620743055
 30
0.0
  0
SPLINE
  5
446
100
AcDbEntity
  8
0
100
AcDbSpline
 62
7
  6
CONTINUOUS
 70
0
 71
3
 72
21
 73
17
 74
0
 42
0.0000001
 43
0.0000001
 44
0.0000000001
 40
0.0
 40
0.0
 40
0.0
 40
0.0
 40
0.0311971952
 40
0.0623918908
 40
0.0936125273
 40
0.1248563703
 40
0.1873095874
 40
0.2498096899
 40
0.3123220948
 40
0.374837127
 40
0.4373532797
 40
0.4998700585
 40
0.6248996042
 40
0.749932171
 40
0.8749658063
 40
1.0
 40
1.0
 40
1.0
 40
1.0
 10
45.7702259521
 20
214.7117398028
 30
0.0
 10
45.8573192889
 20
214.7117398028
 30
0.0
 10
46.0323458895
 20
214.6922680316
 30
0.0
 10
46.2795037712
 20
214.59988686
 30
0.0
 10
46.4990306575
 20
214.4546114512
 30
0.0
 10
46.7540435335
 20
214.21511897
 30
0.0
 10
47.0166184929
 20
213.8638106821
 30
0.0
 10
47.2784884519
 20
213.4102447519
 30
0.0
 10
47.5071867735
 20
212.9389359537
 30
0.0
 10
47.7138195339
 20
212.4577408006
 30
0.0
 10
47.9027461384
 20
211.9693462547
 30
0.0
 10
48.1389943439
 20
211.3123849996
 30
0.0
 10
48.4086019499
 20
210.4822444387
 30
0.0
 10
48.705209019
 20
209.4778913051
 30
0.0
 10
48.9802195153
 20
208.4674104074
 30
0.0
 10
49.1519657083
 20
207.7907166446
 30
0.0
 10
49.2352514482
 20
207.4517398025
 30
0.0
  0
SPLINE
  5
447
100
AcDbEntity
  8
0
100
AcDbSpline
 62
7
  6
CONTINUOUS
 70
0
 71
3
 72
17
 73
13
 74
0
 42
0.0000001
 43
0.0000001
 44
0.0000000001
 40
0.0
 40
0.0
 40
0.0
 40
0.0
 40
0.0624875414
 40
0.1249715214
 40
0.1874550151
 40
0.2499467774
 40
0.3746871841
 40
0.4372136577
 40
0.4997454356
 40
0.6247980385
 40
0.749863961
 40
1.0
 40
1.0
 40
1.0
 40
1.0
 10
68.1457375551
 20
202.6207553982
 30
0.0
 10
68.2718729215
 20
202.6214342324
 30
0.0
 10
68.5248388034
 20
202.647590757
 30
0.0
 10
68.8874304945
 20
202.7653529712
 30
0.0
 10
69.2165155787
 20
202.957791673
 30
0.0
 10
69.5948551627
 20
203.2953169978
 30
0.0
 10
69.8759462569
 20
203.7230252871
 30
0.0
 10
70.0880991211
 20
204.1802518115
 30
0.0
 10
70.2711245325
 20
204.6512062143
 30
0.0
 10
70.461243351
 20
205.2533924609
 30
0.0
 10
70.7305967707
 20
206.2266594658
 30
0.0
 10
70.9139036666
 20
206.9616143727
 30
0.0
 10
71.0352514482
 20
207.4517398025
 30
0.0
  0
SPLINE
  5
448
100
AcDbEntity
  8
0
100
AcDbSpline
 62
7
  6
CONTINUOUS
 70
0
 71
3
 72
21
 73
17
 74
0
 42
0.0000001
 43
0.0000001
 44
0.0000000001
 40
0.0
 40
0.0
 40
0.0
 40
0.0
 40
0.1250341937
 40
0.250067829
 40
0.3751003958
 40
0.5001299415
 40
0.5626467203
 40
0.625162873
 40
0.6876779052
 40
0.7501903101
 40
0.8126904126
 40
0.8751436297
 40
0.9063874727
 40
0.9376081092
 40
0.9688028048
 40
1.0
 40
1.0
 40
1.0
 40
1.0
 10
71.0352514482
 20
207.4517398025
 30
0.0
 10
71.1185371881
 20
207.7907166446
 30
0.0
 10
71.290283381
 20
208.4674104074
 30
0.0
 10
71.5652938774
 20
209.4778913051
 30
0.0
 10
71.8619009465
 20
210.4822444387
 30
0.0
 10
72.1315085525
 20
211.3123849996
 30
0.0
 10
72.367756758
 20
211.9693462547
 30
0.0
 10
72.5566833624
 20
212.4577408006
 30
0.0
 10
72.7633161229
 20
212.9389359537
 30
0.0
 10
72.9920144444
 20
213.4102447519
 30
0.0
 10
73.2538844034
 20
213.8638106821
 30
0.0
 10
73.5164593629
 20
214.21511897
 30
0.0
 10
73.7714722389
 20
214.4546114512
 30
0.0
 10
73.9909991251
 20
214.59988686
 30
0.0
 10
74.2381570069
 20
214.6922680316
 30
0.0
 10
74.4131836075
 20
214.7117398028
 30
0.0
 10
74.5002769443
 20
214.7117398028
 30
0.0
  0
SPLINE
  5
449
100
AcDbEntity
  8
0
100
AcDbSpline
 62
7
  6
CONTINUOUS
 70
0
 71
3
 72
42
 73
38
 74
0
 42
0.0000001
 43
0.0000001
 44
0.0000000001
 40
0.0
 40
0.0
 40
0.0
 40
0.0
 40
0.0420462033
 40
0.0851540141
 40
0.127604635
 40
0.1679100529
 40
0.2052513194
 40
0.2396544197
 40
0.2713402646
 40
0.301107943
 40
0.3299627194
 40
0.3587249752
 40
0.3875584263
 40
0.4163486449
 40
0.4452165478
 40
0.4745238165
 40
0.5051894382
 40
0.5378074608
 40
0.5710999833
 40
0.6045972301
 40
0.6426143893
 40
0.6833746839
 40
0.7237183969
 40
0.7604554876
 40
0.7924858149
 40
0.8216699417
 40
0.8483555237
 40
0.8725964188
 40
0.8941709972
 40
0.9127502905
 40
0.9285298055
 40
0.9422350994
 40
0.9546308605
 40
0.9664272765
 40
0.9779364744
 40
0.9891376829
 40
1.0
 40
1.0
 40
1.0
 40
1.0
 10
57.2352514482
 20
207.4517398025
 30
0.0
 10
57.2072364693
 20
207.5657620721
 30
0.0
 10
57.149904263
 20
207.7965398423
 30
0.0
 10
57.0621240934
 20
208.141894684
 30
0.0
 10
56.9736138781
 20
208.4820426439
 30
0.0
 10
56.8872986362
 20
208.8061167252
 30
0.0
 10
56.8050296017
 20
209.1080069658
 30
0.0
 10
56.7274995298
 20
209.3862357814
 30
0.0
 10
56.6541995685
 20
209.6436838873
 30
0.0
 10
56.5838014968
 20
209.8858447027
 30
0.0
 10
56.5143965727
 20
210.1197883201
 30
0.0
 10
56.444422467
 20
210.350837953
 30
0.0
 10
56.3731160499
 20
210.581291373
 30
0.0
 10
56.3002293465
 20
210.8115597105
 30
0.0
 10
56.2252467654
 20
211.0425461806
 30
0.0
 10
56.146702077
 20
211.2778742854
 30
0.0
 10
56.0625373011
 20
211.5223556929
 30
0.0
 10
55.972073619
 20
211.7764240931
 30
0.0
 10
55.8758809536
 20
212.0368275869
 30
0.0
 10
55.7707234721
 20
212.3099666623
 30
0.0
 10
55.6527381836
 20
212.6004723917
 30
0.0
 10
55.5198428547
 20
212.9054627137
 30
0.0
 10
55.3794927132
 20
213.2031666379
 30
0.0
 10
55.2395565058
 20
213.4739172398
 30
0.0
 10
55.1034043257
 20
213.7112636144
 30
0.0
 10
54.9706413572
 20
213.9178674489
 30
0.0
 10
54.8384861628
 20
214.0985628978
 30
0.0
 10
54.7074597173
 20
214.2531814891
 30
0.0
 10
54.5796665507
 20
214.3800483127
 30
0.0
 10
54.4586743526
 20
214.4792309627
 30
0.0
 10
54.346685212
 20
214.5536089278
 30
0.0
 10
54.2432582336
 20
214.6085876973
 30
0.0
 10
54.1453095138
 20
214.6490811103
 30
0.0
 10
54.049842759
 20
214.6783020303
 30
0.0
 10
53.9554019061
 20
214.6980654417
 30
0.0
 10
53.8622246885
 20
214.7093346642
 30
0.0
 10
53.8005843194
 20
214.7117391395
 30
0.0
 10
53.7702514481
 20
214.7117398025
 30
0.0
  0
SPLINE
  5
44A
100
AcDbEntity
  8
0
100
AcDbSpline
 62
7
  6
CONTINUOUS
 70
0
 71
3
 72
55
 73
51
 74
0
 42
0.0000001
 43
0.0000001
 44
0.0000000001
 40
0.0
 40
0.0
 40
0.0
 40
0.0
 40
0.0272469162
 40
0.0508547188
 40
0.0715910859
 40
0.0901873145
 40
0.1074117837
 40
0.1239846437
 40
0.1404969521
 40
0.1570852446
 40
0.1737143045
 40
0.1901746217
 40
0.206621844
 40
0.2244910086
 40
0.2452318711
 40
0.268038255
 40
0.290878887
 40
0.3134388055
 40
0.3364122759
 40
0.3598283708
 40
0.3832404615
 40
0.4065453842
 40
0.4297273069
 40
0.4529564645
 40
0.4763322936
 40
0.5
 40
0.5236677064
 40
0.5470435355
 40
0.5702726931
 40
0.5934546158
 40
0.6167595385
 40
0.6401716292
 40
0.6635877241
 40
0.6865611945
 40
0.709121113
 40
0.731961745
 40
0.7547681289
 40
0.7755089914
 40
0.793378156
 40
0.8098253783
 40
0.8262856955
 40
0.8429147554
 40
0.8595030479
 40
0.8760153563
 40
0.8925882163
 40
0.9098126855
 40
0.9284089141
 40
0.9491452812
 40
0.9727530838
 40
1.0
 40
1.0
 40
1.0
 40
1.0
 10
63.0352514482
 20
207.4517398025
 30
0.0
 10
63.0087545425
 20
207.3447184206
 30
0.0
 10
62.9591555227
 20
207.1450051039
 30
0.0
 10
62.8887492291
 20
206.8640026322
 30
0.0
 10
62.8262140313
 20
206.6171152077
 30
0.0
 10
62.769327097
 20
206.3954436157
 30
0.0
 10
62.715920904
 20
206.1902732918
 30
0.0
 10
62.6638908303
 20
205.9934595837
 30
0.0
 10
62.6116270257
 20
205.7993722351
 30
0.0
 10
62.5581659381
 20
205.6053746562
 30
0.0
 10
62.5032676339
 20
205.4119967
 30
0.0
 10
62.4468193329
 20
205.2196598202
 30
0.0
 10
62.3870178272
 20
205.0230868281
 30
0.0
 10
62.3193875587
 20
204.8108048052
 30
0.0
 10
62.2390471314
 20
204.5756053321
 30
0.0
 10
62.1448165263
 20
204.3239856774
 30
0.0
 10
62.0378019062
 20
204.0694746788
 30
0.0
 10
61.9167944733
 20
203.820479366
 30
0.0
 10
61.7769701631
 20
203.5786691314
 30
0.0
 10
61.6124535146
 20
203.3484357022
 30
0.0
 10
61.4214097434
 20
203.1375322107
 30
0.0
 10
61.2036523463
 20
202.9555047626
 30
0.0
 10
60.9620324437
 20
202.8077560256
 30
0.0
 10
60.6996917191
 20
202.7000201413
 30
0.0
 10
60.4216914611
 20
202.6347766357
 30
0.0
 10
60.1352514482
 20
202.6136588858
 30
0.0
 10
59.8488114353
 20
202.6347766357
 30
0.0
 10
59.5708111773
 20
202.7000201413
 30
0.0
 10
59.3084704527
 20
202.8077560256
 30
0.0
 10
59.0668505501
 20
202.9555047626
 30
0.0
 10
58.849093153
 20
203.1375322107
 30
0.0
 10
58.6580493818
 20
203.3484357022
 30
0.0
 10
58.4935327332
 20
203.5786691314
 30
0.0
 10
58.3537084231
 20
203.820479366
 30
0.0
 10
58.2327009902
 20
204.0694746788
 30
0.0
 10
58.1256863701
 20
204.3239856774
 30
0.0
 10
58.031455765
 20
204.5756053321
 30
0.0
 10
57.9511153377
 20
204.8108048052
 30
0.0
 10
57.8834850691
 20
205.0230868281
 30
0.0
 10
57.8236835634
 20
205.2196598202
 30
0.0
 10
57.7672352624
 20
205.4119967
 30
0.0
 10
57.7123369583
 20
205.6053746562
 30
0.0
 10
57.6588758707
 20
205.7993722351
 30
0.0
 10
57.6066120661
 20
205.9934595837
 30
0.0
 10
57.5545819923
 20
206.1902732918
 30
0.0
 10
57.5011757994
 20
206.3954436157
 30
0.0
 10
57.444288865
 20
206.6171152077
 30
0.0
 10
57.3817536673
 20
206.8640026322
 30
0.0
 10
57.3113473737
 20
207.1450051039
 30
0.0
 10
57.2617483538
 20
207.3447184206
 30
0.0
 10
57.2352514482
 20
207.4517398025
 30
0.0
  0
SPLINE
  5
44B
100
AcDbEntity
  8
0
100
AcDbSpline
 62
7
  6
CONTINUOUS
 70
0
 71
3
 72
42
 73
38
 74
0
 42
0.0000001
 43
0.0000001
 44
0.0000000001
 40
0.0
 40
0.0
 40
0.0
 40
0.0
 40
0.0108683378
 40
0.0220694781
 40
0.033578606
 40
0.0453749501
 40
0.0577706358
 40
0.0714758463
 40
0.0872552652
 40
0.1058344455
 40
0.1274088925
 40
0.1516496401
 40
0.1783350596
 40
0.2075190088
 40
0.2395491412
 40
0.2762860082
 40
0.3166294756
 40
0.3573895221
 40
0.39540645
 40
0.4289034929
 40
0.4621958127
 40
0.4948136367
 40
0.5254790718
 40
0.5547861621
 40
0.5836538893
 40
0.6124439327
 40
0.6412772083
 40
0.670039289
 40
0.6988938898
 40
0.728661387
 40
0.760347039
 40
0.7947499299
 40
0.8320909691
 40
0.8723961417
 40
0.9148465042
 40
0.9579540526
 40
1.0
 40
1.0
 40
1.0
 40
1.0
 10
66.5003024404
 20
214.7117398025
 30
0.0
 10
66.4699525874
 20
214.7117404658
 30
0.0
 10
66.4082951011
 20
214.7093367074
 30
0.0
 10
66.3151009903
 20
214.6980654417
 30
0.0
 10
66.2206601374
 20
214.6783020303
 30
0.0
 10
66.1251933826
 20
214.6490811103
 30
0.0
 10
66.0272446627
 20
214.6085876973
 30
0.0
 10
65.9238176844
 20
214.5536089278
 30
0.0
 10
65.8118285437
 20
214.4792309627
 30
0.0
 10
65.6908363457
 20
214.3800483127
 30
0.0
 10
65.5630431791
 20
214.2531814891
 30
0.0
 10
65.4320167336
 20
214.0985628978
 30
0.0
 10
65.2998615391
 20
213.9178674489
 30
0.0
 10
65.1670985707
 20
213.7112636144
 30
0.0
 10
65.0309463906
 20
213.4739172398
 30
0.0
 10
64.8910101831
 20
213.2031666379
 30
0.0
 10
64.7506600417
 20
212.9054627137
 30
0.0
 10
64.6177647128
 20
212.6004723917
 30
0.0
 10
64.4997794243
 20
212.3099666623
 30
0.0
 10
64.3946219427
 20
212.0368275869
 30
0.0
 10
64.2984292773
 20
211.7764240931
 30
0.0
 10
64.2079655953
 20
211.5223556929
 30
0.0
 10
64.1238008194
 20
211.2778742854
 30
0.0
 10
64.045256131
 20
211.0425461806
 30
0.0
 10
63.9702735499
 20
210.8115597105
 30
0.0
 10
63.8973868465
 20
210.581291373
 30
0.0
 10
63.8260804294
 20
210.350837953
 30
0.0
 10
63.7561063236
 20
210.1197883201
 30
0.0
 10
63.6867013995
 20
209.8858447027
 30
0.0
 10
63.6163033278
 20
209.6436838873
 30
0.0
 10
63.5430033666
 20
209.3862357814
 30
0.0
 10
63.4654732946
 20
209.1080069658
 30
0.0
 10
63.3832042601
 20
208.8061167252
 30
0.0
 10
63.2968890182
 20
208.4820426439
 30
0.0
 10
63.208378803
 20
208.141894684
 30
0.0
 10
63.1205986333
 20
207.7965398423
 30
0.0
 10
63.0632664271
 20
207.5657620721
 30
0.0
 10
63.0352514482
 20
207.4517398025
 30
0.0
  0
SPLINE
  5
44C
100
AcDbEntity
  8
BEZUGSACHSEN
100
AcDbSpline
 62
7
  6
CONTINUOUS
 70
0
 71
3
 72
15
 73
11
 74
0
 42
0.0000001
 43
0.0000001
 44
0.0000000001
 40
0.0
 40
0.0
 40
0.0
 40
0.0
 40
0.2509415382
 40
0.3763424394
 40
0.5016697038
 40
0.626885614
 40
0.7519160156
 40
0.8765738332
 40
0.9385880444
 40
1.0
 40
1.0
 40
1.0
 40
1.0
 10
68.7328771562
 20
152.7117398025
 30
0.0
 10
68.8142095568
 20
151.4822326556
 30
0.0
 10
68.9338646584
 20
149.6381584314
 30
0.0
 10
69.0867243999
 20
147.1795631832
 30
0.0
 10
69.1969955321
 20
145.3368660149
 30
0.0
 10
69.3014875244
 20
143.4956487254
 30
0.0
 10
69.3974075676
 20
141.6572649356
 30
0.0
 10
69.4665140307
 20
140.128227086
 30
0.0
 10
69.5071211033
 20
138.910750995
 30
0.0
 10
69.5192335144
 20
138.3047263191
 30
0.0
 10
69.5192319282
 20
138.0031761573
 30
0.0
  0
SPLINE
  5
44D
100
AcDbEntity
  8
BEZUGSACHSEN
100
AcDbSpline
 62
7
  6
CONTINUOUS
 70
0
 71
3
 72
15
 73
11
 74
0
 42
0.0000001
 43
0.0000001
 44
0.0000000001
 40
0.0
 40
0.0
 40
0.0
 40
0.0
 40
0.2527434234
 40
0.3806425358
 40
0.5094092293
 40
0.6387009395
 40
0.7675787715
 40
0.8929237205
 40
0.9509650775
 40
1.0
 40
1.0
 40
1.0
 40
1.0
 10
51.5376257401
 20
152.7117398025
 30
0.0
 10
51.5585855233
 20
152.7720024875
 30
0.0
 10
51.5925498259
 20
152.8619509825
 30
0.0
 10
51.6425865574
 20
152.9804267514
 30
0.0
 10
51.6828426765
 20
153.0691622928
 30
0.0
 10
51.7256245741
 20
153.1570113862
 30
0.0
 10
51.7707838894
 20
153.2425932491
 30
0.0
 10
51.8104884082
 20
153.3109708741
 30
0.0
 10
51.8440178383
 20
153.3588401566
 30
0.0
 10
51.8626472473
 20
153.379295081
 30
0.0
 10
51.8731802399
 20
153.3857978084
 30
0.0
  0
SPLINE
  5
44E
100
AcDbEntity
  8
BEZUGSACHSEN
100
AcDbSpline
 62
7
  6
CONTINUOUS
 70
0
 71
3
 72
15
 73
11
 74
0
 42
0.0000001
 43
0.0000001
 44
0.0000000001
 40
0.0
 40
0.0
 40
0.0
 40
0.0
 40
0.2509415415
 40
0.3763424428
 40
0.5016697003
 40
0.6268856028
 40
0.7519160008
 40
0.8765738178
 40
0.9385880295
 40
1.0
 40
1.0
 40
1.0
 40
1.0
 10
51.5376257401
 20
152.7117398025
 30
0.0
 10
51.4562934257
 20
151.4822339572
 30
0.0
 10
51.3366384926
 20
149.6381616904
 30
0.0
 10
51.1837787243
 20
147.1795691066
 30
0.0
 10
51.0735078146
 20
145.3368739769
 30
0.0
 10
50.969016002
 20
143.4956587508
 30
0.0
 10
50.8730956425
 20
141.657276997
 30
0.0
 10
50.8039899388
 20
140.1282408136
 30
0.0
 10
50.7633811671
 20
138.9107659506
 30
0.0
 10
50.7512722531
 20
138.3047418575
 30
0.0
 10
50.7512710617
 20
138.0031919458
 30
0.0
  0
SPLINE
  5
44F
100
AcDbEntity
  8
0
100
AcDbSpline
 62
7
  6
CONTINUOUS
 70
0
 71
3
 72
22
 73
18
 74
0
 42
0.0000001
 43
0.0000001
 44
0.0000000001
 40
0.0
 40
0.0
 40
0.0
 40
0.0
 40
0.1352244786
 40
0.2697940344
 40
0.4034885457
 40
0.4699012479
 40
0.5359051226
 40
0.601395415
 40
0.666174187
 40
0.7298760334
 40
0.7919462209
 40
0.8511791253
 40
0.8791148058
 40
0.9054588317
 40
0.9300513697
 40
0.9533523731
 40
1.0
 40
1.0
 40
1.0
 40
1.0
 10
67.5106382319
 20
207.4517398025
 30
0.0
 10
67.5367056417
 20
207.7996303943
 30
0.0
 10
67.5845025946
 20
208.4940535667
 30
0.0
 10
67.6407658517
 20
209.5335342612
 30
0.0
 10
67.6711136855
 20
210.3965121902
 30
0.0
 10
67.6822061243
 20
211.0829854727
 30
0.0
 10
67.6819872157
 20
211.5935932716
 30
0.0
 10
67.6717498159
 20
212.0998969248
 30
0.0
 10
67.6486952787
 20
212.5998613083
 30
0.0
 10
67.6072416367
 20
213.0899173986
 30
0.0
 10
67.5413556974
 20
213.5628271468
 30
0.0
 10
67.4538313605
 20
213.9391366221
 30
0.0
 10
67.3493653609
 20
214.2133254581
 30
0.0
 10
67.2516165749
 20
214.3928001578
 30
0.0
 10
67.127352989
 20
214.5409102084
 30
0.0
 10
66.9237139759
 20
214.6811746345
 30
0.0
 10
66.7368136076
 20
214.7117371241
 30
0.0
 10
66.6164673235
 20
214.7117398025
 30
0.0
  0
SPLINE
  5
450
100
AcDbEntity
  8
0
100
AcDbSpline
 62
7
  6
CONTINUOUS
 70
0
 71
3
 72
13
 73
9
 74
0
 42
0.0000001
 43
0.0000001
 44
0.0000000001
 40
0.0
 40
0.0
 40
0.0
 40
0.0
 40
0.0320093271
 40
0.1231295427
 40
0.2516771706
 40
0.3956793694
 40
0.6959471569
 40
1.0
 40
1.0
 40
1.0
 40
1.0
 10
67.2890697352
 20
202.6207271919
 30
0.0
 10
67.2838053352
 20
202.6721152359
 30
0.0
 10
67.2664376029
 20
202.8700447914
 30
0.0
 10
67.2508508731
 20
203.2761226301
 30
0.0
 10
67.2594613632
 20
203.8630741869
 30
0.0
 10
67.3079717623
 20
204.7861903722
 30
0.0
 10
67.3996442243
 20
205.9902317872
 30
0.0
 10
67.4743405915
 20
206.9624718693
 30
0.0
 10
67.5106382319
 20
207.4517398025
 30
0.0
  0
SPLINE
  5
451
100
AcDbEntity
  8
BEZUGSACHSEN
100
AcDbSpline
 62
7
  6
CONTINUOUS
 70
0
 71
3
 72
16
 73
12
 74
0
 42
0.0000001
 43
0.0000001
 44
0.0000000001
 40
0.0
 40
0.0
 40
0.0
 40
0.0
 40
0.2774470468
 40
0.4146413012
 40
0.5501798884
 40
0.683047764
 40
0.8109263966
 40
0.8712359994
 40
0.9268598569
 40
0.9725289004
 40
1.0
 40
1.0
 40
1.0
 40
1.0
 10
50.7512710617
 20
138.0031919458
 30
0.0
 10
50.7512707686
 20
137.9290089997
 30
0.0
 10
50.7518826157
 20
137.8181375037
 30
0.0
 10
50.7547066487
 20
137.6710627636
 30
0.0
 10
50.7581452634
 20
137.5626475366
 30
0.0
 10
50.763409926
 20
137.4568763367
 30
0.0
 10
50.7702220505
 20
137.3710942956
 30
0.0
 10
50.7781673777
 20
137.3067176595
 30
0.0
 10
50.7862623866
 20
137.2633248829
 30
0.0
 10
50.7942168142
 20
137.2322895939
 30
0.0
 10
50.8075524496
 20
137.2117398025
 30
0.0
 10
50.8148975885
 20
137.2117398025
 30
0.0
  0
SPLINE
  5
452
100
AcDbEntity
  8
BEZUGSACHSEN
100
AcDbSpline
 62
7
  6
CONTINUOUS
 70
0
 71
3
 72
19
 73
15
 74
0
 42
0.0000001
 43
0.0000001
 44
0.0000000001
 40
0.0
 40
0.0
 40
0.0
 40
0.0
 40
0.2777562058
 40
0.4135150292
 40
0.5469662702
 40
0.6775954459
 40
0.7414532772
 40
0.8038191665
 40
0.8637014503
 40
0.9187350339
 40
0.9427556525
 40
0.9633372018
 40
0.9810799957
 40
1.0
 40
1.0
 40
1.0
 40
1.0
 10
67.9328329836
 20
152.7117398025
 30
0.0
 10
67.9770976234
 20
152.7753773657
 30
0.0
 10
68.0412214751
 20
152.8713752892
 30
0.0
 10
68.1222904363
 20
153.0007285526
 30
0.0
 10
68.1798139616
 20
153.0963566354
 30
0.0
 10
68.2257251823
 20
153.1755367814
 30
0.0
 10
68.261357707
 20
153.2377330125
 30
0.0
 10
68.2872558555
 20
153.2827698739
 30
0.0
 10
68.3126644244
 20
153.3251824258
 30
0.0
 10
68.3339301456
 20
153.3577645532
 30
0.0
 10
68.3523349132
 20
153.3786410925
 30
0.0
 10
68.3662490413
 20
153.3895600258
 30
0.0
 10
68.3827283195
 20
153.392973167
 30
0.0
 10
68.3925756836
 20
153.388656462
 30
0.0
 10
68.3970980807
 20
153.3859306701
 30
0.0
  0
SPLINE
  5
453
100
AcDbEntity
  8
BEZUGSACHSEN
100
AcDbSpline
 62
7
  6
CONTINUOUS
 70
0
 71
3
 72
19
 73
15
 74
0
 42
0.0000001
 43
0.0000001
 44
0.0000000001
 40
0.0
 40
0.0
 40
0.0
 40
0.0
 40
0.1248466926
 40
0.2499327511
 40
0.3125277761
 40
0.3751370817
 40
0.4377378636
 40
0.4999988594
 40
0.562262232
 40
0.6248629073
 40
0.6874722006
 40
0.7500672335
 40
0.8751532983
 40
1.0
 40
1.0
 40
1.0
 40
1.0
 10
58.8407527844
 20
152.7117398025
 30
0.0
 10
58.9458724497
 20
152.7740061474
 30
0.0
 10
59.1564639463
 20
152.8983610643
 30
0.0
 10
59.4205332112
 20
153.0528284535
 30
0.0
 10
59.6327763937
 20
153.1747660542
 30
0.0
 10
59.7938385058
 20
153.2643502273
 30
0.0
 10
59.9547439079
 20
153.3485831239
 30
0.0
 10
60.1352500624
 20
153.4129823751
 30
0.0
 10
60.3157572119
 20
153.3485842176
 30
0.0
 10
60.4766639583
 20
153.2643493436
 30
0.0
 10
60.637726671
 20
153.1747664484
 30
0.0
 10
60.84996951
 20
153.0528282411
 30
0.0
 10
61.1140389783
 20
152.8983611624
 30
0.0
 10
61.3246304389
 20
152.774006152
 30
0.0
 10
61.429750112
 20
152.7117398025
 30
0.0
  0
SPLINE
  5
454
100
AcDbEntity
  8
BEZUGSACHSEN
100
AcDbSpline
 62
7
  6
CONTINUOUS
 70
0
 71
3
 72
31
 73
27
 74
0
 42
0.0000001
 43
0.0000001
 44
0.0000000001
 40
0.0
 40
0.0
 40
0.0
 40
0.0
 40
0.0039185506
 40
0.0078354472
 40
0.0117486091
 40
0.0156577722
 40
0.0234708736
 40
0.0312833783
 40
0.0469044096
 40
0.062525943
 40
0.0781473392
 40
0.0937685864
 40
0.1250099908
 40
0.1562518643
 40
0.1874941639
 40
0.2187369259
 40
0.2499801964
 40
0.3124678999
 40
0.3749581344
 40
0.4374509061
 40
0.4999462304
 40
0.5624441211
 40
0.6249445802
 40
0.7499527435
 40
0.8749712599
 40
1.0
 40
1.0
 40
1.0
 40
1.0
 10
60.1352514482
 20
137.2117398025
 30
0.0
 10
60.1147752435
 20
137.2117398025
 30
0.0
 10
60.0737538671
 20
137.2250738619
 30
0.0
 10
60.026591846
 20
137.2652664323
 30
0.0
 10
59.9881753297
 20
137.3133548355
 30
0.0
 10
59.9445453895
 20
137.3825493996
 30
0.0
 10
59.8998773065
 20
137.4746047811
 30
0.0
 10
59.8399885695
 20
137.6265655947
 30
0.0
 10
59.7792976078
 20
137.8216537422
 30
0.0
 10
59.7185962794
 20
138.0589329498
 30
0.0
 10
59.6660162766
 20
138.2981497577
 30
0.0
 10
59.6036704243
 20
138.6186695508
 30
0.0
 10
59.5367454739
 20
139.0213483446
 30
0.0
 10
59.4679520859
 20
139.5062782996
 30
0.0
 10
59.4076357633
 20
139.9923360579
 30
0.0
 10
59.3538815571
 20
140.4791618817
 30
0.0
 10
59.2893166813
 20
141.1290169316
 30
0.0
 10
59.219650925
 20
141.9424035065
 30
0.0
 10
59.1491908004
 20
142.9195066104
 30
0.0
 10
59.0892156543
 20
143.8973442231
 30
0.0
 10
59.03793292
 20
144.8757111006
 30
0.0
 10
58.9940923738
 20
145.8544776687
 30
0.0
 10
58.9443440999
 20
147.1599351813
 30
0.0
 10
58.8966881154
 20
148.7923718607
 30
0.0
 10
58.8589003821
 20
150.7518672747
 30
0.0
 10
58.8450762526
 20
152.0584222264
 30
0.0
 10
58.8407527844
 20
152.7117398025
 30
0.0
  0
SPLINE
  5
455
100
AcDbEntity
  8
BEZUGSACHSEN
100
AcDbSpline
 62
7
  6
CONTINUOUS
 70
0
 71
3
 72
15
 73
11
 74
0
 42
0.0000001
 43
0.0000001
 44
0.0000000001
 40
0.0
 40
0.0
 40
0.0
 40
0.0
 40
0.2504190202
 40
0.3756332244
 40
0.5008362472
 40
0.6260069815
 40
0.7511003053
 40
0.8759898596
 40
0.9382279281
 40
1.0
 40
1.0
 40
1.0
 40
1.0
 10
52.3376699128
 20
152.7117398025
 30
0.0
 10
52.2510549417
 20
151.4786176241
 30
0.0
 10
52.1150705378
 20
149.6293263447
 30
0.0
 10
51.9196561015
 20
147.1647439013
 30
0.0
 10
51.7650975591
 20
145.3171510735
 30
0.0
 10
51.6011854233
 20
143.470956297
 30
0.0
 10
51.4252775336
 20
141.6274288877
 30
0.0
 10
51.2651036436
 20
140.0944687588
 30
0.0
 10
51.1210133033
 20
138.8742961673
 30
0.0
 10
51.0404101957
 20
138.2673636306
 30
0.0
 10
50.9938445719
 20
137.9660104463
 30
0.0
  0
SPLINE
  5
456
100
AcDbEntity
  8
BEZUGSACHSEN
100
AcDbSpline
 62
7
  6
CONTINUOUS
 70
0
 71
3
 72
16
 73
12
 74
0
 42
0.0000001
 43
0.0000001
 44
0.0000000001
 40
0.0
 40
0.0
 40
0.0
 40
0.0
 40
0.2757239155
 40
0.4122660513
 40
0.5473469407
 40
0.6800094868
 40
0.8080639123
 40
0.8686497063
 40
0.924778755
 40
0.9713037667
 40
1.0
 40
1.0
 40
1.0
 40
1.0
 10
50.9938445719
 20
137.9660104463
 30
0.0
 10
50.9828648637
 20
137.8949543807
 30
0.0
 10
50.9658471795
 20
137.7887974979
 30
0.0
 10
50.9412999118
 20
137.6481976973
 30
0.0
 10
50.9218637382
 20
137.5445616486
 30
0.0
 10
50.900996706
 20
137.4435303166
 30
0.0
 10
50.8816612303
 20
137.3618205828
 30
0.0
 10
50.864269282
 20
137.3006923119
 30
0.0
 10
50.8501867903
 20
137.2596886828
 30
0.0
 10
50.8370953163
 20
137.230207223
 30
0.0
 10
50.8223805843
 20
137.2117398025
 30
0.0
 10
50.8148975885
 20
137.2117398025
 30
0.0
  0
SPLINE
  5
457
100
AcDbEntity
  8
BEZUGSACHSEN
100
AcDbSpline
 62
7
  6
CONTINUOUS
 70
0
 71
3
 72
19
 73
15
 74
0
 42
0.0000001
 43
0.0000001
 44
0.0000000001
 40
0.0
 40
0.0
 40
0.0
 40
0.0
 40
0.0189666138
 40
0.0367192013
 40
0.0572072382
 40
0.0812012979
 40
0.1362080972
 40
0.1960766891
 40
0.2584448932
 40
0.3223070636
 40
0.4529510524
 40
0.5864204242
 40
0.7221993171
 40
1.0
 40
1.0
 40
1.0
 40
1.0
 10
51.8731802399
 20
153.3857978084
 30
0.0
 10
51.8776858022
 20
153.3885793961
 30
0.0
 10
51.8875264809
 20
153.3930315278
 30
0.0
 10
51.9039882194
 20
153.3895698394
 30
0.0
 10
51.9180250599
 20
153.3788870602
 30
0.0
 10
51.9363749986
 20
153.3579668872
 30
0.0
 10
51.9576901684
 20
153.3254527523
 30
0.0
 10
51.9830972694
 20
153.2830225069
 30
0.0
 10
52.00900595
 20
153.2379781474
 30
0.0
 10
52.0446516765
 20
153.1757553078
 30
0.0
 10
52.0905804256
 20
153.0965403205
 30
0.0
 10
52.1481268642
 20
153.0008672975
 30
0.0
 10
52.2292308397
 20
152.871451703
 30
0.0
 10
52.2933841561
 20
152.7754077246
 30
0.0
 10
52.3376699128
 20
152.7117398025
 30
0.0
  0
SPLINE
  5
458
100
AcDbEntity
  8
BEZUGSACHSEN
100
AcDbSpline
 62
7
  6
CONTINUOUS
 70
0
 71
3
 72
16
 73
12
 74
0
 42
0.0000001
 43
0.0000001
 44
0.0000000001
 40
0.0
 40
0.0
 40
0.0
 40
0.0
 40
0.2774689007
 40
0.4146725649
 40
0.5502227467
 40
0.6830957776
 40
0.8109875422
 40
0.8712807445
 40
0.9268968922
 40
0.9725582855
 40
1.0
 40
1.0
 40
1.0
 40
1.0
 10
69.5192319282
 20
138.0031761573
 30
0.0
 10
69.5192315379
 20
137.9289879839
 30
0.0
 10
69.5186206993
 20
137.8181090725
 30
0.0
 10
69.5157950574
 20
137.6710240381
 30
0.0
 10
69.5123562156
 20
137.5626029649
 30
0.0
 10
69.507090968
 20
137.4568237997
 30
0.0
 10
69.5002730922
 20
137.371044861
 30
0.0
 10
69.4923392729
 20
137.3066661243
 30
0.0
 10
69.4842041291
 20
137.2632981495
 30
0.0
 10
69.4763075657
 20
137.2322420246
 30
0.0
 10
69.462942529
 20
137.2117398025
 30
0.0
 10
69.4556053079
 20
137.2117398025
 30
0.0
  0
SPLINE
  5
459
100
AcDbEntity
  8
0
100
AcDbSpline
 62
7
  6
CONTINUOUS
 70
0
 71
3
 72
13
 73
9
 74
0
 42
0.0000001
 43
0.0000001
 44
0.0000000001
 40
0.0
 40
0.0
 40
0.0
 40
0.0
 40
0.3040532263
 40
0.6043212811
 40
0.7483235405
 40
0.8768711855
 40
0.9679909213
 40
1.0
 40
1.0
 40
1.0
 40
1.0
 10
52.7598646645
 20
207.4517398025
 30
0.0
 10
52.7961623505
 20
206.9624712531
 30
0.0
 10
52.8708591416
 20
205.9902301495
 30
0.0
 10
52.9625309284
 20
204.7861875413
 30
0.0
 10
53.0110416549
 20
203.8630708143
 30
0.0
 10
53.019651928
 20
203.2761199043
 30
0.0
 10
53.0040652719
 20
202.8700432109
 30
0.0
 10
52.9866975531
 20
202.6721148343
 30
0.0
 10
52.9814331612
 20
202.6207271919
 30
0.0
  0
SPLINE
  5
45A
100
AcDbEntity
  8
0
100
AcDbSpline
 62
7
  6
CONTINUOUS
 70
0
 71
3
 72
22
 73
18
 74
0
 42
0.0000001
 43
0.0000001
 44
0.0000000001
 40
0.0
 40
0.0
 40
0.0
 40
0.0
 40
0.046648168
 40
0.0699497051
 40
0.0945425312
 40
0.1208867256
 40
0.1488221153
 40
0.208053926
 40
0.2701236159
 40
0.3338253316
 40
0.3986040428
 40
0.4640943965
 40
0.5300983003
 40
0.5965110622
 40
0.7302057103
 40
0.8647753896
 40
1.0
 40
1.0
 40
1.0
 40
1.0
 10
53.6540606117
 20
214.7117398025
 30
0.0
 10
53.5337125498
 20
214.7117371241
 30
0.0
 10
53.3468069294
 20
214.6811845178
 30
0.0
 10
53.1431631341
 20
214.5409189694
 30
0.0
 10
53.018890518
 20
214.392812341
 30
0.0
 10
52.9211442481
 20
214.2133345177
 30
0.0
 10
52.8166743323
 20
213.9391499922
 30
0.0
 10
52.7291505015
 20
213.5628436147
 30
0.0
 10
52.6632643154
 20
213.0899370163
 30
0.0
 10
52.6218114365
 20
212.5998810516
 30
0.0
 10
52.5987536844
 20
212.0999155878
 30
0.0
 10
52.58851629
 20
211.593610227
 30
0.0
 10
52.5882962142
 20
211.0830004285
 30
0.0
 10
52.5993885971
 20
210.3965243733
 30
0.0
 10
52.6297366699
 20
209.5335428873
 30
0.0
 10
52.6859999142
 20
208.4940578677
 30
0.0
 10
52.7337971465
 20
207.7996318381
 30
0.0
 10
52.7598646645
 20
207.4517398025
 30
0.0
  0
SPLINE
  5
45B
100
AcDbEntity
  8
BEZUGSACHSEN
100
AcDbSpline
 62
7
  6
CONTINUOUS
 70
0
 71
3
 72
15
 73
11
 74
0
 42
0.0000001
 43
0.0000001
 44
0.0000000001
 40
0.0
 40
0.0
 40
0.0
 40
0.0
 40
0.2504191481
 40
0.3756334132
 40
0.500836492
 40
0.6260072771
 40
0.7511006435
 40
0.8759902096
 40
0.9382282225
 40
1.0
 40
1.0
 40
1.0
 40
1.0
 10
67.9328329836
 20
152.7117398025
 30
0.0
 10
68.0194503326
 20
151.4785837704
 30
0.0
 10
68.155438682
 20
149.629241751
 30
0.0
 10
68.3508590141
 20
147.1645917421
 30
0.0
 10
68.5054226484
 20
145.3169483807
 30
0.0
 10
68.6693406349
 20
143.47070325
 30
0.0
 10
68.8452551879
 20
141.6271258242
 30
0.0
 10
69.0054370125
 20
140.0941247835
 30
0.0
 10
69.14953508
 20
138.8739214143
 30
0.0
 10
69.2301488607
 20
138.2669753796
 30
0.0
 10
69.276719002
 20
137.965616051
 30
0.0
  0
SPLINE
  5
45C
100
AcDbEntity
  8
BEZUGSACHSEN
100
AcDbSpline
 62
7
  6
CONTINUOUS
 70
0
 71
3
 72
16
 73
12
 74
0
 42
0.0000001
 43
0.0000001
 44
0.0000000001
 40
0.0
 40
0.0
 40
0.0
 40
0.0
 40
0.2756984861
 40
0.4122289612
 40
0.54729542
 40
0.6799498967
 40
0.8079914
 40
0.8685859964
 40
0.924727625
 40
0.9712644341
 40
1.0
 40
1.0
 40
1.0
 40
1.0
 10
69.276719002
 20
137.965616051
 30
0.0
 10
69.287692784
 20
137.8946037782
 30
0.0
 10
69.3047041904
 20
137.7885125091
 30
0.0
 10
69.329239091
 20
137.6479999787
 30
0.0
 10
69.3486662205
 20
137.5444269972
 30
0.0
 10
69.3695251219
 20
137.443459605
 30
0.0
 10
69.3888420588
 20
137.3617906497
 30
0.0
 10
69.4062490569
 20
137.3007039267
 30
0.0
 10
69.4202705125
 20
137.2596842318
 30
0.0
 10
69.4334388416
 20
137.2302564705
 30
0.0
 10
69.4481159696
 20
137.2117398025
 30
0.0
 10
69.4556053079
 20
137.2117398025
 30
0.0
  0
SPLINE
  5
45D
100
AcDbEntity
  8
BEZUGSACHSEN
100
AcDbSpline
 62
7
  6
CONTINUOUS
 70
0
 71
3
 72
31
 73
27
 74
0
 42
0.0000001
 43
0.0000001
 44
0.0000000001
 40
0.0
 40
0.0
 40
0.0
 40
0.0
 40
0.0039218149
 40
0.0078442681
 40
0.0117579606
 40
0.0156683261
 40
0.0234812406
 40
0.0312937938
 40
0.0469148004
 40
0.0625362344
 40
0.0781574787
 40
0.0937785737
 40
0.1250196535
 40
0.1562611939
 40
0.1875031527
 40
0.2187455756
 40
0.2499885028
 40
0.3124755149
 40
0.3749650604
 40
0.4374571382
 40
0.499951772
 40
0.5624489681
 40
0.6249487336
 40
0.7499555107
 40
0.8749726364
 40
1.0
 40
1.0
 40
1.0
 40
1.0
 10
60.1352514482
 20
137.2117398025
 30
0.0
 10
60.1557446942
 20
137.2117398025
 30
0.0
 10
60.1967517025
 20
137.225225199
 30
0.0
 10
60.2441041029
 20
137.2652488233
 30
0.0
 10
60.2823729179
 20
137.3135279486
 30
0.0
 10
60.3260509316
 20
137.3826848119
 30
0.0
 10
60.37068737
 20
137.4747732429
 30
0.0
 10
60.4305807696
 20
137.626725603
 30
0.0
 10
60.4912511742
 20
137.8218228297
 30
0.0
 10
60.5519458719
 20
138.0591007212
 30
0.0
 10
60.6045215182
 20
138.2983164672
 30
0.0
 10
60.6668609911
 20
138.6188337779
 30
0.0
 10
60.7337820085
 20
139.0215086304
 30
0.0
 10
60.8025709265
 20
139.5064335453
 30
0.0
 10
60.8628853744
 20
139.9924858176
 30
0.0
 10
60.9166358794
 20
140.4793062877
 30
0.0
 10
60.9811989993
 20
141.1291537782
 30
0.0
 10
61.0508620583
 20
141.9425309123
 30
0.0
 10
61.1213193877
 20
142.919622575
 30
0.0
 10
61.1812937583
 20
143.8974486158
 30
0.0
 10
61.2325740194
 20
144.87580398
 30
0.0
 10
61.2764140569
 20
145.8545589302
 30
0.0
 10
61.326160871
 20
147.1600009738
 30
0.0
 10
61.37381538
 20
148.7924182727
 30
0.0
 10
61.4116032956
 20
150.7518904473
 30
0.0
 10
61.4254266947
 20
152.0584299282
 30
0.0
 10
61.429750112
 20
152.7117398025
 30
0.0
  0
SPLINE
  5
45E
100
AcDbEntity
  8
BEZUGSACHSEN
100
AcDbSpline
 62
7
  6
CONTINUOUS
 70
0
 71
3
 72
15
 73
11
 74
0
 42
0.0000001
 43
0.0000001
 44
0.0000000001
 40
0.0
 40
0.0
 40
0.0
 40
0.0
 40
0.1221411124
 40
0.2445305966
 40
0.3677948215
 40
0.4306723415
 40
0.497079203
 40
0.6313304048
 40
0.7553023616
 40
1.0
 40
1.0
 40
1.0
 40
1.0
 10
66.248920531
 20
266.8702543864
 30
0.0
 10
66.173525576
 20
266.9385726811
 30
0.0
 10
66.0201783225
 20
267.0727210999
 30
0.0
 10
65.7826810779
 20
267.2663597018
 30
0.0
 10
65.5779065656
 20
267.4217521839
 30
0.0
 10
65.4074310843
 20
267.5450267057
 30
0.0
 10
65.2277850296
 20
267.6712190901
 30
0.0
 10
65.0119888364
 20
267.8342548016
 30
0.0
 10
64.6704765926
 20
268.0769678929
 30
0.0
 10
64.4110043602
 20
268.2418579215
 30
0.0
 10
64.2352514482
 20
268.3451004413
 30
0.0
  0
SPLINE
  5
45F
100
AcDbEntity
  8
BEZUGSACHSEN
100
AcDbSpline
 62
7
  6
CONTINUOUS
 70
0
 71
3
 72
13
 73
9
 74
0
 42
0.0000001
 43
0.0000001
 44
0.0000000001
 40
0.0
 40
0.0
 40
0.0
 40
0.0
 40
0.2447421656
 40
0.3683089062
 40
0.4999936729
 40
0.631690717
 40
0.7552577886
 40
1.0
 40
1.0
 40
1.0
 40
1.0
 10
51.5376257401
 20
259.2254219737
 30
0.0
 10
51.5809431466
 20
259.0184171852
 30
0.0
 10
51.6576586435
 20
258.7091735274
 30
0.0
 10
51.7834499477
 20
258.2957568685
 30
0.0
 10
51.8930642745
 20
257.9798006012
 30
0.0
 10
51.9900987327
 20
257.6597565835
 30
0.0
 10
52.1313352168
 20
257.2513468734
 30
0.0
 10
52.2510400527
 20
256.9560709552
 30
0.0
 10
52.3376699128
 20
256.7631391946
 30
0.0
  0
SPLINE
  5
460
100
AcDbEntity
  8
FASEN
100
AcDbSpline
 62
7
  6
CONTINUOUS
 70
0
 71
3
 72
27
 73
23
 74
0
 42
0.0000001
 43
0.0000001
 44
0.0000000001
 40
0.0
 40
0.0
 40
0.0
 40
0.0
 40
0.1929088871
 40
0.378969619
 40
0.5512290148
 40
0.6301364926
 40
0.703152634
 40
0.7695484934
 40
0.8286215457
 40
0.8797553491
 40
0.9223861345
 40
0.9403595627
 40
0.9560443165
 40
0.9693965243
 40
0.9803725749
 40
0.9889394093
 40
0.9923133985
 40
0.9950781131
 40
0.9972313118
 40
0.9987707612
 40
0.9996942659
 40
1.0
 40
1.0
 40
1.0
 40
1.0
 10
55.5352514482
 20
277.0236614992
 30
0.0
 10
55.5267627574
 20
277.2210191173
 30
0.0
 10
55.509878687
 20
277.6087195771
 30
0.0
 10
55.4871065399
 20
278.1727233448
 30
0.0
 10
55.4699201159
 20
278.6201176922
 30
0.0
 10
55.4574909602
 20
278.9518507033
 30
0.0
 10
55.4493076801
 20
279.1752616211
 30
0.0
 10
55.4420147599
 20
279.3783808943
 30
0.0
 10
55.4356453479
 20
279.5591111072
 30
0.0
 10
55.4302095267
 20
279.7155236734
 30
0.0
 10
55.4262376911
 20
279.8298748868
 30
0.0
 10
55.4235186505
 20
279.9079486091
 30
0.0
 10
55.4218539463
 20
279.95605737
 30
0.0
 10
55.4204624832
 20
279.9970115599
 30
0.0
 10
55.4193478133
 20
280.0306662162
 30
0.0
 10
55.4186349972
 20
280.0541494386
 30
0.0
 10
55.4181470507
 20
280.0691587999
 30
0.0
 10
55.4179456069
 20
280.077734478
 30
0.0
 10
55.4175865994
 20
280.0841142654
 30
0.0
 10
55.4177703129
 20
280.0893579354
 30
0.0
 10
55.4170579163
 20
280.0912806582
 30
0.0
 10
55.4176069686
 20
280.093476477
 30
0.0
 10
55.4173027302
 20
280.0934026236
 30
0.0
  0
SPLINE
  5
461
100
AcDbEntity
  8
FASEN
100
AcDbSpline
 62
7
  6
CONTINUOUS
 70
0
 71
3
 72
27
 73
23
 74
0
 42
0.0000001
 43
0.0000001
 44
0.0000000001
 40
0.0
 40
0.0
 40
0.0
 40
0.0
 40
0.0003057341
 40
0.0012292388
 40
0.0027686882
 40
0.0049218869
 40
0.0076866015
 40
0.0110605907
 40
0.0196274251
 40
0.0306034757
 40
0.0439556835
 40
0.0596404373
 40
0.0776138655
 40
0.1202446509
 40
0.1713784543
 40
0.2304515066
 40
0.296847366
 40
0.3698635074
 40
0.4487709852
 40
0.621030381
 40
0.8070911129
 40
1.0
 40
1.0
 40
1.0
 40
1.0
 10
64.8532001661
 20
280.0934026236
 30
0.0
 10
64.8528959278
 20
280.093476477
 30
0.0
 10
64.85344498
 20
280.0912806582
 30
0.0
 10
64.8527325834
 20
280.0893579354
 30
0.0
 10
64.852916297
 20
280.0841142654
 30
0.0
 10
64.8525572894
 20
280.077734478
 30
0.0
 10
64.8523558457
 20
280.0691587999
 30
0.0
 10
64.8518678992
 20
280.0541494386
 30
0.0
 10
64.8511550831
 20
280.0306662162
 30
0.0
 10
64.8500404131
 20
279.9970115599
 30
0.0
 10
64.84864895
 20
279.95605737
 30
0.0
 10
64.8469842459
 20
279.9079486091
 30
0.0
 10
64.8442652053
 20
279.8298748868
 30
0.0
 10
64.8402933697
 20
279.7155236734
 30
0.0
 10
64.8348575484
 20
279.5591111072
 30
0.0
 10
64.8284881364
 20
279.3783808943
 30
0.0
 10
64.8211952163
 20
279.1752616211
 30
0.0
 10
64.8130119362
 20
278.9518507033
 30
0.0
 10
64.8005827805
 20
278.6201176922
 30
0.0
 10
64.7833963565
 20
278.1727233448
 30
0.0
 10
64.7606242093
 20
277.6087195771
 30
0.0
 10
64.743740139
 20
277.2210191173
 30
0.0
 10
64.7352514482
 20
277.0236614992
 30
0.0
  0
SPLINE
  5
462
100
AcDbEntity
  8
BEZUGSACHSEN
100
AcDbSpline
 62
7
  6
CONTINUOUS
 70
0
 71
3
 72
13
 73
9
 74
0
 42
0.0000001
 43
0.0000001
 44
0.0000000001
 40
0.0
 40
0.0
 40
0.0
 40
0.0
 40
0.2447427013
 40
0.36830986
 40
0.4999986513
 40
0.6316900248
 40
0.7552572807
 40
1.0
 40
1.0
 40
1.0
 40
1.0
 10
58.8407527844
 20
252.0383729252
 30
0.0
 10
59.0510123126
 20
252.0156021795
 30
0.0
 10
59.3688277276
 20
251.9930014452
 30
0.0
 10
59.8008862895
 20
251.9848831254
 30
0.0
 10
60.1352501834
 20
251.9914974175
 30
0.0
 10
60.4696141618
 20
251.9848830563
 30
0.0
 10
60.9016750534
 20
251.9930014509
 30
0.0
 10
61.2194905683
 20
252.0156021779
 30
0.0
 10
61.429750112
 20
252.0383729252
 30
0.0
  0
SPLINE
  5
463
100
AcDbEntity
  8
BEZUGSACHSEN
100
AcDbSpline
 62
7
  6
CONTINUOUS
 70
0
 71
3
 72
13
 73
9
 74
0
 42
0.0000001
 43
0.0000001
 44
0.0000000001
 40
0.0
 40
0.0
 40
0.0
 40
0.0
 40
0.2447432895
 40
0.3683105924
 40
0.4999896197
 40
0.6316888524
 40
0.7552566391
 40
1.0
 40
1.0
 40
1.0
 40
1.0
 10
67.9328329836
 20
256.7631391946
 30
0.0
 10
68.0194632249
 20
256.9560718043
 30
0.0
 10
68.1391685764
 20
257.2513487483
 30
0.0
 10
68.2803998189
 20
257.6597449844
 30
0.0
 10
68.3774349658
 20
257.9797857619
 30
0.0
 10
68.4870475953
 20
258.2957403113
 30
0.0
 10
68.6128436492
 20
258.709170602
 30
0.0
 10
68.6895595383
 20
259.0184161751
 30
0.0
 10
68.7328771562
 20
259.2254219737
 30
0.0
  0
SPLINE
  5
464
100
AcDbEntity
  8
BEZUGSACHSEN
100
AcDbSpline
 62
7
  6
CONTINUOUS
 70
0
 71
3
 72
15
 73
11
 74
0
 42
0.0000001
 43
0.0000001
 44
0.0000000001
 40
0.0
 40
0.0
 40
0.0
 40
0.0
 40
0.244703486
 40
0.3686778365
 40
0.5028940936
 40
0.569315557
 40
0.6321955477
 40
0.7554637043
 40
0.8778560354
 40
1.0
 40
1.0
 40
1.0
 40
1.0
 10
56.0352514482
 20
268.3451004413
 30
0.0
 10
55.8594943358
 20
268.2418554541
 30
0.0
 10
55.6000165035
 20
268.0769614137
 30
0.0
 10
55.2585226605
 20
267.8342608092
 30
0.0
 10
55.0427397628
 20
267.6712322493
 30
0.0
 10
54.86310455
 20
267.5450502959
 30
0.0
 10
54.6926146022
 20
267.4217659171
 30
0.0
 10
54.4878336962
 20
267.2663691097
 30
0.0
 10
54.250329956
 20
267.0727257729
 30
0.0
 10
54.0969790812
 20
266.9385742767
 30
0.0
 10
54.0215823654
 20
266.8702543864
 30
0.0
  0
SPLINE
  5
465
100
AcDbEntity
  8
FASEN
100
AcDbSpline
 62
7
  6
CONTINUOUS
 70
0
 71
3
 72
27
 73
23
 74
0
 42
0.0000001
 43
0.0000001
 44
0.0000000001
 40
0.0
 40
0.0
 40
0.0
 40
0.0
 40
0.0003059216
 40
0.0012295813
 40
0.0027691141
 40
0.0049223331
 40
0.0076870187
 40
0.0110609443
 40
0.0196276079
 40
0.030603526
 40
0.0439556815
 40
0.059640437
 40
0.0776138927
 40
0.1202447217
 40
0.1713785499
 40
0.2304516057
 40
0.2968474825
 40
0.3698636396
 40
0.4487711266
 40
0.6210305262
 40
0.8070911633
 40
1.0
 40
1.0
 40
1.0
 40
1.0
 10
55.4173027302
 20
73.7126856079
 30
0.0
 10
55.4176071551
 20
73.7126117093
 30
0.0
 10
55.417048905
 20
73.7148090074
 30
0.0
 10
55.41776625
 20
73.7167314788
 30
0.0
 10
55.4175778807
 20
73.7219757936
 30
0.0
 10
55.4179384195
 20
73.7283555206
 30
0.0
 10
55.4181397782
 20
73.7369311583
 30
0.0
 10
55.418629512
 20
73.7519401793
 30
0.0
 10
55.4193446478
 20
73.7754229605
 30
0.0
 10
55.4204613268
 20
73.8090771787
 30
0.0
 10
55.4218536109
 20
73.850031151
 30
0.0
 10
55.4235185368
 20
73.8981398761
 30
0.0
 10
55.4262372986
 20
73.9762136767
 30
0.0
 10
55.4302088886
 20
74.0905649874
 30
0.0
 10
55.4356450801
 20
74.2469776016
 30
0.0
 10
55.4420148277
 20
74.4277078347
 30
0.0
 10
55.4493079011
 20
74.6308271234
 30
0.0
 10
55.4574911752
 20
74.8542380666
 30
0.0
 10
55.4699203206
 20
75.1859710803
 30
0.0
 10
55.4871055274
 20
75.6333653543
 30
0.0
 10
55.5098821617
 20
76.1973687589
 30
0.0
 10
55.5267740474
 20
76.5850686966
 30
0.0
 10
55.5352514482
 20
76.7824267324
 30
0.0
  0
SPLINE
  5
466
100
AcDbEntity
  8
0
100
AcDbSpline
 62
7
  6
CONTINUOUS
 70
0
 71
3
 72
11
 73
7
 74
0
 42
0.0000001
 43
0.0000001
 44
0.0000000001
 40
0.0
 40
0.0
 40
0.0
 40
0.0
 40
0.1512511463
 40
0.3382891261
 40
0.6063694922
 40
1.0
 40
1.0
 40
1.0
 40
1.0
 10
64.2352514482
 20
85.6032397755
 30
0.0
 10
64.3643765723
 20
85.6071081502
 30
0.0
 10
64.6530202956
 20
85.6325452384
 30
0.0
 10
65.1589578332
 20
85.7541152215
 30
0.0
 10
65.8200736437
 20
86.0667519584
 30
0.0
 10
66.2603825775
 20
86.4314358538
 30
0.0
 10
66.5002514481
 20
86.6670038544
 30
0.0
  0
SPLINE
  5
467
100
AcDbEntity
  8
FASEN
100
AcDbSpline
 62
7
  6
CONTINUOUS
 70
0
 71
3
 72
27
 73
23
 74
0
 42
0.0000001
 43
0.0000001
 44
0.0000000001
 40
0.0
 40
0.0
 40
0.0
 40
0.0
 40
0.1929088367
 40
0.3789694738
 40
0.5512288734
 40
0.6301363604
 40
0.7031525175
 40
0.7695483943
 40
0.8286214501
 40
0.8797552783
 40
0.9223861073
 40
0.940359563
 40
0.9560443185
 40
0.969396474
 40
0.9803723921
 40
0.9889390557
 40
0.9923129813
 40
0.9950776669
 40
0.9972308859
 40
0.9987704187
 40
0.9996940784
 40
1.0
 40
1.0
 40
1.0
 40
1.0
 10
64.7352514482
 20
76.7824267324
 30
0.0
 10
64.743728849
 20
76.5850686966
 30
0.0
 10
64.7606207346
 20
76.1973687589
 30
0.0
 10
64.783397369
 20
75.6333653543
 30
0.0
 10
64.8005825757
 20
75.1859710803
 30
0.0
 10
64.8130117211
 20
74.8542380666
 30
0.0
 10
64.8211949953
 20
74.6308271234
 30
0.0
 10
64.8284880687
 20
74.4277078347
 30
0.0
 10
64.8348578163
 20
74.2469776016
 30
0.0
 10
64.8402940078
 20
74.0905649874
 30
0.0
 10
64.8442655978
 20
73.9762136767
 30
0.0
 10
64.8469843596
 20
73.8981398761
 30
0.0
 10
64.8486492855
 20
73.850031151
 30
0.0
 10
64.8500415696
 20
73.8090771787
 30
0.0
 10
64.8511582486
 20
73.7754229605
 30
0.0
 10
64.8518733844
 20
73.7519401793
 30
0.0
 10
64.8523631182
 20
73.7369311583
 30
0.0
 10
64.8525644769
 20
73.7283555206
 30
0.0
 10
64.8529250157
 20
73.7219757936
 30
0.0
 10
64.8527366463
 20
73.7167314788
 30
0.0
 10
64.8534539914
 20
73.7148090074
 30
0.0
 10
64.8528957412
 20
73.7126117093
 30
0.0
 10
64.8532001661
 20
73.7126856079
 30
0.0
  0
SPLINE
  5
468
100
AcDbEntity
  8
0
100
AcDbSpline
 62
7
  6
CONTINUOUS
 70
0
 71
3
 72
19
 73
15
 74
0
 42
0.0000001
 43
0.0000001
 44
0.0000000001
 40
0.0
 40
0.0
 40
0.0
 40
0.0
 40
0.0665698837
 40
0.1434145447
 40
0.1949864432
 40
0.2688339453
 40
0.3736806389
 40
0.5000176169
 40
0.6263334985
 40
0.7311745793
 40
0.8050078989
 40
0.8565790106
 40
0.9334269276
 40
1.0
 40
1.0
 40
1.0
 40
1.0
 10
67.5106382319
 20
90.2482447687
 30
0.0
 10
67.473308233
 20
90.3728255191
 30
0.0
 10
67.3905260988
 20
90.6403424127
 30
0.0
 10
67.296169396
 20
91.0104771836
 30
0.0
 10
67.2535829046
 20
91.4042175978
 30
0.0
 10
67.2540964303
 20
91.8545745427
 30
0.0
 10
67.2790159203
 20
92.4498567822
 30
0.0
 10
67.2944341026
 20
93.148304784
 30
0.0
 10
67.2790118697
 20
93.846741386
 30
0.0
 10
67.2540649315
 20
94.4419438468
 30
0.0
 10
67.2536055701
 20
94.8922598679
 30
0.0
 10
67.2961828886
 20
95.285977255
 30
0.0
 10
67.3905382142
 20
95.6561238631
 30
0.0
 10
67.4733064448
 20
95.923658051
 30
0.0
 10
67.5106382319
 20
96.0482447687
 30
0.0
  0
SPLINE
  5
469
100
AcDbEntity
  8
0
100
AcDbSpline
 62
7
  6
CONTINUOUS
 70
0
 71
3
 72
13
 73
9
 74
0
 42
0.0000001
 43
0.0000001
 44
0.0000000001
 40
0.0
 40
0.0
 40
0.0
 40
0.0
 40
0.149515468
 40
0.3214762659
 40
0.4240904413
 40
0.5509758549
 40
0.7328422639
 40
1.0
 40
1.0
 40
1.0
 40
1.0
 10
67.5106382319
 20
96.0482447687
 30
0.0
 10
67.5655657696
 20
96.2283538267
 30
0.0
 10
67.6577518772
 20
96.6240022265
 30
0.0
 10
67.6956934526
 20
97.1600307844
 30
0.0
 10
67.6510825253
 20
97.6648480166
 30
0.0
 10
67.5297375526
 20
98.1710847861
 30
0.0
 10
67.2170906684
 20
98.8326089998
 30
0.0
 10
66.8522156313
 20
99.2732172933
 30
0.0
 10
66.6164673235
 20
99.5132702648
 30
0.0
  0
SPLINE
  5
46A
100
AcDbEntity
  8
0
100
AcDbSpline
 62
7
  6
CONTINUOUS
 70
0
 71
3
 72
13
 73
9
 74
0
 42
0.0000001
 43
0.0000001
 44
0.0000000001
 40
0.0
 40
0.0
 40
0.0
 40
0.0
 40
0.2671616375
 40
0.4490265967
 40
0.5759104807
 40
0.6785251259
 40
0.8504853191
 40
1.0
 40
1.0
 40
1.0
 40
1.0
 10
66.5003024404
 20
99.6294356049
 30
0.0
 10
66.2602446387
 20
99.8651905115
 30
0.0
 10
65.8196328473
 20
100.2300746356
 30
0.0
 10
65.1581022042
 20
100.542727631
 30
0.0
 10
64.6518637867
 20
100.6640724073
 30
0.0
 10
64.1470442866
 20
100.7086875763
 30
0.0
 10
63.6110116348
 20
100.6707456985
 30
0.0
 10
63.2153612478
 20
100.5785593163
 30
0.0
 10
63.0352514482
 20
100.5236315525
 30
0.0
  0
SPLINE
  5
46B
100
AcDbEntity
  8
0
100
AcDbSpline
 62
7
  6
CONTINUOUS
 70
0
 71
3
 72
19
 73
15
 74
0
 42
0.0000001
 43
0.0000001
 44
0.0000000001
 40
0.0
 40
0.0
 40
0.0
 40
0.0
 40
0.0665715085
 40
0.1434177122
 40
0.1949868139
 40
0.2688256243
 40
0.373663752
 40
0.499992173
 40
0.626329534
 40
0.7311757456
 40
0.8050131753
 40
0.8565822329
 40
0.9334283815
 40
1.0
 40
1.0
 40
1.0
 40
1.0
 10
63.0352514482
 20
100.5236315525
 30
0.0
 10
62.9106677319
 20
100.4863006648
 30
0.0
 10
62.6431409952
 20
100.4035297645
 30
0.0
 10
62.2730042969
 20
100.3091811635
 30
0.0
 10
61.879284982
 20
100.2665889546
 30
0.0
 10
61.4289674401
 20
100.2670754728
 30
0.0
 10
60.8337359649
 20
100.2920062477
 30
0.0
 10
60.1352799281
 20
100.3074113755
 30
0.0
 10
59.4368080158
 20
100.2920087332
 30
0.0
 10
58.8415460185
 20
100.2670739948
 30
0.0
 10
58.3912155616
 20
100.2665906465
 30
0.0
 10
57.9974989472
 20
100.3091807682
 30
0.0
 10
57.6273624505
 20
100.4035305851
 30
0.0
 10
57.3598353704
 20
100.4863006031
 30
0.0
 10
57.2352514482
 20
100.5236315525
 30
0.0
  0
SPLINE
  5
46C
100
AcDbEntity
  8
0
100
AcDbSpline
 62
7
  6
CONTINUOUS
 70
0
 71
3
 72
13
 73
9
 74
0
 42
0.0000001
 43
0.0000001
 44
0.0000000001
 40
0.0
 40
0.0
 40
0.0
 40
0.0
 40
0.1494987812
 40
0.3214363143
 40
0.4240294303
 40
0.5508808412
 40
0.7327038456
 40
1.0
 40
1.0
 40
1.0
 40
1.0
 10
57.2352514482
 20
100.5236315525
 30
0.0
 10
57.0551642956
 20
100.5785524097
 30
0.0
 10
56.6595691036
 20
100.6707270996
 30
0.0
 10
56.1236255271
 20
100.7086711728
 30
0.0
 10
55.6189091418
 20
100.6641127113
 30
0.0
 10
55.1127840963
 20
100.5428625529
 30
0.0
 10
54.4511510774
 20
100.2302847762
 30
0.0
 10
54.0104273161
 20
99.8653528274
 30
0.0
 10
53.7702514481
 20
99.6294856829
 30
0.0
  0
SPLINE
  5
46D
100
AcDbEntity
  8
0
100
AcDbSpline
 62
7
  6
CONTINUOUS
 70
0
 71
3
 72
14
 73
10
 74
0
 42
0.0000001
 43
0.0000001
 44
0.0000000001
 40
0.0
 40
0.0
 40
0.0
 40
0.0
 40
0.1412052967
 40
0.2678121964
 40
0.4495153453
 40
0.5762532701
 40
0.6787738147
 40
0.8505960088
 40
1.0
 40
1.0
 40
1.0
 40
1.0
 10
66.6164422845
 20
86.7831937766
 30
0.0
 10
66.7411033901
 20
86.910130142
 30
0.0
 10
66.9664580287
 20
87.1623425972
 30
0.0
 10
67.2939555165
 20
87.6258301849
 30
0.0
 10
67.5300254031
 20
88.1263482834
 30
0.0
 10
67.6511649212
 20
88.6322499898
 30
0.0
 10
67.6956835444
 20
89.1368443205
 30
0.0
 10
67.6577132332
 20
89.6726685792
 30
0.0
 10
67.5655497719
 20
90.0681881678
 30
0.0
 10
67.5106382319
 20
90.2482447687
 30
0.0
  0
SPLINE
  5
46E
100
AcDbEntity
  8
0
100
AcDbSpline
 62
7
  6
CONTINUOUS
 70
0
 71
3
 72
13
 73
9
 74
0
 42
0.0000001
 43
0.0000001
 44
0.0000000001
 40
0.0
 40
0.0
 40
0.0
 40
0.0
 40
0.2671615449
 40
0.4490265085
 40
0.575910375
 40
0.678525063
 40
0.8504853013
 40
1.0
 40
1.0
 40
1.0
 40
1.0
 10
53.6540606117
 20
99.5132957607
 30
0.0
 10
53.4183057876
 20
99.2732380429
 30
0.0
 10
53.0534217876
 20
98.832626329
 30
0.0
 10
52.7407686333
 20
98.1710958946
 30
0.0
 10
52.6194239659
 20
97.6648574141
 30
0.0
 10
52.5748086451
 20
97.1600378466
 30
0.0
 10
52.6127504758
 20
96.6240050474
 30
0.0
 10
52.7049368943
 20
96.2283545891
 30
0.0
 10
52.7598646645
 20
96.0482447687
 30
0.0
  0
SPLINE
  5
46F
100
AcDbEntity
  8
0
100
AcDbSpline
 62
7
  6
CONTINUOUS
 70
0
 71
3
 72
19
 73
15
 74
0
 42
0.0000001
 43
0.0000001
 44
0.0000000001
 40
0.0
 40
0.0
 40
0.0
 40
0.0
 40
0.0665730227
 40
0.1434210247
 40
0.1949921815
 40
0.2688260961
 40
0.3736666962
 40
0.4999828065
 40
0.6263194886
 40
0.7311659143
 40
0.8050132993
 40
0.8565852676
 40
0.933430077
 40
1.0
 40
1.0
 40
1.0
 40
1.0
 10
52.7598646645
 20
96.0482447687
 30
0.0
 10
52.7971964237
 20
95.9236581439
 30
0.0
 10
52.8799654
 20
95.6561240892
 30
0.0
 10
52.974319988
 20
95.2859771718
 30
0.0
 10
53.0168982939
 20
94.8922584477
 30
0.0
 10
53.0164365669
 20
94.4419420591
 30
0.0
 10
52.9914911569
 20
93.8467389306
 30
0.0
 10
52.9760695354
 20
93.1483033815
 30
0.0
 10
52.991487009
 20
92.449856032
 30
0.0
 10
53.016406651
 20
91.8545751163
 30
0.0
 10
53.016919775
 20
91.4042187933
 30
0.0
 10
52.9743334327
 20
91.0104781818
 30
0.0
 10
52.8799770558
 20
90.6403428015
 30
0.0
 10
52.7971946854
 20
90.3728255926
 30
0.0
 10
52.7598646645
 20
90.2482447687
 30
0.0
  0
SPLINE
  5
470
100
AcDbEntity
  8
0
100
AcDbSpline
 62
7
  6
CONTINUOUS
 70
0
 71
3
 72
13
 73
9
 74
0
 42
0.0000001
 43
0.0000001
 44
0.0000000001
 40
0.0
 40
0.0
 40
0.0
 40
0.0
 40
0.1494987409
 40
0.3214362268
 40
0.4240293024
 40
0.5508807487
 40
0.7327037223
 40
1.0
 40
1.0
 40
1.0
 40
1.0
 10
52.7598646645
 20
90.2482447687
 30
0.0
 10
52.7049438215
 20
90.0681576631
 30
0.0
 10
52.6127690974
 20
89.6725625897
 30
0.0
 10
52.5748249788
 20
89.1366191769
 30
0.0
 10
52.6193833226
 20
88.6319028381
 30
0.0
 10
52.7406335574
 20
88.1257778517
 30
0.0
 10
53.0532112176
 20
87.4641446072
 30
0.0
 10
53.4181432786
 20
87.0234207496
 30
0.0
 10
53.6540105341
 20
86.7832447686
 30
0.0
  0
SPLINE
  5
471
100
AcDbEntity
  8
0
100
AcDbSpline
 62
7
  6
CONTINUOUS
 70
0
 71
3
 72
12
 73
8
 74
0
 42
0.0000001
 43
0.0000001
 44
0.0000000001
 40
0.0
 40
0.0
 40
0.0
 40
0.0
 40
0.207898712
 40
0.3943575467
 40
0.6621148384
 40
0.848921262
 40
1.0
 40
1.0
 40
1.0
 40
1.0
 10
53.770200456
 20
86.6670539325
 30
0.0
 10
53.8969751031
 20
86.5425516465
 30
0.0
 10
54.1488789301
 20
86.3174329342
 30
0.0
 10
54.6118938565
 20
85.9901012351
 30
0.0
 10
55.1120907077
 20
85.7539894643
 30
0.0
 10
55.617671914
 20
85.6325125577
 30
0.0
 10
55.9061853654
 20
85.6071063814
 30
0.0
 10
56.0352514482
 20
85.6032397755
 30
0.0
  0
SPLINE
  5
472
100
AcDbEntity
  8
BEZUGSACHSEN
100
AcDbSpline
 62
7
  6
CONTINUOUS
 70
0
 71
3
 72
13
 73
9
 74
0
 42
0.0000001
 43
0.0000001
 44
0.0000000001
 40
0.0
 40
0.0
 40
0.0
 40
0.0
 40
0.1020282286
 40
0.208343896
 40
0.322314565
 40
0.4467720957
 40
0.71773805
 40
1.0
 40
1.0
 40
1.0
 40
1.0
 10
56.0352514482
 20
81.6429903476
 30
0.0
 10
55.99778273
 20
81.6360077903
 30
0.0
 10
55.9220663912
 20
81.6159002984
 30
0.0
 10
55.8142489951
 20
81.5597540627
 30
0.0
 10
55.7177945284
 20
81.4720524556
 30
0.0
 10
55.6146340208
 20
81.3099529315
 30
0.0
 10
55.5477669038
 20
81.0611731614
 30
0.0
 10
55.5352514482
 20
80.8544568409
 30
0.0
 10
55.5352514482
 20
80.7490147225
 30
0.0
  0
SPLINE
  5
473
100
AcDbEntity
  8
BEZUGSACHSEN
100
AcDbSpline
 62
7
  6
CONTINUOUS
 70
0
 71
3
 72
14
 73
10
 74
0
 42
0.0000001
 43
0.0000001
 44
0.0000000001
 40
0.0
 40
0.0
 40
0.0
 40
0.0
 40
0.2820317813
 40
0.4204151346
 40
0.5535460701
 40
0.6777635665
 40
0.7917573875
 40
0.8979892155
 40
1.0
 40
1.0
 40
1.0
 40
1.0
 10
64.7352514482
 20
80.7490147226
 30
0.0
 10
64.7352514482
 20
80.8544563035
 30
0.0
 10
64.7255251449
 20
81.0122540167
 30
0.0
 10
64.681496713
 20
81.2149829162
 30
0.0
 10
64.628074861
 20
81.3537443298
 30
0.0
 10
64.5527281375
 20
81.4719193417
 30
0.0
 10
64.4563440088
 20
81.5596744826
 30
0.0
 10
64.3485038773
 20
81.6159473667
 30
0.0
 10
64.2727441425
 20
81.6360033222
 30
0.0
 10
64.2352514482
 20
81.6429903476
 30
0.0
  0
ENDSEC
  0
SECTION
  2
OBJECTS
  0
DICTIONARY
  5
C
100
AcDbDictionary
280
0
281
1
  3
ACAD_GROUP
350
D
  3
ACAD_MLINESTYLE
350
17
  3
ACAD_LAYOUT
350
1A
  3
ACAD_PLOTSETTINGS
350
19
  3
ACAD_PLOTSTYLENAME
350
E
  3
ACAD_TABLESTYLE
350
       474
  0
DICTIONARY
  5
D
102
{ACAD_REACTORS
330
C
102
}
100
AcDbDictionary
280
0
281
1
  0
ACDBDICTIONARYWDFLT
  5
E
102
{ACAD_REACTORS
330
C
102
}
100
AcDbDictionary
281
1
  3
Normal
350
F
100
AcDbDictionaryWithDefault
340
F
  0
DICTIONARY
  5
17
102
{ACAD_REACTORS
330
C
102
}
100
AcDbDictionary
280
0
281
1
  3
Standard
350
18
  0
DICTIONARY
  5
474
330
C
100
AcDbDictionary
281
1
  3
Standard
350
       477
  3
Standard1
350
       478
  0
DICTIONARY
  5
19
102
{ACAD_REACTORS
330
C
102
}
100
AcDbDictionary
281
1
  0
DICTIONARY
  5
1A
102
{ACAD_REACTORS
330
C
102
}
100
AcDbDictionary
281
1
  3
Model
350
475
  3
Layout1
350
476
  0
ACDBPLACEHOLDER
  5
F
102
{ACAD_REACTORS
330
E
102
}
  0
MLINESTYLE
  5
18
102
{ACAD_REACTORS
330
17
102
}
100
AcDbMlineStyle
  2
STANDARD
 70
0
  3

 62
256
 51
90.0
 52
90.0
 71
2
 49
0.5
 62
256
  6
BYLAYER
 49
-0.5
 62
256
  6
BYLAYER
  0
LAYOUT
  5
475
102
{ACAD_REACTORS
330
1A
102
}
100
AcDbPlotSettings
  1

  2
none_device
  4

  6

 40
0.0
 41
0.0
 42
0.0
 43
0.0
 44
210.0
 45
297.0
 46
0.0
 47
0.0
 48
0.0
 49
0.0
140
0.0
141
0.0
142
1.0
143
1.0
 70
1024
 72
1
 73
0
 74
0
  7

 75
0
147
1.0
148
0.0
149
0.0
100
AcDbLayout
  1
Model
 70
0
 71
0
 10
0.0
 20
0.0
 11
210.0
 21
297.0
 12
0.0
 22
0.0
 32
0.0
 14
0.0
 24
0.0
 34
0.0
 15
0.0
 25
0.0
 35
0.0
146
0.0
 13
0.0
 23
0.0
 33
0.0
 16
1.0
 26
0.0
 36
0.0
 17
0.0
 27
1.0
 37
0.0
 76
0
330
20E
345
0
346
0
  0
LAYOUT
  5
476
102
{ACAD_REACTORS
330
1A
102
}
100
AcDbPlotSettings
  1

  2
none_device
  4

  6

 40
0.0
 41
0.0
 42
0.0
 43
0.0
 44
210.0
 45
297.0
 46
0.0
 47
0.0
 48
0.0
 49
0.0
140
0.0
141
0.0
142
1.0
143
1.0
 70
0
 72
1
 73
0
 74
0
  7

 75
0
147
1.0
148
0.0
149
0.0
100
AcDbLayout
  1
Layout1
 70
0
 71
1
 10
0.0
 20
0.0
 11
210.0
 21
297.0
 12
0.0
 22
0.0
 32
0.0
 14
0.0
 24
0.0
 34
0.0
 15
0.0
 25
0.0
 35
0.0
146
0.0
 13
0.0
 23
0.0
 33
0.0
 16
1.0
 26
0.0
 36
0.0
 17
0.0
 27
1.0
 37
0.0
 76
0
330
20F
345
0
346
0
  0
TABLESTYLE
  5
477
102
{ACAD_REACTORS
330
474
330
2D5
102
}
330
474
100
AcDbTableStyle
  3
Standard
 70
0
 71
0
 40
0.06
 41
0.06
280
1
281
1
  7
Standard
140
0.18
170
1
 62
0
 63
7
283
0
  7
Standard
140
0.18
170
1
 62
0
 63
7
283
0
  7
Standard
140
0.18
170
1
 62
0
 63
7
283
0
  0
TABLESTYLE
  5
478
102
{ACAD_REACTORS
330
474
102
}
330
474
100
AcDbTableStyle
  3
Standard1
 70
1
 71
0
 40
0.06
 41
0.06
280
1
281
1
  7
Standard
140
0.18
170
1
 62
0
 63
7
283
0
  7
Standard
140
0.18
170
1
 62
0
 63
7
283
0
  7
Standard
140
0.18
170
1
 62
0
 63
7
283
0
  0
ENDSEC
  0
EOF
